<?xml version="1.0" encoding="UTF-8"?>
<svg xmlns="http://www.w3.org/2000/svg" xmlns:xlink="http://www.w3.org/1999/xlink" version="1.2" >
<font id="BMW Group Bold">
<font-face  font-family="BMW Group" units-per-em="2048" ascent="1554" descent="-395" font-style="normal" font-weight="700" font-stretch="normal" cap-height="1544" x-height="1081" underline-position="0" underline-thickness="0" />
<missing-glyph  horiz-adv-x="510" d="M51 0 L51 1544 L459 1544 L459 0 L51 0 Z M408 51 L408 1493 L102 1493 L102 51 L408 51 Z " />
<glyph glyph-name="space" unicode="&#x20;" horiz-adv-x="510" d="" />
<glyph glyph-name="exclam" unicode="&#x21;" horiz-adv-x="705" d="M190 0 L190 328 L514 328 L514 0 L190 0 Z M223 528 L190 1204 L190 1544 L514 1544 L514 1204 L481 528 L223 528 Z " />
<glyph glyph-name="quotedbl" unicode="&#x22;" horiz-adv-x="1139" d="M217 819 L145 1327 L145 1544 L483 1544 L483 1327 L412 819 L217 819 Z M727 819 L655 1327 L655 1544 L993 1544 L993 1327 L922 819 L727 819 Z " />
<glyph glyph-name="numbersign" unicode="&#x23;" horiz-adv-x="1446" d="M170 0 L268 371 L55 371 L55 592 L326 592 L399 870 L188 870 L188 1092 L459 1092 L555 1460 L784 1460 L688 1092 L950 1092 L1047 1460 L1276 1460 L1180 1092 L1389 1092 L1389 870 L1120 870 L1047 592 L1255 592 L1255 371 L989 371 L891 0 L662 0 L760 371 L498 371 L399 0 L170 0 Z M555 592 L817 592 L891 870 L629 870 L555 592 Z " />
<glyph glyph-name="dollar" unicode="&#x24;" horiz-adv-x="1434" d="M641 -190 L641 -35 Q392 -18 252 88 Q117 189 53 406 L350 477 Q383 358 457 296 Q525 238 641 221 L641 664 L524 688 Q100 775 100 1122 Q100 1353 289 1475 Q421 1561 641 1579 L641 1702 L801 1702 L801 1577 Q1019 1557 1148 1460 Q1269 1369 1327 1194 L1044 1106 Q972 1275 801 1321 L801 909 L934 881 Q1106 845 1181 794 Q1346 680 1346 439 Q1346 213 1181 89 Q1041 -16 801 -35 L801 -190 L641 -190 Z M801 219 Q1024 248 1024 422 Q1024 538 927 591 Q880 616 801 633 L801 219 Z M635 940 L641 940 L641 1329 Q418 1301 418 1134 Q418 1047 477 1002 Q529 961 635 940 Z " />
<glyph glyph-name="percent" unicode="&#x25;" horiz-adv-x="2130" d="M526 -37 L1362 1497 L1602 1497 L766 -37 L526 -37 Z M1669 889 Q2068 889 2068 427 Q2068 -37 1671 -37 Q1272 -37 1272 427 Q1272 889 1669 889 Z M1666 698 Q1587 698 1553 630 Q1520 563 1520 420 Q1520 251 1575 188 Q1605 154 1670 154 Q1740 154 1775 204 Q1821 268 1821 432 Q1821 593 1765 660 Q1733 698 1666 698 Z M459 1497 Q858 1497 858 1028 Q858 571 461 571 Q61 571 61 1034 Q61 1497 459 1497 Z M457 1307 Q377 1307 343 1240 Q309 1171 309 1028 Q309 762 458 762 Q530 762 567 814 Q610 874 610 1038 Q610 1204 554 1269 Q523 1307 457 1307 Z " />
<glyph glyph-name="ampersand" unicode="&#x26;" horiz-adv-x="1466" d="M362 883 Q304 951 280 993 Q219 1097 219 1198 Q219 1309 290 1399 Q416 1561 676 1561 Q870 1561 995 1454 Q1112 1354 1112 1199 Q1112 1082 1054 1003 Q981 904 801 803 L1049 514 Q1158 628 1235 745 L1448 608 Q1358 449 1214 315 L1466 0 L1102 0 L1008 117 Q906 36 823 4 Q715 -37 570 -37 Q373 -37 233 73 Q61 210 61 440 Q61 643 190 765 Q252 823 362 883 Z M836 319 L528 686 Q459 651 425 609 Q373 546 373 443 Q373 338 441 276 Q504 217 601 217 Q717 217 836 319 Z M627 981 Q635 985 644 989 Q748 1037 791 1085 Q836 1135 836 1198 Q836 1261 782 1300 Q737 1333 667 1333 Q583 1333 539 1287 Q506 1253 506 1196 Q506 1134 558 1062 Q579 1033 605 1004 Q627 981 627 981 Z " />
<glyph glyph-name="quotesingle" unicode="&#x27;" horiz-adv-x="621" d="M213 819 L141 1327 L141 1544 L479 1544 L479 1327 L408 819 L213 819 Z " />
<glyph glyph-name="parenleft" unicode="&#x28;" horiz-adv-x="705" d="M477 -422 Q76 -24 76 579 Q76 1181 477 1579 L668 1444 Q571 1324 495 1142 Q375 853 375 580 Q375 290 505 -9 Q578 -176 668 -287 L477 -422 Z " />
<glyph glyph-name="parenright" unicode="&#x29;" horiz-adv-x="705" d="M227 -422 L37 -287 Q146 -149 225 52 Q330 319 330 585 Q330 796 249 1038 Q168 1279 37 1444 L227 1579 Q629 1180 629 581 Q629 -21 227 -422 Z " />
<glyph glyph-name="asterisk" unicode="&#x2a;" horiz-adv-x="1049" d="M428 692 L432 963 L199 821 L102 987 L340 1118 L102 1249 L199 1415 L432 1274 L428 1544 L621 1544 L616 1274 L850 1415 L946 1247 L709 1118 L946 987 L850 821 L616 963 L621 692 L428 692 Z " />
<glyph glyph-name="plus" unicode="&#x2b;" horiz-adv-x="1288" d="M506 178 L506 602 L92 602 L92 860 L506 860 L506 1284 L784 1284 L784 860 L1198 860 L1198 602 L784 602 L784 178 L506 178 Z " />
<glyph glyph-name="comma" unicode="&#x2c;" horiz-adv-x="621" d="M231 -442 L117 -328 Q197 -249 232 -197 Q283 -119 283 -31 L283 0 L137 0 L137 338 L483 338 L483 23 Q483 -247 231 -442 Z " />
<glyph glyph-name="hyphen" unicode="&#x2d;" horiz-adv-x="938" d="M102 385 L102 702 L836 702 L836 385 L102 385 Z " />
<glyph glyph-name="period" unicode="&#x2e;" horiz-adv-x="621" d="M137 0 L137 338 L483 338 L483 0 L137 0 Z " />
<glyph glyph-name="slash" unicode="&#x2f;" horiz-adv-x="664" d="M0 0 L416 1544 L664 1544 L248 0 L0 0 Z " />
<glyph glyph-name="zero" unicode="0" horiz-adv-x="1288" d="M643 1544 Q1212 1544 1212 753 Q1212 -37 645 -37 Q76 -37 76 753 Q76 1544 643 1544 Z M641 1298 Q495 1298 437 1138 Q389 1006 389 747 Q389 486 445 354 Q505 209 639 209 Q766 209 832 336 Q899 464 899 760 Q899 1298 641 1298 Z " />
<glyph glyph-name="one" unicode="1" horiz-adv-x="1288" d="M611 0 L611 1139 Q476 1043 302 963 L179 1198 Q468 1347 668 1507 L926 1507 L926 0 L611 0 Z " />
<glyph glyph-name="two" unicode="2" horiz-adv-x="1288" d="M98 0 L98 111 Q98 321 275 497 Q335 557 401 604 Q410 611 529 691 Q668 784 735 848 Q854 962 854 1084 Q854 1189 797 1247 Q742 1303 639 1303 Q513 1303 449 1209 Q401 1140 389 999 L82 1038 Q115 1262 223 1383 Q367 1544 652 1544 Q925 1544 1061 1407 Q1186 1281 1186 1078 Q1186 893 1060 744 Q990 661 875 579 Q810 533 732 481 Q581 379 545 346 Q505 309 477 256 L1188 256 L1188 0 L98 0 Z " />
<glyph glyph-name="three" unicode="3" horiz-adv-x="1288" d="M69 469 L377 506 Q387 207 639 207 Q755 207 822 263 Q889 318 889 424 Q889 561 772 614 Q701 646 561 649 L561 897 Q876 905 876 1116 Q876 1197 829 1247 Q770 1309 652 1309 Q487 1309 426 1179 Q402 1127 395 1057 L96 1096 Q166 1544 670 1544 Q852 1544 986 1481 Q1108 1423 1156 1319 Q1198 1227 1198 1124 Q1198 955 1064 850 Q1002 802 913 770 Q1218 722 1218 421 Q1218 289 1163 198 Q1021 -37 643 -37 Q354 -37 205 115 Q72 250 69 469 Z " />
<glyph glyph-name="four" unicode="4" horiz-adv-x="1288" d="M735 0 L735 326 L57 326 L57 594 L713 1507 L1042 1507 L1042 563 L1217 563 L1217 326 L1042 326 L1042 0 L735 0 Z M324 563 L735 563 L735 1151 L324 563 Z " />
<glyph glyph-name="five" unicode="5" horiz-adv-x="1288" d="M90 369 L377 446 Q425 205 625 205 Q878 205 878 511 Q878 642 813 718 Q748 795 622 795 Q521 795 449 733 Q407 697 385 645 L141 684 L293 1507 L1149 1507 L1149 1260 L499 1260 L438 915 Q551 1014 736 1014 Q943 1014 1067 893 Q1196 768 1196 516 Q1196 263 1059 117 Q914 -37 655 -37 Q338 -37 200 136 Q117 241 90 369 Z " />
<glyph glyph-name="six" unicode="6" horiz-adv-x="1288" d="M1187 1225 L896 1149 Q853 1313 687 1313 Q563 1313 495 1199 Q423 1076 413 856 Q535 1001 758 1001 Q970 1001 1087 877 Q1216 740 1216 510 Q1216 261 1072 115 Q922 -37 664 -37 Q429 -37 282 88 Q180 175 129 319 Q75 468 75 704 Q75 1168 273 1380 Q427 1544 707 1544 Q1105 1544 1187 1225 Z M649 780 Q534 780 465 698 Q398 617 398 481 Q398 346 465 265 Q533 184 651 184 Q763 184 833 259 Q906 338 906 486 Q906 637 821 717 Q754 780 649 780 Z " />
<glyph glyph-name="seven" unicode="7" horiz-adv-x="1288" d="M290 0 Q346 325 508 655 Q661 967 894 1239 L134 1239 L134 1507 L1210 1507 L1210 1253 Q773 733 616 0 L290 0 Z " />
<glyph glyph-name="eight" unicode="8" horiz-adv-x="1288" d="M293 786 Q92 897 92 1114 Q92 1303 224 1417 Q372 1544 643 1544 Q915 1544 1064 1417 Q1198 1302 1198 1113 Q1198 895 995 786 Q1241 665 1241 415 Q1241 221 1095 98 Q935 -37 644 -37 Q376 -37 217 77 Q47 200 47 418 Q47 553 123 653 Q187 736 293 786 Z M641 674 Q504 674 435 589 Q385 528 385 430 Q385 324 455 261 Q523 199 645 199 Q762 199 835 259 Q907 318 907 435 Q907 556 821 622 Q753 674 641 674 Z M644 1321 Q528 1321 463 1263 Q399 1207 399 1099 Q399 991 463 933 Q528 874 641 874 Q741 874 802 914 Q891 973 891 1098 Q891 1206 826 1263 Q761 1321 644 1321 Z " />
<glyph glyph-name="nine" unicode="9" horiz-adv-x="1288" d="M114 283 L401 358 Q415 308 433 278 Q483 195 608 195 Q758 195 826 347 Q872 451 884 655 Q758 512 538 512 Q330 512 211 635 Q82 768 82 998 Q82 1246 229 1395 Q376 1544 646 1544 Q901 1544 1050 1393 Q1222 1219 1222 807 Q1222 439 1108 236 Q954 -37 596 -37 Q199 -37 114 283 Z M642 1323 Q511 1323 441 1221 Q391 1148 391 1026 Q391 893 459 813 Q528 733 643 733 Q758 733 829 810 Q899 888 899 1034 Q899 1184 813 1264 Q749 1323 642 1323 Z " />
<glyph glyph-name="colon" unicode="&#x3a;" horiz-adv-x="621" d="M137 0 L137 338 L483 338 L483 0 L137 0 Z M137 743 L137 1081 L483 1081 L483 743 L137 743 Z " />
<glyph glyph-name="semicolon" unicode="&#x3b;" horiz-adv-x="621" d="M231 -442 L117 -328 Q197 -249 232 -197 Q283 -119 283 -31 L283 0 L137 0 L137 338 L483 338 L483 23 Q483 -247 231 -442 Z M137 743 L137 1081 L483 1081 L483 743 L137 743 Z " />
<glyph glyph-name="less" unicode="&#x3c;" horiz-adv-x="1288" d="M1198 178 L92 598 L92 864 L1198 1284 L1198 1018 L442 731 L1198 444 L1198 178 Z " />
<glyph glyph-name="equal" unicode="&#x3d;" horiz-adv-x="1288" d="M92 373 L92 639 L1198 639 L1198 373 L92 373 Z M92 823 L92 1090 L1198 1090 L1198 823 L92 823 Z " />
<glyph glyph-name="greater" unicode="&#x3e;" horiz-adv-x="1288" d="M92 178 L92 444 L848 731 L92 1018 L92 1284 L1198 864 L1198 598 L92 178 Z " />
<glyph glyph-name="question" unicode="&#x3f;" horiz-adv-x="1241" d="M410 0 L410 328 L733 328 L733 0 L410 0 Z M424 494 L424 616 Q424 708 453 752 Q479 794 524 827 Q567 860 629 899 Q703 945 731 970 Q821 1050 821 1152 Q821 1346 601 1346 Q388 1346 354 1085 L53 1126 Q124 1581 607 1581 Q876 1581 1017 1461 Q1145 1353 1145 1156 Q1145 1002 1042 889 Q984 825 862 750 L847 740 L836 733 Q832 730 829 728 Q789 706 760 678 Q719 639 719 569 L719 494 L424 494 Z " />
<glyph glyph-name="at" unicode="&#x40;" horiz-adv-x="1970" d="M1096 483 Q1020 403 956 368 Q878 326 769 326 Q631 326 553 418 Q479 504 479 649 Q479 805 550 947 Q611 1069 701 1134 Q813 1217 951 1217 Q1120 1217 1192 1112 L1210 1188 L1462 1188 L1337 664 Q1327 622 1327 585 Q1327 496 1420 496 Q1538 496 1610 591 Q1683 688 1683 848 Q1683 1067 1532 1223 Q1338 1423 991 1423 Q717 1423 531 1276 Q397 1169 334 996 Q293 885 293 752 Q293 472 465 303 Q644 127 987 127 Q1199 127 1397 193 L1450 20 Q1312 -21 1210.5 -37 Q1109 -53 983 -53 Q498 -53 253 248 Q92 447 92 764 Q92 989 204 1180 Q306 1354 478 1460 Q699 1597 1011 1597 Q1391 1597 1645 1374 Q1781 1255 1841 1085 Q1878 979 1878 853 Q1878 606 1730 459 Q1592 322 1357 322 Q1113 322 1096 483 Z M991 1028 Q893 1028 824 931 Q785 876 763 796 Q743 723 743 669 Q743 512 877 512 Q999 512 1068 643 Q1126 753 1126 871 Q1126 968 1069 1005 Q1035 1028 991 1028 Z " />
<glyph glyph-name="A" unicode="A" horiz-adv-x="1554" d="M0 0 L569 1544 L985 1544 L1554 0 L1200 0 L1083 326 L444 326 L326 0 L0 0 Z M539 590 L987 590 L764 1251 L539 590 Z " />
<glyph glyph-name="B" unicode="B" horiz-adv-x="1542" d="M147 0 L147 1544 L889 1544 Q1112 1544 1242 1461 Q1405 1358 1405 1152 Q1405 917 1206 821 Q1454 722 1454 464 Q1454 0 817 0 L147 0 Z M475 262 L823 262 Q994 262 1062 319 Q1118 366 1118 470 Q1118 595 1029 641 Q961 676 823 676 L475 676 L475 262 Z M475 936 L827 936 Q959 936 1015 978 Q1073 1020 1073 1110 Q1073 1219 984 1258 Q930 1282 827 1282 L475 1282 L475 936 Z " />
<glyph glyph-name="C" unicode="C" horiz-adv-x="1583" d="M1501 1075 L1169 999 Q1091 1305 817 1305 Q626 1305 527 1158 Q432 1018 432 755 Q432 242 821 242 Q1134 242 1182 596 L1520 553 Q1463 291 1325 150 Q1143 -37 818 -37 Q516 -37 329 129 Q92 339 92 760 Q92 1143 282 1359 Q477 1581 830 1581 Q1174 1581 1351 1373 Q1446 1260 1501 1075 Z " />
<glyph glyph-name="D" unicode="D" horiz-adv-x="1567" d="M147 0 L147 1544 L678 1544 Q1083 1544 1281 1351 Q1475 1162 1475 778 Q1475 0 678 0 L147 0 Z M481 268 L684 268 Q911 268 1028 411 Q1135 541 1135 779 Q1135 1047 1003 1171 Q891 1276 692 1276 L481 1276 L481 268 Z " />
<glyph glyph-name="E" unicode="E" horiz-adv-x="1399" d="M147 0 L147 1544 L1290 1544 L1290 1270 L481 1270 L481 924 L1245 924 L1245 649 L481 649 L481 274 L1325 274 L1325 0 L147 0 Z " />
<glyph glyph-name="F" unicode="F" horiz-adv-x="1321" d="M147 0 L147 1544 L1274 1544 L1274 1270 L481 1270 L481 913 L1186 913 L1186 639 L481 639 L481 0 L147 0 Z " />
<glyph glyph-name="G" unicode="G" horiz-adv-x="1614" d="M1501 1100 L1188 1024 Q1148 1151 1075 1220 Q985 1305 831 1305 Q638 1305 533 1157 Q432 1014 432 756 Q432 505 538 372 Q642 240 835 240 Q983 240 1079 310 Q1180 385 1180 504 L1180 575 L932 575 L932 817 L1505 817 L1505 0 L1292 0 L1257 156 Q1101 -37 792 -37 Q508 -37 329 122 Q92 331 92 757 Q92 1141 289 1359 Q489 1581 843 1581 Q1189 1581 1355 1389 Q1451 1279 1501 1100 Z " />
<glyph glyph-name="H" unicode="H" horiz-adv-x="1606" d="M147 0 L147 1544 L481 1544 L481 950 L1124 950 L1124 1544 L1458 1544 L1458 0 L1124 0 L1124 676 L481 676 L481 0 L147 0 Z " />
<glyph glyph-name="I" unicode="I" horiz-adv-x="629" d="M147 0 L147 1544 L481 1544 L481 0 L147 0 Z " />
<glyph glyph-name="J" unicode="J" horiz-adv-x="1243" d="M43 469 L356 504 Q372 373 407 312 Q457 225 565 225 Q776 225 776 475 L776 1544 L1110 1544 L1110 500 Q1110 258 987 118 Q851 -37 573 -37 Q304 -37 171 108 Q61 229 43 469 Z " />
<glyph glyph-name="K" unicode="K" horiz-adv-x="1497" d="M147 0 L147 1544 L481 1544 L481 928 L1079 1544 L1468 1544 L885 944 L1518 0 L1122 0 L655 719 L481 541 L481 0 L147 0 Z " />
<glyph glyph-name="L" unicode="L" horiz-adv-x="1298" d="M147 0 L147 1544 L481 1544 L481 274 L1268 274 L1268 0 L147 0 Z " />
<glyph glyph-name="M" unicode="M" horiz-adv-x="1927" d="M147 0 L147 1544 L594 1544 L971 397 L1343 1544 L1780 1544 L1780 0 L1464 0 L1464 1100 L1100 0 L827 0 L461 1100 L461 0 L147 0 Z " />
<glyph glyph-name="N" unicode="N" horiz-adv-x="1583" d="M147 0 L147 1544 L479 1544 L1122 502 L1122 1544 L1436 1544 L1436 0 L1104 0 L461 1042 L461 0 L147 0 Z " />
<glyph glyph-name="O" unicode="O" horiz-adv-x="1690" d="M844 1581 Q1199 1581 1398 1365 Q1597 1149 1597 770 Q1597 393 1398 179 Q1198 -37 848 -37 Q526 -37 329 141 Q92 354 92 770 Q92 1151 290 1365 Q490 1581 844 1581 Z M844 1305 Q649 1305 538 1158 Q432 1016 432 771 Q432 527 538 386 Q648 240 841 240 Q1019 240 1127 360 Q1257 503 1257 771 Q1257 1016 1149 1158 Q1037 1305 844 1305 Z " />
<glyph glyph-name="P" unicode="P" horiz-adv-x="1458" d="M147 0 L147 1544 L872 1544 Q1119 1544 1258 1414 Q1397 1282 1397 1055 Q1397 825 1237 688 Q1084 557 831 557 L477 557 L477 0 L147 0 Z M477 819 L797 819 Q910 819 981 881 Q1055 947 1055 1056 Q1055 1164 987 1223 Q919 1282 801 1282 L477 1282 L477 819 Z " />
<glyph glyph-name="Q" unicode="Q" horiz-adv-x="1690" d="M1251 -279 L1075 -8 Q959 -35 846 -35 Q489 -35 290 180 Q92 393 92 770 Q92 1151 290 1365 Q490 1581 844 1581 Q1199 1581 1398 1365 Q1597 1149 1597 771 Q1597 323 1307 98 L1462 -141 L1251 -279 Z M911 244 L756 489 L967 629 L1135 369 Q1257 519 1257 770 Q1257 1017 1149 1159 Q1038 1305 844 1305 Q649 1305 538 1158 Q432 1016 432 771 Q432 527 538 386 Q648 240 844 240 L851 240 Q866 240 911 244 Z " />
<glyph glyph-name="R" unicode="R" horiz-adv-x="1528" d="M147 0 L147 1544 L885 1544 Q1168 1544 1301 1391 Q1405 1273 1405 1071 Q1405 783 1133 657 L1464 0 L1090 0 L809 602 L477 602 L477 0 L147 0 Z M477 862 L799 862 Q1063 862 1063 1077 Q1063 1187 997 1235 Q932 1282 799 1282 L477 1282 L477 862 Z " />
<glyph glyph-name="S" unicode="S" horiz-adv-x="1485" d="M53 440 L377 518 Q408 385 474 320 Q565 229 751 229 Q1051 229 1051 424 Q1051 512 990 560 Q926 609 803 629 L616 659 Q379 697 259 788 Q106 905 106 1116 Q106 1343 288 1468 Q453 1581 727 1581 Q1035 1581 1199 1452 Q1326 1352 1384 1159 L1075 1065 Q1035 1187 965 1245 Q878 1317 720 1317 Q596 1317 522 1272 Q444 1223 444 1132 Q444 1057 491 1016 Q547 967 690 942 L948 897 Q1181 856 1284 754 Q1397 641 1397 442 Q1397 224 1236 97 Q1065 -37 749 -37 Q460 -37 298 66 Q119 178 53 440 Z " />
<glyph glyph-name="T" unicode="T" horiz-adv-x="1436" d="M551 0 L551 1270 L31 1270 L31 1544 L1405 1544 L1405 1270 L885 1270 L885 0 L551 0 Z " />
<glyph glyph-name="U" unicode="U" horiz-adv-x="1567" d="M133 1544 L467 1544 L467 580 Q467 240 785 240 Q1100 240 1100 580 L1100 1544 L1434 1544 L1434 602 Q1434 298 1266 129 Q1102 -37 782 -37 Q453 -37 287 143 Q133 310 133 602 L133 1544 Z " />
<glyph glyph-name="V" unicode="V" horiz-adv-x="1470" d="M530 0 L0 1544 L354 1544 L745 315 L1137 1544 L1470 1544 L940 0 L530 0 Z " />
<glyph glyph-name="W" unicode="W" horiz-adv-x="2015" d="M354 0 L0 1544 L348 1544 L575 430 L848 1544 L1178 1544 L1442 430 L1675 1544 L2015 1544 L1640 0 L1278 0 L1006 1090 L719 0 L354 0 Z " />
<glyph glyph-name="X" unicode="X" horiz-adv-x="1448" d="M0 0 L537 784 L43 1544 L424 1544 L737 1059 L1061 1544 L1407 1544 L911 811 L1448 0 L1051 0 L713 530 L362 0 L0 0 Z " />
<glyph glyph-name="Y" unicode="Y" horiz-adv-x="1423" d="M545 0 L545 618 L0 1544 L352 1544 L725 895 L1092 1544 L1423 1544 L879 618 L879 0 L545 0 Z " />
<glyph glyph-name="Z" unicode="Z" horiz-adv-x="1376" d="M70 0 L70 258 L907 1270 L100 1270 L100 1544 L1298 1544 L1298 1286 L461 274 L1315 274 L1315 0 L70 0 Z " />
<glyph glyph-name="bracketleft" unicode="&#x5b;" horiz-adv-x="752" d="M147 -393 L147 1544 L692 1544 L692 1329 L428 1329 L428 -178 L692 -178 L692 -393 L147 -393 Z " />
<glyph glyph-name="backslash" unicode="&#x5c;" horiz-adv-x="664" d="M416 0 L0 1544 L248 1544 L664 0 L416 0 Z " />
<glyph glyph-name="bracketright" unicode="&#x5d;" horiz-adv-x="752" d="M59 -393 L59 -178 L324 -178 L324 1329 L59 1329 L59 1544 L604 1544 L604 -393 L59 -393 Z " />
<glyph glyph-name="asciicircum" unicode="&#x5e;" horiz-adv-x="1352" d="M109 797 L539 1544 L813 1544 L1243 797 L940 797 L676 1268 L412 797 L109 797 Z " />
<glyph glyph-name="underscore" unicode="&#x5f;" horiz-adv-x="1024" d="M0 -266 L0 -143 L1024 -143 L1024 -266 L0 -266 Z " />
<glyph glyph-name="grave" unicode="&#x60;" horiz-adv-x="942" d="M487 1272 L178 1544 L526 1544 L762 1272 L487 1272 Z " />
<glyph glyph-name="a" unicode="a" horiz-adv-x="1186" d="M770 698 L770 745 Q770 897 588 897 Q484 897 429 846 Q399 817 375 764 L111 836 Q140 939 232 1011 Q368 1118 607 1118 Q863 1118 975 1013 Q1073 922 1073 743 L1073 233 Q1073 104 1116 0 L831 0 Q812 62 809 111 Q721 31 649 0 Q562 -37 435 -37 Q272 -37 174 44 Q68 132 68 293 Q68 485 207 573 Q291 627 467 653 L770 698 Z M770 502 L551 469 Q367 441 367 304 Q367 246 403 212 Q443 174 516 174 Q618 174 691 225 Q770 280 770 377 L770 502 Z " />
<glyph glyph-name="b" unicode="b" horiz-adv-x="1315" d="M428 133 L416 0 L127 0 L127 1544 L438 1544 L438 954 Q556 1116 776 1116 Q980 1116 1100 987 Q1239 839 1239 563 Q1239 283 1112 122 Q988 -37 752 -37 Q530 -37 428 133 Z M675 881 Q549 881 483 772 Q432 687 432 534 Q432 378 496 288 Q560 197 678 197 Q781 197 845 271 Q922 361 922 538 Q922 722 837 816 Q777 881 675 881 Z " />
<glyph glyph-name="c" unicode="c" horiz-adv-x="1182" d="M1124 760 L834 688 Q810 770 773 813 Q717 877 622 877 Q501 877 440 776 Q387 689 387 536 Q387 381 447 292 Q506 205 619 205 Q734 205 795 292 Q831 343 844 416 L1137 342 Q1017 -37 614 -37 Q367 -37 227 102 Q76 252 76 534 Q76 786 207 942 Q353 1118 626 1118 Q902 1118 1027 967 Q1094 886 1124 760 Z " />
<glyph glyph-name="d" unicode="d" horiz-adv-x="1315" d="M877 961 L877 1544 L1188 1544 L1188 0 L897 0 L887 143 Q834 60 766 19 Q673 -37 536 -37 Q358 -37 242 65 Q76 211 76 517 Q76 798 200 957 Q324 1116 560 1116 Q757 1116 877 961 Z M635 881 Q509 881 443 770 Q393 686 393 537 Q393 381 457 289 Q523 197 636 197 Q747 197 812 279 Q881 365 881 546 Q881 724 801 813 Q739 881 635 881 Z " />
<glyph glyph-name="e" unicode="e" horiz-adv-x="1221" d="M1153 465 L387 465 Q400 197 635 197 Q799 197 864 344 L1128 223 Q999 -37 625 -37 Q379 -37 235 98 Q76 248 76 538 Q76 794 207 948 Q351 1118 619 1118 Q812 1118 937 1040 Q1153 904 1153 549 L1153 465 Z M387 649 L844 649 Q833 895 617 895 Q422 895 387 649 Z " />
<glyph glyph-name="f" unicode="f" horiz-adv-x="719" d="M172 0 L172 856 L29 856 L29 1081 L172 1081 L172 1212 Q172 1385 260 1473 Q352 1565 525 1565 Q600 1565 752 1542 L731 1321 Q669 1327 638 1327 Q561 1327 522 1291 Q483 1254 483 1167 L483 1081 L717 1081 L717 856 L483 856 L483 0 L172 0 Z " />
<glyph glyph-name="g" unicode="g" horiz-adv-x="1315" d="M115 -184 L383 -84 Q447 -195 607 -195 Q751 -195 819 -129 Q877 -73 877 45 L877 188 Q824 113 761 76 Q673 23 536 23 Q332 23 215 138 Q76 275 76 548 Q76 804 182 948 Q307 1118 555 1118 Q785 1118 885 946 L899 1081 L1188 1081 L1188 76 Q1188 -167 1061 -289 Q920 -424 631 -424 Q416 -424 277 -353 Q157 -292 115 -184 Z M639 883 Q393 883 393 572 Q393 258 635 258 Q881 258 881 571 Q881 883 639 883 Z " />
<glyph glyph-name="h" unicode="h" horiz-adv-x="1278" d="M127 0 L127 1544 L438 1544 L438 936 Q553 1118 791 1118 Q1005 1118 1094 972 Q1151 877 1151 719 L1151 0 L840 0 L840 676 Q840 872 667 872 Q565 872 504 791 Q438 705 438 553 L438 0 L127 0 Z " />
<glyph glyph-name="i" unicode="i" horiz-adv-x="588" d="M137 0 L137 1081 L449 1081 L449 0 L137 0 Z M137 1278 L137 1544 L449 1544 L449 1278 L137 1278 Z " />
<glyph glyph-name="j" unicode="j" horiz-adv-x="598" d="M-127 -395 L-98 -172 Q-32 -186 20 -186 Q147 -186 147 -55 L147 1081 L459 1081 L459 -78 Q459 -424 131 -424 L113 -424 Q-23 -424 -127 -395 Z M147 1278 L147 1544 L459 1544 L459 1278 L147 1278 Z " />
<glyph glyph-name="k" unicode="k" horiz-adv-x="1202" d="M127 0 L127 1544 L438 1544 L438 733 L809 1081 L1194 1081 L801 713 L1219 0 L862 0 L571 518 L438 391 L438 0 L127 0 Z " />
<glyph glyph-name="l" unicode="l" horiz-adv-x="588" d="M137 0 L137 1544 L449 1544 L449 0 L137 0 Z " />
<glyph glyph-name="m" unicode="m" horiz-adv-x="1874" d="M127 0 L127 1081 L424 1081 L440 928 Q545 1118 760 1118 Q985 1118 1059 920 Q1174 1118 1405 1118 Q1745 1118 1745 727 L1745 0 L1434 0 L1434 676 Q1434 872 1286 872 Q1196 872 1147 797 Q1092 713 1092 553 L1092 0 L780 0 L780 676 Q780 872 633 872 Q544 872 494 797 Q438 714 438 553 L438 0 L127 0 Z " />
<glyph glyph-name="n" unicode="n" horiz-adv-x="1278" d="M127 0 L127 1081 L426 1081 L442 928 Q552 1118 791 1118 Q1005 1118 1094 972 Q1151 877 1151 719 L1151 0 L840 0 L840 676 Q840 872 667 872 Q565 872 504 791 Q438 705 438 553 L438 0 L127 0 Z " />
<glyph glyph-name="o" unicode="o" horiz-adv-x="1292" d="M644 1118 Q925 1118 1079 947 Q1217 793 1217 539 Q1217 286 1079 134 Q924 -37 649 -37 Q390 -37 239 105 Q76 259 76 539 Q76 795 211 947 Q364 1118 644 1118 Z M642 879 Q524 879 455 786 Q387 695 387 539 Q387 384 455 294 Q524 203 643 203 Q758 203 828 285 Q903 373 903 544 Q903 718 812 813 Q749 879 642 879 Z " />
<glyph glyph-name="p" unicode="p" horiz-adv-x="1315" d="M127 -393 L127 1081 L416 1081 L426 942 Q486 1027 557 1067 Q646 1118 778 1118 Q980 1118 1100 990 Q1239 842 1239 566 Q1239 285 1112 124 Q988 -35 749 -35 Q541 -35 438 121 L438 -393 L127 -393 Z M675 883 Q549 883 483 774 Q432 690 432 535 Q432 380 496 291 Q560 199 678 199 Q782 199 845 273 Q922 363 922 540 Q922 724 837 818 Q777 883 675 883 Z " />
<glyph glyph-name="q" unicode="q" horiz-adv-x="1315" d="M877 -393 L877 127 Q822 52 757 16 Q665 -35 536 -35 Q336 -35 215 93 Q76 241 76 519 Q76 800 200 958 Q325 1118 560 1118 Q782 1118 885 944 L899 1081 L1188 1081 L1188 -393 L877 -393 Z M635 883 Q509 883 443 772 Q393 689 393 538 Q393 383 457 291 Q523 199 636 199 Q747 199 812 281 Q881 367 881 548 Q881 726 801 815 Q740 883 635 883 Z " />
<glyph glyph-name="r" unicode="r" horiz-adv-x="821" d="M127 0 L127 1081 L422 1081 L438 891 Q469 965 505 1008 Q577 1094 706 1094 Q755 1094 821 1081 L795 821 Q719 831 679 831 Q566 831 501 749 Q438 670 438 532 L438 0 L127 0 Z " />
<glyph glyph-name="s" unicode="s" horiz-adv-x="1139" d="M41 268 L328 348 Q384 186 561 186 Q737 186 737 297 Q737 346 704 373 Q669 402 582 420 L444 449 Q230 494 150 579 Q82 650 82 780 Q82 940 214 1031 Q341 1118 561 1118 Q807 1118 946 1002 Q1014 946 1049 852 L772 756 Q744 827 706 857 Q651 901 554 901 Q395 901 395 790 Q395 715 526 688 L745 643 Q935 604 1006 508 Q1061 433 1061 310 Q1061 151 936 59 Q805 -37 565 -37 Q337 -37 190 61 Q97 123 41 268 Z " />
<glyph glyph-name="t" unicode="t" horiz-adv-x="799" d="M190 856 L49 856 L49 1081 L190 1081 L190 1389 L502 1389 L502 1081 L729 1081 L729 856 L502 856 L502 348 Q502 275 536 244 Q561 221 619 221 Q670 221 731 227 L758 6 Q636 -20 490 -20 Q340 -20 266 55 Q190 132 190 307 L190 856 Z " />
<glyph glyph-name="u" unicode="u" horiz-adv-x="1278" d="M127 1081 L438 1081 L438 416 Q438 316 474 270 Q516 215 608 215 Q724 215 786 308 Q840 390 840 528 L840 1081 L1151 1081 L1151 0 L852 0 L838 154 Q727 -37 495 -37 Q299 -37 205 84 Q127 184 127 344 L127 1081 Z " />
<glyph glyph-name="v" unicode="v" horiz-adv-x="1124" d="M387 0 L0 1081 L332 1081 L567 291 L803 1081 L1124 1081 L739 0 L387 0 Z " />
<glyph glyph-name="w" unicode="w" horiz-adv-x="1675" d="M313 0 L0 1081 L319 1081 L496 281 L688 1081 L997 1081 L1188 281 L1366 1081 L1675 1081 L1362 0 L1010 0 L838 739 L666 0 L313 0 Z " />
<glyph glyph-name="x" unicode="x" horiz-adv-x="1161" d="M0 0 L408 551 L31 1081 L383 1081 L590 786 L801 1081 L1133 1081 L756 563 L1161 0 L801 0 L575 326 L342 0 L0 0 Z " />
<glyph glyph-name="y" unicode="y" horiz-adv-x="1202" d="M92 -389 L139 -170 Q209 -188 276 -188 Q401 -188 451 -61 L471 -10 L0 1081 L336 1081 L618 334 L881 1081 L1202 1081 L743 -129 Q695 -256 629 -324 Q533 -424 365 -424 L346 -424 Q219 -424 92 -389 Z " />
<glyph glyph-name="z" unicode="z" horiz-adv-x="1075" d="M53 0 L53 217 L631 856 L86 856 L86 1081 L999 1081 L999 864 L422 225 L1022 225 L1022 0 L53 0 Z " />
<glyph glyph-name="braceleft" unicode="&#x7b;" horiz-adv-x="895" d="M59 457 L59 690 Q129 690 187 712 Q281 748 281 831 L281 1247 Q281 1419 376 1494 Q439 1544 545 1544 L836 1544 L836 1329 L694 1329 Q612 1329 581 1285 Q561 1257 561 1198 L561 788 Q561 649 460 601 Q421 582 336 573 Q441 561 483 535 Q561 486 561 360 L561 -47 Q561 -106 581 -134 Q612 -178 694 -178 L836 -178 L836 -393 L545 -393 Q430 -393 359 -325 Q281 -251 281 -94 L281 315 Q281 409 154 445 Q109 457 59 457 Z " />
<glyph glyph-name="bar" unicode="&#x7c;" horiz-adv-x="502" d="M127 0 L127 1544 L375 1544 L375 0 L127 0 Z " />
<glyph glyph-name="braceright" unicode="&#x7d;" horiz-adv-x="895" d="M59 -393 L59 -178 L201 -178 Q292 -178 321 -123 Q334 -100 334 -47 L334 360 Q334 499 435 546 Q472 564 559 573 Q468 583 428 604 Q334 655 334 788 L334 1198 Q334 1264 308 1292 Q274 1329 201 1329 L59 1329 L59 1544 L350 1544 Q486 1544 554 1459 Q614 1384 614 1247 L614 831 Q614 734 742 701 Q785 690 836 690 L836 457 Q767 456 709 434 Q614 399 614 315 L614 -94 Q614 -265 516 -342 Q452 -393 350 -393 L59 -393 Z " />
<glyph glyph-name="asciitilde" unicode="&#x7e;" horiz-adv-x="1565" d="M354 412 L121 477 Q203 887 514 887 Q653 887 814 779 L858 749 Q960 681 983 671 Q1015 657 1048 657 Q1127 657 1168 734 Q1194 782 1210 883 L1444 817 Q1365 408 1059 408 Q896 408 725 529 L689 555 Q600 618 573 627 Q543 637 513 637 Q432 637 392 550 Q371 501 354 412 Z " />
<glyph glyph-name="Adieresis" unicode="&#xc4;" horiz-adv-x="1554" d="M0 0 L569 1544 L985 1544 L1554 0 L1200 0 L1083 326 L444 326 L326 0 L0 0 Z M539 590 L987 590 L764 1251 L539 590 Z M387 1661 L387 1927 L653 1927 L653 1661 L387 1661 Z M903 1661 L903 1927 L1169 1927 L1169 1661 L903 1661 Z " />
<glyph glyph-name="Aring" unicode="&#xc5;" horiz-adv-x="1554" d="M568 1542 Q500 1605 500 1706 Q500 1821 587 1888 Q661 1944 779 1944 Q921 1944 998 1857 Q1053 1795 1053 1704 Q1053 1609 985 1544 L1554 0 L1200 0 L1083 326 L444 326 L326 0 L0 0 L568 1542 Z M539 590 L987 590 L764 1251 L539 590 Z M774 1821 Q702 1821 664 1775 Q643 1749 643 1705 Q643 1656 675 1625 Q712 1591 775 1591 Q838 1591 876 1625 Q909 1655 909 1708 Q909 1760 872 1790 Q835 1821 774 1821 Z " />
<glyph glyph-name="Ccedilla" unicode="&#xc7;" horiz-adv-x="1583" d="M1501 1075 L1169 999 Q1091 1305 817 1305 Q626 1305 527 1158 Q432 1018 432 755 Q432 242 821 242 Q1134 242 1182 596 L1520 553 Q1463 291 1325 150 Q1143 -37 818 -37 Q516 -37 329 129 Q92 339 92 760 Q92 1143 282 1359 Q477 1581 830 1581 Q1174 1581 1351 1373 Q1446 1260 1501 1075 Z M481 -393 L698 -121 L911 -121 L757 -393 L481 -393 Z " />
<glyph glyph-name="Eacute" unicode="&#xc9;" horiz-adv-x="1399" d="M147 0 L147 1544 L1290 1544 L1290 1270 L481 1270 L481 924 L1245 924 L1245 649 L481 649 L481 274 L1325 274 L1325 0 L147 0 Z M526 1658 L762 1930 L1110 1930 L801 1658 L526 1658 Z " />
<glyph glyph-name="Ntilde" unicode="&#xd1;" horiz-adv-x="1583" d="M147 0 L147 1544 L479 1544 L1122 502 L1122 1544 L1436 1544 L1436 0 L1104 0 L461 1042 L461 0 L147 0 Z M545 1653 L371 1692 Q426 1954 621 1954 Q695 1954 793 1901 L861 1864 Q910 1837 941 1837 Q1001 1837 1023 1935 L1197 1897 Q1142 1634 944 1634 Q905 1634 870 1644 Q836 1654 756 1698 L707 1725 Q659 1751 631 1751 Q568 1751 545 1653 Z " />
<glyph glyph-name="Odieresis" unicode="&#xd6;" horiz-adv-x="1690" d="M844 1581 Q1199 1581 1398 1365 Q1597 1149 1597 770 Q1597 393 1398 179 Q1198 -37 848 -37 Q526 -37 329 141 Q92 354 92 770 Q92 1151 290 1365 Q490 1581 844 1581 Z M844 1305 Q649 1305 538 1158 Q432 1016 432 771 Q432 527 538 386 Q648 240 841 240 Q1019 240 1127 360 Q1257 503 1257 771 Q1257 1016 1149 1158 Q1037 1305 844 1305 Z M454 1661 L454 1927 L720 1927 L720 1661 L454 1661 Z M970 1661 L970 1927 L1236 1927 L1236 1661 L970 1661 Z " />
<glyph glyph-name="Udieresis" unicode="&#xdc;" horiz-adv-x="1567" d="M133 1544 L467 1544 L467 580 Q467 240 785 240 Q1100 240 1100 580 L1100 1544 L1434 1544 L1434 602 Q1434 298 1266 129 Q1102 -37 782 -37 Q453 -37 287 143 Q133 310 133 602 L133 1544 Z M394 1661 L394 1927 L660 1927 L660 1661 L394 1661 Z M910 1661 L910 1927 L1176 1927 L1176 1661 L910 1661 Z " />
<glyph glyph-name="aacute" unicode="&#xe1;" horiz-adv-x="1186" d="M770 698 L770 745 Q770 897 588 897 Q484 897 429 846 Q399 817 375 764 L111 836 Q140 939 232 1011 Q368 1118 607 1118 Q863 1118 975 1013 Q1073 922 1073 743 L1073 233 Q1073 104 1116 0 L831 0 Q812 62 809 111 Q721 31 649 0 Q562 -37 435 -37 Q272 -37 174 44 Q68 132 68 293 Q68 485 207 573 Q291 627 467 653 L770 698 Z M770 502 L551 469 Q367 441 367 304 Q367 246 403 212 Q443 174 516 174 Q618 174 691 225 Q770 280 770 377 L770 502 Z M386 1272 L622 1544 L970 1544 L661 1272 L386 1272 Z " />
<glyph glyph-name="agrave" unicode="&#xe0;" horiz-adv-x="1186" d="M770 698 L770 745 Q770 897 588 897 Q484 897 429 846 Q399 817 375 764 L111 836 Q140 939 232 1011 Q368 1118 607 1118 Q863 1118 975 1013 Q1073 922 1073 743 L1073 233 Q1073 104 1116 0 L831 0 Q812 62 809 111 Q721 31 649 0 Q562 -37 435 -37 Q272 -37 174 44 Q68 132 68 293 Q68 485 207 573 Q291 627 467 653 L770 698 Z M770 502 L551 469 Q367 441 367 304 Q367 246 403 212 Q443 174 516 174 Q618 174 691 225 Q770 280 770 377 L770 502 Z M552 1272 L243 1544 L591 1544 L827 1272 L552 1272 Z " />
<glyph glyph-name="acircumflex" unicode="&#xe2;" horiz-adv-x="1186" d="M770 698 L770 745 Q770 897 588 897 Q484 897 429 846 Q399 817 375 764 L111 836 Q140 939 232 1011 Q368 1118 607 1118 Q863 1118 975 1013 Q1073 922 1073 743 L1073 233 Q1073 104 1116 0 L831 0 Q812 62 809 111 Q721 31 649 0 Q562 -37 435 -37 Q272 -37 174 44 Q68 132 68 293 Q68 485 207 573 Q291 627 467 653 L770 698 Z M770 502 L551 469 Q367 441 367 304 Q367 246 403 212 Q443 174 516 174 Q618 174 691 225 Q770 280 770 377 L770 502 Z M182 1272 L450 1544 L757 1544 L1026 1272 L745 1272 L604 1395 L463 1272 L182 1272 Z " />
<glyph glyph-name="adieresis" unicode="&#xe4;" horiz-adv-x="1186" d="M770 698 L770 745 Q770 897 588 897 Q484 897 429 846 Q399 817 375 764 L111 836 Q140 939 232 1011 Q368 1118 607 1118 Q863 1118 975 1013 Q1073 922 1073 743 L1073 233 Q1073 104 1116 0 L831 0 Q812 62 809 111 Q721 31 649 0 Q562 -37 435 -37 Q272 -37 174 44 Q68 132 68 293 Q68 485 207 573 Q291 627 467 653 L770 698 Z M770 502 L551 469 Q367 441 367 304 Q367 246 403 212 Q443 174 516 174 Q618 174 691 225 Q770 280 770 377 L770 502 Z M209 1278 L209 1544 L475 1544 L475 1278 L209 1278 Z M725 1278 L725 1544 L991 1544 L991 1278 L725 1278 Z " />
<glyph glyph-name="atilde" unicode="&#xe3;" horiz-adv-x="1186" d="M770 698 L770 745 Q770 897 588 897 Q484 897 429 846 Q399 817 375 764 L111 836 Q140 939 232 1011 Q368 1118 607 1118 Q863 1118 975 1013 Q1073 922 1073 743 L1073 233 Q1073 104 1116 0 L831 0 Q812 62 809 111 Q721 31 649 0 Q562 -37 435 -37 Q272 -37 174 44 Q68 132 68 293 Q68 485 207 573 Q291 627 467 653 L770 698 Z M770 502 L551 469 Q367 441 367 304 Q367 246 403 212 Q443 174 516 174 Q618 174 691 225 Q770 280 770 377 L770 502 Z M370 1274 L196 1313 Q251 1575 446 1575 Q520 1575 618 1522 L686 1485 Q735 1458 766 1458 Q828 1458 848 1556 L1022 1518 Q967 1255 769 1255 Q730 1255 695 1265 Q661 1275 581 1319 L532 1346 Q484 1372 456 1372 Q394 1372 370 1274 Z " />
<glyph glyph-name="aring" unicode="&#xe5;" horiz-adv-x="1186" d="M770 698 L770 745 Q770 897 588 897 Q484 897 429 846 Q399 817 375 764 L111 836 Q140 939 232 1011 Q368 1118 607 1118 Q863 1118 975 1013 Q1073 922 1073 743 L1073 233 Q1073 104 1116 0 L831 0 Q812 62 809 111 Q721 31 649 0 Q562 -37 435 -37 Q272 -37 174 44 Q68 132 68 293 Q68 485 207 573 Q291 627 467 653 L770 698 Z M770 502 L551 469 Q367 441 367 304 Q367 246 403 212 Q443 174 516 174 Q618 174 691 225 Q770 280 770 377 L770 502 Z M599 1631 Q734 1631 807 1548 Q859 1489 859 1402 Q859 1307 789 1245 Q716 1179 598 1179 Q487 1179 416 1234 Q334 1297 334 1405 Q334 1513 417 1577 Q486 1631 599 1631 Z M594 1508 Q530 1508 496 1466 Q477 1443 477 1403 Q477 1359 506 1332 Q539 1301 595 1301 Q652 1301 686 1332 Q715 1359 715 1406 Q715 1453 682 1481 Q649 1508 594 1508 Z " />
<glyph glyph-name="ccedilla" unicode="&#xe7;" horiz-adv-x="1182" d="M1124 760 L834 688 Q810 770 773 813 Q717 877 622 877 Q501 877 440 776 Q387 689 387 536 Q387 381 447 292 Q506 205 619 205 Q734 205 795 292 Q831 343 844 416 L1137 342 Q1017 -37 614 -37 Q367 -37 227 102 Q76 252 76 534 Q76 786 207 942 Q353 1118 626 1118 Q902 1118 1027 967 Q1094 886 1124 760 Z M317 -393 L534 -121 L747 -121 L593 -393 L317 -393 Z " />
<glyph glyph-name="eacute" unicode="&#xe9;" horiz-adv-x="1221" d="M1153 465 L387 465 Q400 197 635 197 Q799 197 864 344 L1128 223 Q999 -37 625 -37 Q379 -37 235 98 Q76 248 76 538 Q76 794 207 948 Q351 1118 619 1118 Q812 1118 937 1040 Q1153 904 1153 549 L1153 465 Z M387 649 L844 649 Q833 895 617 895 Q422 895 387 649 Z M428 1272 L664 1544 L1012 1544 L703 1272 L428 1272 Z " />
<glyph glyph-name="egrave" unicode="&#xe8;" horiz-adv-x="1221" d="M1153 465 L387 465 Q400 197 635 197 Q799 197 864 344 L1128 223 Q999 -37 625 -37 Q379 -37 235 98 Q76 248 76 538 Q76 794 207 948 Q351 1118 619 1118 Q812 1118 937 1040 Q1153 904 1153 549 L1153 465 Z M387 649 L844 649 Q833 895 617 895 Q422 895 387 649 Z M606 1272 L297 1544 L645 1544 L881 1272 L606 1272 Z " />
<glyph glyph-name="ecircumflex" unicode="&#xea;" horiz-adv-x="1221" d="M1153 465 L387 465 Q400 197 635 197 Q799 197 864 344 L1128 223 Q999 -37 625 -37 Q379 -37 235 98 Q76 248 76 538 Q76 794 207 948 Q351 1118 619 1118 Q812 1118 937 1040 Q1153 904 1153 549 L1153 465 Z M387 649 L844 649 Q833 895 617 895 Q422 895 387 649 Z M217 1272 L485 1544 L792 1544 L1061 1272 L780 1272 L639 1395 L498 1272 L217 1272 Z " />
<glyph glyph-name="edieresis" unicode="&#xeb;" horiz-adv-x="1221" d="M1153 465 L387 465 Q400 197 635 197 Q799 197 864 344 L1128 223 Q999 -37 625 -37 Q379 -37 235 98 Q76 248 76 538 Q76 794 207 948 Q351 1118 619 1118 Q812 1118 937 1040 Q1153 904 1153 549 L1153 465 Z M387 649 L844 649 Q833 895 617 895 Q422 895 387 649 Z M232 1278 L232 1544 L498 1544 L498 1278 L232 1278 Z M748 1278 L748 1544 L1014 1544 L1014 1278 L748 1278 Z " />
<glyph glyph-name="iacute" unicode="&#xed;" horiz-adv-x="588" d="M137 0 L137 1081 L449 1081 L449 0 L137 0 Z M150 1272 L386 1544 L734 1544 L425 1272 L150 1272 Z " />
<glyph glyph-name="igrave" unicode="&#xec;" horiz-adv-x="588" d="M137 0 L137 1081 L449 1081 L449 0 L137 0 Z M177 1272 L-132 1544 L216 1544 L452 1272 L177 1272 Z " />
<glyph glyph-name="icircumflex" unicode="&#xee;" horiz-adv-x="588" d="M137 0 L137 1081 L449 1081 L449 0 L137 0 Z M-128 1272 L140 1544 L447 1544 L716 1272 L435 1272 L294 1395 L153 1272 L-128 1272 Z " />
<glyph glyph-name="idieresis" unicode="&#xef;" horiz-adv-x="588" d="M137 0 L137 1081 L449 1081 L449 0 L137 0 Z M-95 1278 L-95 1544 L171 1544 L171 1278 L-95 1278 Z M421 1278 L421 1544 L687 1544 L687 1278 L421 1278 Z " />
<glyph glyph-name="ntilde" unicode="&#xf1;" horiz-adv-x="1278" d="M127 0 L127 1081 L426 1081 L442 928 Q552 1118 791 1118 Q1005 1118 1094 972 Q1151 877 1151 719 L1151 0 L840 0 L840 676 Q840 872 667 872 Q565 872 504 791 Q438 705 438 553 L438 0 L127 0 Z M401 1274 L227 1313 Q282 1575 477 1575 Q551 1575 649 1522 L717 1485 Q766 1458 797 1458 Q859 1458 879 1556 L1053 1518 Q998 1255 800 1255 Q761 1255 726 1265 Q692 1275 612 1319 L563 1346 Q515 1372 487 1372 Q425 1372 401 1274 Z " />
<glyph glyph-name="oacute" unicode="&#xf3;" horiz-adv-x="1292" d="M644 1118 Q925 1118 1079 947 Q1217 793 1217 539 Q1217 286 1079 134 Q924 -37 649 -37 Q390 -37 239 105 Q76 259 76 539 Q76 795 211 947 Q364 1118 644 1118 Z M642 879 Q524 879 455 786 Q387 695 387 539 Q387 384 455 294 Q524 203 643 203 Q758 203 828 285 Q903 373 903 544 Q903 718 812 813 Q749 879 642 879 Z M456 1272 L692 1544 L1040 1544 L731 1272 L456 1272 Z " />
<glyph glyph-name="ograve" unicode="&#xf2;" horiz-adv-x="1292" d="M644 1118 Q925 1118 1079 947 Q1217 793 1217 539 Q1217 286 1079 134 Q924 -37 649 -37 Q390 -37 239 105 Q76 259 76 539 Q76 795 211 947 Q364 1118 644 1118 Z M642 879 Q524 879 455 786 Q387 695 387 539 Q387 384 455 294 Q524 203 643 203 Q758 203 828 285 Q903 373 903 544 Q903 718 812 813 Q749 879 642 879 Z M566 1272 L257 1544 L605 1544 L841 1272 L566 1272 Z " />
<glyph glyph-name="ocircumflex" unicode="&#xf4;" horiz-adv-x="1292" d="M644 1118 Q925 1118 1079 947 Q1217 793 1217 539 Q1217 286 1079 134 Q924 -37 649 -37 Q390 -37 239 105 Q76 259 76 539 Q76 795 211 947 Q364 1118 644 1118 Z M642 879 Q524 879 455 786 Q387 695 387 539 Q387 384 455 294 Q524 203 643 203 Q758 203 828 285 Q903 373 903 544 Q903 718 812 813 Q749 879 642 879 Z M225 1272 L493 1544 L800 1544 L1069 1272 L788 1272 L647 1395 L506 1272 L225 1272 Z " />
<glyph glyph-name="odieresis" unicode="&#xf6;" horiz-adv-x="1292" d="M644 1118 Q925 1118 1079 947 Q1217 793 1217 539 Q1217 286 1079 134 Q924 -37 649 -37 Q390 -37 239 105 Q76 259 76 539 Q76 795 211 947 Q364 1118 644 1118 Z M642 879 Q524 879 455 786 Q387 695 387 539 Q387 384 455 294 Q524 203 643 203 Q758 203 828 285 Q903 373 903 544 Q903 718 812 813 Q749 879 642 879 Z M264 1278 L264 1544 L530 1544 L530 1278 L264 1278 Z M780 1278 L780 1544 L1046 1544 L1046 1278 L780 1278 Z " />
<glyph glyph-name="otilde" unicode="&#xf5;" horiz-adv-x="1292" d="M644 1118 Q925 1118 1079 947 Q1217 793 1217 539 Q1217 286 1079 134 Q924 -37 649 -37 Q390 -37 239 105 Q76 259 76 539 Q76 795 211 947 Q364 1118 644 1118 Z M642 879 Q524 879 455 786 Q387 695 387 539 Q387 384 455 294 Q524 203 643 203 Q758 203 828 285 Q903 373 903 544 Q903 718 812 813 Q749 879 642 879 Z M409 1274 L235 1313 Q290 1575 485 1575 Q559 1575 657 1522 L725 1485 Q774 1458 805 1458 Q867 1458 887 1556 L1061 1518 Q1006 1255 808 1255 Q769 1255 734 1265 Q700 1275 620 1319 L571 1346 Q523 1372 495 1372 Q433 1372 409 1274 Z " />
<glyph glyph-name="uacute" unicode="&#xfa;" horiz-adv-x="1278" d="M127 1081 L438 1081 L438 416 Q438 316 474 270 Q516 215 608 215 Q724 215 786 308 Q840 390 840 528 L840 1081 L1151 1081 L1151 0 L852 0 L838 154 Q727 -37 495 -37 Q299 -37 205 84 Q127 184 127 344 L127 1081 Z M445 1272 L681 1544 L1029 1544 L720 1272 L445 1272 Z " />
<glyph glyph-name="ugrave" unicode="&#xf9;" horiz-adv-x="1278" d="M127 1081 L438 1081 L438 416 Q438 316 474 270 Q516 215 608 215 Q724 215 786 308 Q840 390 840 528 L840 1081 L1151 1081 L1151 0 L852 0 L838 154 Q727 -37 495 -37 Q299 -37 205 84 Q127 184 127 344 L127 1081 Z M555 1272 L246 1544 L594 1544 L830 1272 L555 1272 Z " />
<glyph glyph-name="ucircumflex" unicode="&#xfb;" horiz-adv-x="1278" d="M127 1081 L438 1081 L438 416 Q438 316 474 270 Q516 215 608 215 Q724 215 786 308 Q840 390 840 528 L840 1081 L1151 1081 L1151 0 L852 0 L838 154 Q727 -37 495 -37 Q299 -37 205 84 Q127 184 127 344 L127 1081 Z M217 1272 L485 1544 L792 1544 L1061 1272 L780 1272 L639 1395 L498 1272 L217 1272 Z " />
<glyph glyph-name="udieresis" unicode="&#xfc;" horiz-adv-x="1278" d="M127 1081 L438 1081 L438 416 Q438 316 474 270 Q516 215 608 215 Q724 215 786 308 Q840 390 840 528 L840 1081 L1151 1081 L1151 0 L852 0 L838 154 Q727 -37 495 -37 Q299 -37 205 84 Q127 184 127 344 L127 1081 Z M252 1278 L252 1544 L518 1544 L518 1278 L252 1278 Z M768 1278 L768 1544 L1034 1544 L1034 1278 L768 1278 Z " />
<glyph glyph-name="dagger" unicode="&#x2020;" horiz-adv-x="1143" d="M420 -197 L420 862 L61 862 L61 1114 L420 1114 L420 1544 L723 1544 L723 1114 L1081 1114 L1081 862 L723 862 L723 -197 L420 -197 Z " />
<glyph glyph-name="degree" unicode="&#xb0;" horiz-adv-x="889" d="M444 1565 Q558 1565 656 1501 Q746 1441 789 1349 Q827 1267 827 1178 Q827 1067 763 969 Q703 879 611 837 Q529 799 444 799 Q302 799 194 891 Q61 1005 61 1182 Q61 1341 173 1453 Q285 1565 444 1565 Z M442 1374 Q361 1374 310 1303 Q272 1249 272 1180 Q272 1105 321 1048 Q371 989 444 989 Q512 989 564 1044 Q616 1099 616 1184 Q616 1270 555 1329 Q507 1374 442 1374 Z " />
<glyph glyph-name="cent" unicode="&#xa2;" horiz-adv-x="1182" d="M557 -37 L557 160 Q339 181 215 319 Q76 472 76 731 Q76 1002 227 1160 Q350 1287 557 1309 L557 1497 L696 1497 L696 1311 Q871 1291 975 1208 Q1082 1123 1124 954 L858 891 Q818 1041 696 1061 L696 414 Q832 447 868 602 L1137 537 Q1032 201 696 162 L696 -37 L557 -37 Z M557 410 L557 1065 Q377 1006 377 735 Q377 461 557 410 Z " />
<glyph glyph-name="sterling" unicode="&#xa3;" horiz-adv-x="1294" d="M78 0 L78 231 Q251 301 329 397 Q395 479 401 600 L121 600 L121 782 L338 782 Q299 830 271 864 Q214 931 184 990 Q141 1075 141 1172 Q141 1368 299 1478 Q446 1581 701 1581 Q1007 1581 1138 1412 Q1210 1319 1243 1167 L940 1098 Q904 1339 691 1339 Q543 1339 492 1253 Q467 1211 467 1158 Q467 1099 502 1040 Q513 1020 551 973 L555 969 Q573 947 594 922 Q656 847 678 782 L1032 782 L1032 600 L694 600 Q679 475 620 391 Q569 318 471 256 L1239 256 L1239 0 L78 0 Z " />
<glyph glyph-name="section" unicode="&#xa7;" horiz-adv-x="1225" d="M41 119 L332 207 Q396 10 607 10 Q811 10 811 139 Q811 198 768 230 Q727 262 639 283 L465 324 Q267 371 181 434 Q74 514 74 643 Q74 762 152 843 Q191 884 246 911 Q165 955 129 1003 Q74 1077 74 1192 Q74 1371 212 1470 Q346 1565 588 1565 Q871 1565 1004 1446 Q1080 1379 1120 1272 L846 1165 Q791 1341 582 1341 Q491 1341 441 1306 Q393 1271 393 1210 Q393 1168 422 1143 Q453 1116 537 1096 L825 1026 Q1137 950 1137 726 Q1137 537 958 449 Q1048 403 1092 345 Q1147 272 1147 160 Q1147 33 1070 -59 Q938 -217 604 -217 Q138 -217 41 119 Z M711 535 Q769 539 806 572 Q846 607 846 662 Q846 765 684 801 L498 842 Q367 814 367 709 Q367 660 398 631 Q437 595 537 573 L711 535 Z " />
<glyph glyph-name="bullet" unicode="&#x2022;" horiz-adv-x="1094" d="M551 1213 Q667 1213 767 1146 Q859 1086 905 988 Q946 902 946 810 Q946 648 829 531 Q712 414 550 414 Q399 414 286 510 Q147 630 147 814 Q147 1004 294 1124 Q403 1213 551 1213 Z " />
<glyph glyph-name="paragraph" unicode="&#xb6;" horiz-adv-x="1554" d="M715 -393 L715 557 L662 557 Q409 557 256 688 Q96 825 96 1056 Q96 1222 175 1342 Q250 1455 376 1501 Q493 1544 621 1544 L1528 1544 L1528 1331 L1374 1331 L1374 -393 L1161 -393 L1161 1331 L928 1331 L928 -393 L715 -393 Z " />
<glyph glyph-name="germandbls" unicode="&#xdf;" horiz-adv-x="1315" d="M598 -2 L623 229 Q650 225 675 225 Q920 225 920 481 Q920 625 843 684 Q774 737 621 737 L594 737 L594 963 L616 963 Q844 963 844 1178 Q844 1267 781 1315 Q730 1354 645 1354 Q438 1354 438 1096 L438 0 L127 0 L127 1079 Q127 1274 221 1396 Q350 1565 653 1565 Q865 1565 992 1487 Q1151 1389 1151 1202 Q1151 986 944 881 Q1239 819 1239 495 Q1239 269 1134 138 Q1009 -18 766 -18 Q664 -18 598 -2 Z " />
<glyph glyph-name="registered" unicode="&#xae;" horiz-adv-x="1798" d="M580 356 L580 1204 L963 1204 Q1111 1204 1190 1134 Q1268 1065 1268 937 Q1268 767 1114 705 L1300 356 L1063 356 L909 668 L788 668 L788 356 L580 356 Z M788 831 L905 831 Q986 831 1020 859 Q1051 885 1051 937 Q1051 1038 905 1038 L788 1038 L788 831 Z M901 1579 Q1146 1579 1352 1440 Q1548 1308 1645 1084 Q1706 943 1706 770 Q1706 552 1596 365 Q1490 182 1307 76 Q1118 -35 902 -35 Q589 -35 358 173 Q233 286 164 438 Q92 598 92 771 Q92 1022 230 1225 Q363 1421 586 1517 Q729 1579 901 1579 Z M899 1386 Q654 1386 479 1205 Q303 1024 303 772 Q303 520 479 338 Q561 254 668 206 Q778 158 897 158 Q1117 158 1286 307 Q1382 392 1438 512 Q1495 635 1495 772 Q1495 1025 1319 1205 Q1143 1386 899 1386 Z " />
<glyph glyph-name="copyright" unicode="&#xa9;" horiz-adv-x="1798" d="M1257 946 L1038 893 Q1000 1016 889 1016 Q804 1016 760 952 Q717 888 717 775 Q717 545 889 545 Q1022 545 1047 692 L1270 662 Q1196 342 890 342 Q726 342 625 430 Q496 543 496 773 Q496 979 599 1098 Q705 1219 895 1219 Q1081 1219 1177 1105 Q1227 1045 1257 946 Z M901 1579 Q1146 1579 1352 1440 Q1548 1308 1645 1084 Q1706 943 1706 770 Q1706 552 1596 365 Q1490 182 1307 76 Q1118 -35 902 -35 Q589 -35 358 173 Q233 286 164 438 Q92 598 92 771 Q92 1022 230 1225 Q363 1421 586 1517 Q729 1579 901 1579 Z M899 1386 Q654 1386 479 1205 Q303 1024 303 772 Q303 520 479 338 Q561 254 668 206 Q778 158 897 158 Q1117 158 1286 307 Q1382 392 1438 512 Q1495 635 1495 772 Q1495 1025 1319 1205 Q1143 1386 899 1386 Z " />
<glyph glyph-name="trademark" unicode="&#x2122;" horiz-adv-x="1987" d="M279 688 L279 1364 L14 1364 L14 1544 L764 1544 L764 1364 L500 1364 L500 688 L279 688 Z M909 688 L909 1544 L1176 1544 L1391 940 L1606 1544 L1858 1544 L1858 688 L1647 688 L1647 1188 L1473 688 L1300 688 L1120 1206 L1120 688 L909 688 Z " />
<glyph glyph-name="acute" unicode="&#xb4;" horiz-adv-x="942" d="M180 1272 L416 1544 L764 1544 L455 1272 L180 1272 Z " />
<glyph glyph-name="dieresis" unicode="&#xa8;" horiz-adv-x="942" d="M80 1278 L80 1544 L346 1544 L346 1278 L80 1278 Z M596 1278 L596 1544 L862 1544 L862 1278 L596 1278 Z " />
<glyph glyph-name="notequal" unicode="&#x2260;" horiz-adv-x="1288" d="M209 147 L326 373 L92 373 L92 633 L461 633 L565 829 L92 829 L92 1090 L700 1090 L817 1315 L1081 1315 L965 1090 L1198 1090 L1198 829 L829 829 L725 633 L1198 633 L1198 373 L590 373 L473 147 L209 147 Z " />
<glyph glyph-name="AE" unicode="&#xc6;" horiz-adv-x="2406" d="M-18 0 L913 1544 L2298 1544 L2298 1270 L1489 1270 L1489 924 L2253 924 L2253 649 L1489 649 L1489 274 L2333 274 L2333 0 L1155 0 L1155 354 L543 354 L328 0 L-18 0 Z M702 618 L1155 618 L1155 1276 L1100 1276 L702 618 Z " />
<glyph glyph-name="Oslash" unicode="&#xd8;" horiz-adv-x="1690" d="M307 -168 L143 -55 L299 168 Q92 389 92 770 Q92 1151 290 1365 Q490 1581 843 1581 Q1059 1581 1231 1493 L1384 1712 L1546 1597 L1391 1374 Q1597 1151 1597 771 Q1597 393 1398 179 Q1198 -37 844 -37 Q630 -37 461 49 L307 -168 Z M1192 1092 L635 297 Q725 240 844 240 Q1019 240 1127 360 Q1257 503 1257 771 Q1257 951 1192 1092 Z M498 451 L1057 1245 Q960 1305 844 1305 Q649 1305 538 1158 Q432 1016 432 770 Q432 591 498 451 Z " />
<glyph glyph-name="plusminus" unicode="&#xb1;" horiz-adv-x="1288" d="M92 0 L92 258 L506 258 L506 602 L92 602 L92 860 L506 860 L506 1284 L784 1284 L784 860 L1198 860 L1198 602 L784 602 L784 258 L1198 258 L1198 0 L92 0 Z " />
<glyph glyph-name="lessequal" unicode="&#x2264;" horiz-adv-x="1288" d="M92 0 L92 266 L1198 266 L1198 0 L92 0 Z M1198 379 L92 717 L92 983 L1198 1321 L1198 1055 L442 850 L1198 645 L1198 379 Z " />
<glyph glyph-name="greaterequal" unicode="&#x2265;" horiz-adv-x="1288" d="M92 0 L92 266 L1198 266 L1198 0 L92 0 Z M92 379 L92 645 L848 850 L92 1055 L92 1321 L1198 983 L1198 717 L92 379 Z " />
<glyph glyph-name="yen" unicode="&#xa5;" horiz-adv-x="1413" d="M547 0 L547 307 L233 307 L233 463 L547 463 L547 623 L233 623 L233 778 L453 778 L10 1544 L358 1544 L721 895 L1075 1544 L1403 1544 L961 778 L1178 778 L1178 623 L866 623 L866 463 L1178 463 L1178 307 L866 307 L866 0 L547 0 Z " />
<glyph glyph-name="mu" unicode="&#xb5;" horiz-adv-x="1278" d="M127 -394 L127 1081 L438 1081 L438 416 Q438 215 611 215 Q723 215 785 310 Q840 395 840 528 L840 1081 L1151 1081 L1151 0 L852 0 L838 154 Q787 -37 618 -37 Q556 -37 501 -8 Q459 15 438 47 L438 -394 L127 -394 Z " />
<glyph glyph-name="pi" unicode="&#x3c0;" horiz-adv-x="1390" d="M1359 1081 L1359 842 L1211 842 L1211 0 L900 0 L900 842 L491 842 L491 0 L180 0 L180 842 L32 842 L32 1081 L1359 1081 Z " />
<glyph glyph-name="ordfeminine" unicode="&#xaa;" horiz-adv-x="862" d="M557 1298 L557 1315 Q557 1411 426 1411 Q352 1411 312 1378 Q291 1360 272 1335 L76 1382 Q97 1446 157 1493 Q251 1565 431 1565 Q778 1565 778 1321 L778 989 Q778 908 809 838 L600 838 Q590 863 584 926 Q542 877 493 851 Q422 815 311 815 Q191 815 122 868 Q47 927 47 1037 Q47 1161 136 1220 Q193 1259 311 1272 L557 1298 Z M557 1159 L389 1139 Q320 1131 291 1106 Q266 1085 266 1044 Q266 967 373 967 Q445 967 498 1003 Q557 1042 557 1104 L557 1159 Z " />
<glyph glyph-name="ordmasculine" unicode="&#xba;" horiz-adv-x="938" d="M472 1565 Q693 1565 802 1427 Q877 1331 877 1185 Q877 1025 778 925 Q668 815 469 815 Q284 815 177 906 Q61 1006 61 1189 Q61 1378 184 1480 Q287 1565 472 1565 Z M467 1378 Q386 1378 338 1327 Q291 1276 291 1189 Q291 1103 338 1052 Q385 1001 466 1001 Q545 1001 592 1048 Q643 1099 643 1192 Q643 1277 596 1327 Q547 1378 467 1378 Z " />
<glyph glyph-name="ae" unicode="&#xe6;" horiz-adv-x="1911" d="M770 698 L770 745 Q770 897 588 897 Q484 897 429 846 Q399 817 375 764 L111 836 Q140 939 232 1011 Q368 1118 603 1118 Q847 1118 969 987 Q1017 1038 1096 1074 Q1195 1118 1323 1118 Q1504 1118 1627 1040 Q1843 903 1843 549 L1843 465 L1077 465 Q1090 197 1325 197 Q1487 197 1554 344 L1819 223 Q1770 131 1699 73 Q1562 -37 1312 -37 Q1044 -37 895 129 Q810 46 716 6 Q611 -37 468 -37 Q299 -37 192 38 Q68 127 68 295 Q68 485 207 573 Q291 627 467 653 L770 698 Z M770 502 L551 469 Q452 454 408 412 Q367 373 367 304 Q367 246 406 212 Q451 174 530 174 Q619 174 684 219 Q770 278 770 377 L770 502 Z M1077 649 L1534 649 Q1523 895 1307 895 Q1112 895 1077 649 Z " />
<glyph glyph-name="oslash" unicode="&#xf8;" horiz-adv-x="1292" d="M250 -135 L109 -41 L227 117 Q76 274 76 538 Q76 795 211 947 Q363 1118 645 1118 Q803 1118 930 1059 L1047 1217 L1188 1122 L1067 961 Q1217 793 1217 539 Q1217 286 1079 134 Q924 -37 646 -37 Q489 -37 365 18 L250 -135 Z M881 713 L524 231 Q581 203 646 203 Q761 203 834 287 Q911 375 911 543 Q911 636 881 713 Z M410 360 L770 848 Q713 879 645 879 Q506 879 434 768 Q379 683 379 537 Q379 444 410 360 Z " />
<glyph glyph-name="questiondown" unicode="&#xbf;" horiz-adv-x="1241" d="M522 655 L817 655 L817 532 Q817 467 798 415 Q792 397 748 345 Q686 295 581 230 Q420 129 420 -4 Q420 -197 633 -197 Q797 -197 855 -67 Q877 -16 887 63 L1188 22 Q1118 -433 636 -433 Q389 -433 249 -333 Q96 -223 96 -9 Q96 139 184 243 Q212 277 252 311 Q278 332 379 399 Q400 413 413 420 Q522 477 522 579 L522 655 Z M508 821 L508 1148 L831 1148 L831 821 L508 821 Z " />
<glyph glyph-name="exclamdown" unicode="&#xa1;" horiz-adv-x="705" d="M190 -396 L190 -56 L223 620 L481 620 L514 -56 L514 -396 L190 -396 Z M190 821 L190 1148 L514 1148 L514 821 L190 821 Z " />
<glyph glyph-name="logicalnot" unicode="&#xac;" horiz-adv-x="1288" d="M928 373 L928 823 L92 823 L92 1090 L1198 1090 L1198 373 L928 373 Z " />
<glyph glyph-name="florin" unicode="&#x192;" horiz-adv-x="887" d="M-256 -393 L-207 -172 Q-142 -188 -86 -188 Q47 -188 72 -55 L221 727 L100 727 L100 952 L266 952 L326 1251 Q389 1565 726 1565 Q846 1565 950 1540 L903 1317 Q858 1327 798 1327 Q652 1327 623 1180 L578 952 L788 952 L788 727 L532 727 L375 -98 Q313 -424 -20 -424 Q-139 -424 -256 -393 Z " />
<glyph glyph-name="guillemotleft" unicode="&#xab;" horiz-adv-x="1120" d="M279 174 L33 535 L279 895 L582 895 L338 535 L582 174 L279 174 Z M784 174 L541 535 L784 895 L1087 895 L846 535 L1087 174 L784 174 Z " />
<glyph glyph-name="guillemotright" unicode="&#xbb;" horiz-adv-x="1120" d="M33 174 L276 535 L33 895 L336 895 L582 535 L336 174 L33 174 Z M541 174 L782 535 L541 895 L844 895 L1087 535 L844 174 L541 174 Z " />
<glyph glyph-name="ellipsis" unicode="&#x2026;" horiz-adv-x="2048" d="M168 0 L168 338 L514 338 L514 0 L168 0 Z M850 0 L850 338 L1196 338 L1196 0 L850 0 Z M1534 0 L1534 338 L1880 338 L1880 0 L1534 0 Z " />
<glyph glyph-name="Agrave" unicode="&#xc0;" horiz-adv-x="1554" d="M0 0 L569 1544 L985 1544 L1554 0 L1200 0 L1083 326 L444 326 L326 0 L0 0 Z M539 590 L987 590 L764 1251 L539 590 Z M671 1658 L362 1930 L710 1930 L946 1658 L671 1658 Z " />
<glyph glyph-name="Atilde" unicode="&#xc3;" horiz-adv-x="1554" d="M0 0 L569 1544 L985 1544 L1554 0 L1200 0 L1083 326 L444 326 L326 0 L0 0 Z M539 590 L987 590 L764 1251 L539 590 Z M526 1653 L352 1692 Q407 1954 602 1954 Q676 1954 774 1901 L842 1864 Q891 1837 922 1837 Q982 1837 1004 1935 L1178 1897 Q1123 1634 925 1634 Q886 1634 851 1644 Q817 1654 737 1698 L688 1725 Q640 1751 612 1751 Q549 1751 526 1653 Z " />
<glyph glyph-name="Otilde" unicode="&#xd5;" horiz-adv-x="1690" d="M844 1581 Q1199 1581 1398 1365 Q1597 1149 1597 770 Q1597 393 1398 179 Q1198 -37 848 -37 Q526 -37 329 141 Q92 354 92 770 Q92 1151 290 1365 Q490 1581 844 1581 Z M844 1305 Q649 1305 538 1158 Q432 1016 432 771 Q432 527 538 386 Q648 240 841 240 Q1019 240 1127 360 Q1257 503 1257 771 Q1257 1016 1149 1158 Q1037 1305 844 1305 Z M606 1653 L432 1692 Q487 1954 682 1954 Q756 1954 854 1901 L922 1864 Q971 1837 1002 1837 Q1062 1837 1084 1935 L1258 1897 Q1203 1634 1005 1634 Q966 1634 931 1644 Q897 1654 817 1698 L768 1725 Q720 1751 692 1751 Q629 1751 606 1653 Z " />
<glyph glyph-name="OE" unicode="&#x152;" horiz-adv-x="2494" d="M1255 1397 L1255 1544 L2386 1544 L2386 1270 L1577 1270 L1577 924 L2341 924 L2341 649 L1577 649 L1577 274 L2421 274 L2421 0 L1255 0 L1255 145 Q1077 -37 792 -37 Q506 -37 321 140 Q92 359 92 770 Q92 1147 285 1365 Q476 1581 804 1581 Q1018 1581 1154 1492 Q1216 1451 1255 1397 Z M832 1305 Q646 1305 538 1158 Q432 1015 432 771 Q432 529 538 386 Q645 240 832 240 Q1015 240 1125 360 Q1257 503 1257 772 Q1257 1054 1113 1198 Q1006 1305 832 1305 Z " />
<glyph glyph-name="oe" unicode="&#x153;" horiz-adv-x="2042" d="M1055 952 Q1202 1118 1447 1118 Q1634 1118 1758 1040 Q1974 904 1974 549 L1974 465 L1208 465 Q1221 197 1456 197 Q1615 197 1686 344 L1950 223 Q1901 130 1830 73 Q1692 -37 1441 -37 Q1187 -37 1044 121 Q890 -37 640 -37 Q388 -37 239 105 Q76 259 76 539 Q76 795 211 947 Q363 1118 641 1118 Q904 1118 1055 952 Z M642 879 Q524 879 455 786 Q387 695 387 539 Q387 384 455 294 Q524 203 643 203 Q758 203 828 285 Q903 373 903 544 Q903 718 812 813 Q749 879 642 879 Z M1208 649 L1665 649 Q1654 895 1438 895 Q1243 895 1208 649 Z " />
<glyph glyph-name="endash" unicode="&#x2013;" horiz-adv-x="1024" d="M0 467 L0 698 L1024 698 L1024 467 L0 467 Z " />
<glyph glyph-name="emdash" unicode="&#x2014;" horiz-adv-x="2048" d="M0 467 L0 698 L2048 698 L2048 467 L0 467 Z " />
<glyph glyph-name="quotedblleft" unicode="&#x201c;" horiz-adv-x="1139" d="M137 801 L137 1110 Q137 1386 389 1563 L496 1442 Q406 1360 381 1322 Q338 1258 338 1169 L338 1139 L483 1139 L483 801 L137 801 Z M655 801 L655 1110 Q655 1386 907 1563 L1014 1442 Q924 1360 899 1322 Q856 1258 856 1169 L856 1139 L1001 1139 L1001 801 L655 801 Z " />
<glyph glyph-name="quotedblright" unicode="&#x201d;" horiz-adv-x="1139" d="M231 784 L125 905 Q206 976 234 1017 Q283 1087 283 1178 L283 1208 L137 1208 L137 1546 L483 1546 L483 1237 Q483 957 231 784 Z M750 784 L643 905 Q723 975 752 1017 Q801 1087 801 1178 L801 1208 L655 1208 L655 1546 L1001 1546 L1001 1237 Q1001 960 750 784 Z " />
<glyph glyph-name="quoteleft" unicode="&#x2018;" horiz-adv-x="621" d="M137 801 L137 1110 Q137 1386 389 1563 L496 1442 Q406 1360 381 1322 Q338 1258 338 1169 L338 1139 L483 1139 L483 801 L137 801 Z " />
<glyph glyph-name="quoteright" unicode="&#x2019;" horiz-adv-x="621" d="M231 784 L125 905 Q206 976 234 1017 Q283 1087 283 1178 L283 1208 L137 1208 L137 1546 L483 1546 L483 1237 Q483 957 231 784 Z " />
<glyph glyph-name="divide" unicode="&#xf7;" horiz-adv-x="1288" d="M494 150 L494 451 L797 451 L797 150 L494 150 Z M92 598 L92 864 L1198 864 L1198 598 L92 598 Z M494 1012 L494 1313 L797 1313 L797 1012 L494 1012 Z " />
<glyph glyph-name="ydieresis" unicode="&#xff;" horiz-adv-x="1202" d="M92 -389 L139 -170 Q209 -188 276 -188 Q401 -188 451 -61 L471 -10 L0 1081 L336 1081 L618 334 L881 1081 L1202 1081 L743 -129 Q695 -256 629 -324 Q533 -424 365 -424 L346 -424 Q219 -424 92 -389 Z M218 1278 L218 1544 L484 1544 L484 1278 L218 1278 Z M734 1278 L734 1544 L1000 1544 L1000 1278 L734 1278 Z " />
<glyph glyph-name="Ydieresis" unicode="&#x178;" horiz-adv-x="1423" d="M545 0 L545 618 L0 1544 L352 1544 L725 895 L1092 1544 L1423 1544 L879 618 L879 0 L545 0 Z M333 1661 L333 1927 L599 1927 L599 1661 L333 1661 Z M849 1661 L849 1927 L1115 1927 L1115 1661 L849 1661 Z " />
<glyph glyph-name="fraction" unicode="&#x2044;" horiz-adv-x="289" d="M-393 -37 L442 1497 L682 1497 L-154 -37 L-393 -37 Z " />
<glyph glyph-name="Euro" unicode="&#x20ac;" horiz-adv-x="1358" d="M194 541 L20 541 L86 698 L175 698 L175 760 L175 783 L175 806 Q175 825 177 856 L20 856 L86 1014 L198 1014 Q253 1279 409 1423 Q581 1581 851 1581 Q1015 1581 1150 1519 Q1220 1487 1312 1408 L1189 1116 Q1080 1218 1027 1252 Q946 1305 845 1305 Q595 1305 532 1014 L1112 1014 L1046 856 L509 856 Q507 835 507 806 L507 780 L507 754 L507 698 L981 698 L916 541 L526 541 Q582 242 848 242 Q966 242 1054 304 Q1094 331 1183 420 L1183 51 Q1098 0 1025.5 -18.5 Q953 -37 843 -37 Q597 -37 434 90 Q244 238 194 541 Z " />
<glyph glyph-name="guilsinglleft" unicode="&#x2039;" horiz-adv-x="614" d="M279 174 L33 535 L279 895 L582 895 L338 535 L582 174 L279 174 Z " />
<glyph glyph-name="guilsinglright" unicode="&#x203a;" horiz-adv-x="614" d="M33 174 L276 535 L33 895 L336 895 L582 535 L336 174 L33 174 Z " />
<glyph glyph-name="uniF001" unicode="&#xf001;" horiz-adv-x="1307" d="M172 0 L172 856 L29 856 L29 1081 L172 1081 L172 1212 Q172 1385 260 1473 Q352 1565 525 1565 Q600 1565 752 1542 L731 1321 Q669 1327 638 1327 Q561 1327 522 1291 Q483 1254 483 1167 L483 1081 L717 1081 L717 856 L483 856 L483 0 L172 0 Z M856 0 L856 1081 L1167 1081 L1167 0 L856 0 Z M856 1278 L856 1544 L1167 1544 L1167 1278 L856 1278 Z " />
<glyph glyph-name="uniF002" unicode="&#xf002;" horiz-adv-x="1307" d="M172 0 L172 856 L29 856 L29 1081 L172 1081 L172 1212 Q172 1385 260 1473 Q352 1565 525 1565 Q600 1565 752 1542 L731 1321 Q669 1327 638 1327 Q561 1327 522 1291 Q483 1254 483 1167 L483 1081 L717 1081 L717 856 L483 856 L483 0 L172 0 Z M856 0 L856 1544 L1167 1544 L1167 0 L856 0 Z " />
<glyph glyph-name="daggerdbl" unicode="&#x2021;" horiz-adv-x="1200" d="M449 -197 L449 233 L90 233 L90 485 L449 485 L449 862 L90 862 L90 1114 L449 1114 L449 1544 L752 1544 L752 1114 L1110 1114 L1110 862 L752 862 L752 485 L1110 485 L1110 233 L752 233 L752 -197 L449 -197 Z " />
<glyph glyph-name="periodcentered" unicode="&#xb7;" horiz-adv-x="621" d="M137 561 L137 899 L483 899 L483 561 L137 561 Z " />
<glyph glyph-name="quotesinglbase" unicode="&#x201a;" horiz-adv-x="621" d="M231 -424 L125 -303 Q207 -231 236 -189 Q283 -118 283 -31 L283 0 L137 0 L137 338 L483 338 L483 29 Q483 -251 231 -424 Z " />
<glyph glyph-name="quotedblbase" unicode="&#x201e;" horiz-adv-x="1139" d="M231 -424 L125 -303 Q207 -231 236 -189 Q283 -118 283 -31 L283 0 L137 0 L137 338 L483 338 L483 29 Q483 -251 231 -424 Z M750 -424 L643 -303 Q725 -231 754 -189 Q801 -118 801 -31 L801 0 L655 0 L655 338 L1001 338 L1001 29 Q1001 -247 750 -424 Z " />
<glyph glyph-name="perthousand" unicode="&#x2030;" horiz-adv-x="2902" d="M465 -37 L1300 1497 L1540 1497 L705 -37 L465 -37 Z M1563 889 Q1944 889 1944 421 Q1944 -37 1565 -37 Q1186 -37 1186 427 Q1186 889 1563 889 Z M1560 711 Q1493 711 1460 650 Q1423 581 1423 428 Q1423 272 1460 203 Q1492 143 1560 143 Q1627 143 1661 196 Q1706 266 1706 433 Q1706 605 1650 674 Q1621 711 1560 711 Z M2460 889 Q2841 889 2841 422 Q2841 -37 2462 -37 Q2083 -37 2083 427 Q2083 889 2460 889 Z M2457 711 Q2389 711 2357 650 Q2320 580 2320 428 Q2320 273 2357 203 Q2389 143 2457 143 Q2524 143 2559 197 Q2603 265 2603 432 Q2603 605 2547 674 Q2518 711 2457 711 Z M443 1497 Q819 1497 819 1028 Q819 571 440 571 Q61 571 61 1035 Q61 1497 443 1497 Z M436 1319 Q358 1319 329 1245 Q303 1179 303 1031 Q303 881 333 817 Q364 752 437 752 Q509 752 542 807 Q578 870 578 1042 Q578 1212 532 1277 Q503 1319 436 1319 Z " />
<glyph glyph-name="Acircumflex" unicode="&#xc2;" horiz-adv-x="1554" d="M0 0 L569 1544 L985 1544 L1554 0 L1200 0 L1083 326 L444 326 L326 0 L0 0 Z M539 590 L987 590 L764 1251 L539 590 Z M350 1658 L618 1930 L925 1930 L1194 1658 L913 1658 L772 1781 L631 1658 L350 1658 Z " />
<glyph glyph-name="Ecircumflex" unicode="&#xca;" horiz-adv-x="1399" d="M147 0 L147 1544 L1290 1544 L1290 1270 L481 1270 L481 924 L1245 924 L1245 649 L481 649 L481 274 L1325 274 L1325 0 L147 0 Z M301 1658 L569 1930 L876 1930 L1145 1658 L864 1658 L723 1781 L582 1658 L301 1658 Z " />
<glyph glyph-name="Aacute" unicode="&#xc1;" horiz-adv-x="1554" d="M0 0 L569 1544 L985 1544 L1554 0 L1200 0 L1083 326 L444 326 L326 0 L0 0 Z M539 590 L987 590 L764 1251 L539 590 Z M631 1658 L867 1930 L1215 1930 L906 1658 L631 1658 Z " />
<glyph glyph-name="Edieresis" unicode="&#xcb;" horiz-adv-x="1399" d="M147 0 L147 1544 L1290 1544 L1290 1270 L481 1270 L481 924 L1245 924 L1245 649 L481 649 L481 274 L1325 274 L1325 0 L147 0 Z M334 1661 L334 1927 L600 1927 L600 1661 L334 1661 Z M850 1661 L850 1927 L1116 1927 L1116 1661 L850 1661 Z " />
<glyph glyph-name="Egrave" unicode="&#xc8;" horiz-adv-x="1399" d="M147 0 L147 1544 L1290 1544 L1290 1270 L481 1270 L481 924 L1245 924 L1245 649 L481 649 L481 274 L1325 274 L1325 0 L147 0 Z M686 1658 L377 1930 L725 1930 L961 1658 L686 1658 Z " />
<glyph glyph-name="Iacute" unicode="&#xcd;" horiz-adv-x="629" d="M147 0 L147 1544 L481 1544 L481 0 L147 0 Z M168 1658 L404 1930 L752 1930 L443 1658 L168 1658 Z " />
<glyph glyph-name="Icircumflex" unicode="&#xce;" horiz-adv-x="629" d="M147 0 L147 1544 L481 1544 L481 0 L147 0 Z M-110 1658 L158 1930 L465 1930 L734 1658 L453 1658 L312 1781 L171 1658 L-110 1658 Z " />
<glyph glyph-name="Idieresis" unicode="&#xcf;" horiz-adv-x="629" d="M147 0 L147 1544 L481 1544 L481 0 L147 0 Z M-75 1661 L-75 1927 L191 1927 L191 1661 L-75 1661 Z M441 1661 L441 1927 L707 1927 L707 1661 L441 1661 Z " />
<glyph glyph-name="Igrave" unicode="&#xcc;" horiz-adv-x="629" d="M147 0 L147 1544 L481 1544 L481 0 L147 0 Z M196 1658 L-113 1930 L235 1930 L471 1658 L196 1658 Z " />
<glyph glyph-name="Oacute" unicode="&#xd3;" horiz-adv-x="1690" d="M844 1581 Q1199 1581 1398 1365 Q1597 1149 1597 770 Q1597 393 1398 179 Q1198 -37 848 -37 Q526 -37 329 141 Q92 354 92 770 Q92 1151 290 1365 Q490 1581 844 1581 Z M844 1305 Q649 1305 538 1158 Q432 1016 432 771 Q432 527 538 386 Q648 240 841 240 Q1019 240 1127 360 Q1257 503 1257 771 Q1257 1016 1149 1158 Q1037 1305 844 1305 Z M666 1658 L902 1930 L1250 1930 L941 1658 L666 1658 Z " />
<glyph glyph-name="Ocircumflex" unicode="&#xd4;" horiz-adv-x="1690" d="M844 1581 Q1199 1581 1398 1365 Q1597 1149 1597 770 Q1597 393 1398 179 Q1198 -37 848 -37 Q526 -37 329 141 Q92 354 92 770 Q92 1151 290 1365 Q490 1581 844 1581 Z M844 1305 Q649 1305 538 1158 Q432 1016 432 771 Q432 527 538 386 Q648 240 841 240 Q1019 240 1127 360 Q1257 503 1257 771 Q1257 1016 1149 1158 Q1037 1305 844 1305 Z M417 1658 L685 1930 L992 1930 L1261 1658 L980 1658 L839 1781 L698 1658 L417 1658 Z " />
<glyph glyph-name="Ograve" unicode="&#xd2;" horiz-adv-x="1690" d="M844 1581 Q1199 1581 1398 1365 Q1597 1149 1597 770 Q1597 393 1398 179 Q1198 -37 848 -37 Q526 -37 329 141 Q92 354 92 770 Q92 1151 290 1365 Q490 1581 844 1581 Z M844 1305 Q649 1305 538 1158 Q432 1016 432 771 Q432 527 538 386 Q648 240 841 240 Q1019 240 1127 360 Q1257 503 1257 771 Q1257 1016 1149 1158 Q1037 1305 844 1305 Z M775 1658 L466 1930 L814 1930 L1050 1658 L775 1658 Z " />
<glyph glyph-name="Uacute" unicode="&#xda;" horiz-adv-x="1567" d="M133 1544 L467 1544 L467 580 Q467 240 785 240 Q1100 240 1100 580 L1100 1544 L1434 1544 L1434 602 Q1434 298 1266 129 Q1102 -37 782 -37 Q453 -37 287 143 Q133 310 133 602 L133 1544 Z M610 1658 L846 1930 L1194 1930 L885 1658 L610 1658 Z " />
<glyph glyph-name="Ucircumflex" unicode="&#xdb;" horiz-adv-x="1567" d="M133 1544 L467 1544 L467 580 Q467 240 785 240 Q1100 240 1100 580 L1100 1544 L1434 1544 L1434 602 Q1434 298 1266 129 Q1102 -37 782 -37 Q453 -37 287 143 Q133 310 133 602 L133 1544 Z M357 1658 L625 1930 L932 1930 L1201 1658 L920 1658 L779 1781 L638 1658 L357 1658 Z " />
<glyph glyph-name="Ugrave" unicode="&#xd9;" horiz-adv-x="1567" d="M133 1544 L467 1544 L467 580 Q467 240 785 240 Q1100 240 1100 580 L1100 1544 L1434 1544 L1434 602 Q1434 298 1266 129 Q1102 -37 782 -37 Q453 -37 287 143 Q133 310 133 602 L133 1544 Z M698 1658 L389 1930 L737 1930 L973 1658 L698 1658 Z " />
<glyph glyph-name="dotlessi" unicode="&#x131;" horiz-adv-x="588" d="M137 0 L137 1081 L449 1081 L449 0 L137 0 Z " />
<glyph glyph-name="circumflex" unicode="&#x2c6;" horiz-adv-x="942" d="M41 1272 L309 1544 L616 1544 L885 1272 L604 1272 L463 1395 L322 1272 L41 1272 Z " />
<glyph glyph-name="tilde" unicode="&#x2dc;" horiz-adv-x="942" d="M233 1274 L59 1313 Q114 1575 309 1575 Q383 1575 481 1522 L549 1485 Q598 1458 629 1458 Q691 1458 711 1556 L885 1518 Q830 1255 632 1255 Q593 1255 558 1265 Q524 1275 444 1319 L395 1346 Q347 1372 319 1372 Q257 1372 233 1274 Z " />
<glyph glyph-name="uni02C9" unicode="&#x2c9;" horiz-adv-x="942" d="M82 1296 L82 1502 L858 1502 L858 1296 L82 1296 Z " />
<glyph glyph-name="breve" unicode="&#x2d8;" horiz-adv-x="942" d="M92 1554 L313 1554 Q318 1519 347 1491 Q395 1446 473 1446 Q613 1446 629 1554 L850 1554 Q845 1436 763 1360 Q659 1262 470 1262 Q300 1262 197 1344 Q98 1423 92 1554 Z " />
<glyph glyph-name="dotaccent" unicode="&#x2d9;" horiz-adv-x="942" d="M338 1272 L338 1544 L604 1544 L604 1272 L338 1272 Z " />
<glyph glyph-name="ring" unicode="&#x2da;" horiz-adv-x="942" d="M474 1631 Q609 1631 682 1548 Q734 1489 734 1402 Q734 1307 664 1245 Q591 1179 473 1179 Q362 1179 291 1234 Q209 1297 209 1405 Q209 1513 292 1577 Q361 1631 474 1631 Z M469 1508 Q405 1508 371 1466 Q352 1443 352 1403 Q352 1359 381 1332 Q414 1301 470 1301 Q527 1301 561 1332 Q590 1359 590 1406 Q590 1453 557 1481 Q524 1508 469 1508 Z " />
<glyph glyph-name="cedilla" unicode="&#xb8;" horiz-adv-x="942" d="M256 -393 L473 -121 L686 -121 L532 -393 L256 -393 Z " />
<glyph glyph-name="hungarumlaut" unicode="&#x2dd;" horiz-adv-x="942" d="M45 1272 L199 1544 L475 1544 L248 1272 L45 1272 Z M465 1272 L618 1544 L895 1544 L668 1272 L465 1272 Z " />
<glyph glyph-name="ogonek" unicode="&#x2db;" horiz-adv-x="1554" d="M1280 0 L1439 0 Q1350 -74 1350 -153 Q1350 -229 1412 -229 Q1446 -229 1508 -200 L1508 -350 Q1437 -393 1358 -393 Q1284 -393 1236 -361 Q1158 -309 1158 -212 Q1158 -91 1280 0 Z " />
<glyph glyph-name="caron" unicode="&#x2c7;" horiz-adv-x="942" d="M317 1272 L49 1544 L330 1544 L471 1421 L612 1544 L893 1544 L625 1272 L317 1272 Z " />
<glyph glyph-name="uni00A0" unicode="&#xa0;" horiz-adv-x="510" d="" />
<glyph glyph-name="currency" unicode="&#xa4;" horiz-adv-x="1290" d="M225 211 L86 350 L209 473 Q115 613 115 774 Q115 939 209 1075 L86 1198 L225 1337 L348 1214 Q482 1305 643 1305 Q801 1305 942 1214 L1065 1337 L1204 1198 L1081 1075 Q1176 938 1176 775 Q1176 610 1081 473 L1204 350 L1065 211 L942 334 Q805 244 646 244 Q486 244 348 334 L225 211 Z M642 1081 Q522 1081 438 992 Q354 902 354 774 Q354 646 438 557 Q522 467 642 467 Q761 467 846 550 Q936 638 936 778 Q936 865 889 942 Q844 1016 773 1050 Q708 1081 642 1081 Z " />
<glyph glyph-name="brokenbar" unicode="&#xa6;" horiz-adv-x="502" d="M127 0 L127 514 L375 514 L375 0 L127 0 Z M127 1030 L127 1544 L375 1544 L375 1030 L127 1030 Z " />
<glyph glyph-name="uni00AD" unicode="&#xad;" horiz-adv-x="938" d="M102 385 L102 702 L836 702 L836 385 L102 385 Z " />
<glyph glyph-name="macron" unicode="&#xaf;" horiz-adv-x="942" d="M41 1305 L41 1511 L899 1511 L899 1305 L41 1305 Z " />
<glyph glyph-name="twosuperior" unicode="&#xb2;" horiz-adv-x="932" d="M94 592 L94 651 Q94 826 283 948 Q350 991 429 1038 Q525 1094 548 1115 Q594 1160 594 1211 Q594 1313 471 1313 Q350 1313 326 1178 L82 1202 Q138 1497 493 1497 Q672 1497 770 1415 Q856 1343 856 1224 Q856 1048 575 896 Q550 882 500 852 Q453 824 418 793 L858 793 L858 592 L94 592 Z " />
<glyph glyph-name="threesuperior" unicode="&#xb3;" horiz-adv-x="932" d="M57 877 L301 903 Q314 752 463 752 Q600 752 600 860 Q600 911 559 932 Q519 952 438 952 L403 952 L403 1137 Q509 1137 556 1165 Q596 1188 596 1238 Q596 1323 470 1323 Q332 1323 322 1198 L74 1225 Q123 1497 483 1497 Q659 1497 755 1430 Q848 1364 848 1248 Q848 1141 769 1084 Q745 1066 698 1047 Q862 1008 862 845 Q862 718 759 644 Q656 571 465 571 Q256 571 152 659 Q59 738 57 877 Z " />
<glyph glyph-name="onesuperior" unicode="&#xb9;" horiz-adv-x="932" d="M377 592 L377 1212 Q302 1171 180 1122 L98 1296 Q296 1386 430 1477 L625 1477 L625 592 L377 592 Z " />
<glyph glyph-name="onequarter" unicode="&#xbc;" horiz-adv-x="2130" d="M526 -37 L1362 1497 L1602 1497 L766 -37 L526 -37 Z M1710 -16 L1710 152 L1237 152 L1237 340 L1690 868 L1946 868 L1946 328 L2048 328 L2048 152 L1946 152 L1946 -16 L1710 -16 Z M1468 328 L1710 328 L1710 616 L1468 328 Z M377 592 L377 1212 Q302 1171 180 1122 L98 1296 Q296 1386 430 1477 L625 1477 L625 592 L377 592 Z " />
<glyph glyph-name="onehalf" unicode="&#xbd;" horiz-adv-x="2130" d="M510 -37 L1346 1497 L1585 1497 L750 -37 L510 -37 Z M1303 -16 L1303 43 Q1303 196 1456 314 Q1502 349 1637 430 Q1734 487 1756 507 Q1802 552 1802 603 Q1802 705 1679 705 Q1557 705 1534 569 L1290 594 Q1348 889 1702 889 Q1879 889 1978 807 Q2064 736 2064 615 Q2064 486 1920 377 Q1849 324 1784 288 L1774 282 Q1672 225 1626 184 L2066 184 L2066 -16 L1303 -16 Z M377 592 L377 1212 Q302 1171 180 1122 L98 1296 Q296 1386 430 1477 L625 1477 L625 592 L377 592 Z " />
<glyph glyph-name="threequarters" unicode="&#xbe;" horiz-adv-x="2130" d="M573 -37 L1409 1497 L1649 1497 L813 -37 L573 -37 Z M1710 -16 L1710 152 L1237 152 L1237 340 L1690 868 L1946 868 L1946 328 L2048 328 L2048 152 L1946 152 L1946 -16 L1710 -16 Z M1468 328 L1710 328 L1710 616 L1468 328 Z M57 877 L301 903 Q314 752 463 752 Q600 752 600 860 Q600 911 559 932 Q519 952 438 952 L403 952 L403 1137 Q509 1137 556 1165 Q596 1188 596 1238 Q596 1323 470 1323 Q332 1323 322 1198 L74 1225 Q123 1497 483 1497 Q659 1497 755 1430 Q848 1364 848 1248 Q848 1141 769 1084 Q745 1066 698 1047 Q862 1008 862 845 Q862 718 759 644 Q656 571 465 571 Q256 571 152 659 Q59 738 57 877 Z " />
<glyph glyph-name="Eth" unicode="&#xd0;" horiz-adv-x="1567" d="M147 0 L147 686 L0 686 L0 885 L147 885 L147 1544 L678 1544 Q1084 1544 1282 1351 Q1475 1162 1475 778 Q1475 0 678 0 L147 0 Z M481 268 L684 268 Q911 268 1028 411 Q1135 541 1135 780 Q1135 1046 1003 1171 Q891 1276 692 1276 L481 1276 L481 885 L831 885 L831 686 L481 686 L481 268 Z " />
<glyph glyph-name="multiply" unicode="&#xd7;" horiz-adv-x="1288" d="M350 211 L156 391 L465 731 L156 1071 L350 1251 L645 928 L940 1251 L1135 1071 L825 731 L1135 391 L940 211 L645 535 L350 211 Z " />
<glyph glyph-name="Yacute" unicode="&#xdd;" horiz-adv-x="1423" d="M545 0 L545 618 L0 1544 L352 1544 L725 895 L1092 1544 L1423 1544 L879 618 L879 0 L545 0 Z M554 1658 L790 1930 L1138 1930 L829 1658 L554 1658 Z " />
<glyph glyph-name="Thorn" unicode="&#xde;" horiz-adv-x="1462" d="M147 0 L147 1544 L477 1544 L477 1284 L842 1284 Q1088 1284 1226 1153 Q1366 1022 1366 795 Q1366 565 1206 428 Q1053 297 801 297 L477 297 L477 0 L147 0 Z M477 559 L766 559 Q879 559 950 621 Q1024 687 1024 796 Q1024 904 957 963 Q889 1022 770 1022 L477 1022 L477 559 Z " />
<glyph glyph-name="eth" unicode="&#xf0;" horiz-adv-x="1292" d="M844 913 Q788 1070 664 1206 L461 1079 L377 1206 L541 1311 Q464 1368 381 1413 L512 1581 Q638 1531 760 1448 L958 1573 L1044 1446 L885 1346 Q1217 1021 1217 587 Q1217 292 1079 132 Q931 -37 643 -37 Q390 -37 239 91 Q76 230 76 483 Q76 708 203 853 Q339 1008 562 1008 Q671 1008 759 967 Q812 942 844 913 Z M641 764 Q508 764 437 662 Q387 591 387 477 Q387 353 455 279 Q525 203 644 203 Q752 203 821 266 Q903 341 903 480 Q903 625 815 705 Q749 764 641 764 Z " />
<glyph glyph-name="yacute" unicode="&#xfd;" horiz-adv-x="1202" d="M92 -389 L139 -170 Q209 -188 276 -188 Q401 -188 451 -61 L471 -10 L0 1081 L336 1081 L618 334 L881 1081 L1202 1081 L743 -129 Q695 -256 629 -324 Q533 -424 365 -424 L346 -424 Q219 -424 92 -389 Z M419 1272 L655 1544 L1003 1544 L694 1272 L419 1272 Z " />
<glyph glyph-name="thorn" unicode="&#xfe;" horiz-adv-x="1315" d="M127 -393 L127 1544 L438 1544 L438 961 Q500 1038 573 1075 Q657 1118 776 1118 Q981 1118 1100 990 Q1239 842 1239 566 Q1239 285 1112 124 Q988 -35 749 -35 Q541 -35 438 121 L438 -393 L127 -393 Z M675 883 Q549 883 483 774 Q432 690 432 535 Q432 380 496 291 Q560 199 678 199 Q782 199 845 273 Q922 363 922 540 Q922 724 837 818 Q777 883 675 883 Z " />
<glyph glyph-name="Amacron" unicode="&#x100;" horiz-adv-x="1554" d="M0 0 L569 1544 L985 1544 L1554 0 L1200 0 L1083 326 L444 326 L326 0 L0 0 Z M539 590 L987 590 L764 1251 L539 590 Z M340 1686 L340 1892 L1198 1892 L1198 1686 L340 1686 Z " />
<glyph glyph-name="amacron" unicode="&#x101;" horiz-adv-x="1186" d="M770 698 L770 745 Q770 897 588 897 Q484 897 429 846 Q399 817 375 764 L111 836 Q140 939 232 1011 Q368 1118 607 1118 Q863 1118 975 1013 Q1073 922 1073 743 L1073 233 Q1073 104 1116 0 L831 0 Q812 62 809 111 Q721 31 649 0 Q562 -37 435 -37 Q272 -37 174 44 Q68 132 68 293 Q68 485 207 573 Q291 627 467 653 L770 698 Z M770 502 L551 469 Q367 441 367 304 Q367 246 403 212 Q443 174 516 174 Q618 174 691 225 Q770 280 770 377 L770 502 Z M211 1296 L211 1502 L987 1502 L987 1296 L211 1296 Z " />
<glyph glyph-name="Abreve" unicode="&#x102;" horiz-adv-x="1554" d="M0 0 L569 1544 L985 1544 L1554 0 L1200 0 L1083 326 L444 326 L326 0 L0 0 Z M539 590 L987 590 L764 1251 L539 590 Z M399 1935 L620 1935 Q625 1901 654 1872 Q701 1827 780 1827 Q920 1827 936 1935 L1157 1935 Q1152 1817 1071 1741 Q966 1643 777 1643 Q607 1643 504 1725 Q406 1803 399 1935 Z " />
<glyph glyph-name="abreve" unicode="&#x103;" horiz-adv-x="1186" d="M770 698 L770 745 Q770 897 588 897 Q484 897 429 846 Q399 817 375 764 L111 836 Q140 939 232 1011 Q368 1118 607 1118 Q863 1118 975 1013 Q1073 922 1073 743 L1073 233 Q1073 104 1116 0 L831 0 Q812 62 809 111 Q721 31 649 0 Q562 -37 435 -37 Q272 -37 174 44 Q68 132 68 293 Q68 485 207 573 Q291 627 467 653 L770 698 Z M770 502 L551 469 Q367 441 367 304 Q367 246 403 212 Q443 174 516 174 Q618 174 691 225 Q770 280 770 377 L770 502 Z M221 1554 L442 1554 Q447 1519 476 1491 Q524 1446 602 1446 Q742 1446 758 1554 L979 1554 Q974 1436 892 1360 Q788 1262 599 1262 Q429 1262 326 1344 Q227 1423 221 1554 Z " />
<glyph glyph-name="Aogonek" unicode="&#x104;" horiz-adv-x="1554" d="M1470 0 Q1465 -4 1459 -9 Q1381 -73 1381 -153 Q1381 -229 1443 -229 Q1477 -229 1539 -200 L1539 -350 Q1468 -393 1389 -393 Q1315 -393 1266 -361 Q1189 -309 1189 -212 Q1189 -90 1312 0 L1200 0 L1083 326 L444 326 L326 0 L0 0 L569 1544 L985 1544 L1554 0 L1470 0 Z M539 590 L987 590 L764 1251 L539 590 Z " />
<glyph glyph-name="aogonek" unicode="&#x105;" horiz-adv-x="1186" d="M1044 0 Q955 -71 955 -153 Q955 -229 1017 -229 Q1051 -229 1113 -200 L1113 -350 Q1042 -393 963 -393 Q889 -393 841 -361 Q763 -309 763 -212 Q763 -88 886 0 L831 0 Q812 62 809 111 Q721 31 649 0 Q562 -37 435 -37 Q272 -37 174 44 Q68 132 68 293 Q68 485 207 573 Q291 627 467 653 L770 698 L770 745 Q770 897 588 897 Q484 897 429 846 Q399 817 375 764 L111 836 Q140 939 232 1011 Q368 1118 607 1118 Q863 1118 975 1013 Q1073 922 1073 743 L1073 233 Q1073 104 1116 0 L1044 0 Z M770 502 L551 469 Q367 441 367 304 Q367 246 403 212 Q443 174 516 174 Q618 174 691 225 Q770 280 770 377 L770 502 Z " />
<glyph glyph-name="Cacute" unicode="&#x106;" horiz-adv-x="1583" d="M1501 1075 L1169 999 Q1091 1305 817 1305 Q626 1305 527 1158 Q432 1018 432 755 Q432 242 821 242 Q1134 242 1182 596 L1520 553 Q1463 291 1325 150 Q1143 -37 818 -37 Q516 -37 329 129 Q92 339 92 760 Q92 1143 282 1359 Q477 1581 830 1581 Q1174 1581 1351 1373 Q1446 1260 1501 1075 Z M640 1658 L876 1930 L1224 1930 L915 1658 L640 1658 Z " />
<glyph glyph-name="cacute" unicode="&#x107;" horiz-adv-x="1182" d="M1124 760 L834 688 Q810 770 773 813 Q717 877 622 877 Q501 877 440 776 Q387 689 387 536 Q387 381 447 292 Q506 205 619 205 Q734 205 795 292 Q831 343 844 416 L1137 342 Q1017 -37 614 -37 Q367 -37 227 102 Q76 252 76 534 Q76 786 207 942 Q353 1118 626 1118 Q902 1118 1027 967 Q1094 886 1124 760 Z M412 1272 L648 1544 L996 1544 L687 1272 L412 1272 Z " />
<glyph glyph-name="Ccircumflex" unicode="&#x108;" horiz-adv-x="1583" d="M1501 1075 L1169 999 Q1091 1305 817 1305 Q626 1305 527 1158 Q432 1018 432 755 Q432 242 821 242 Q1134 242 1182 596 L1520 553 Q1463 291 1325 150 Q1143 -37 818 -37 Q516 -37 329 129 Q92 339 92 760 Q92 1143 282 1359 Q477 1581 830 1581 Q1174 1581 1351 1373 Q1446 1260 1501 1075 Z M373 1660 L641 1932 L948 1932 L1217 1660 L936 1660 L795 1783 L654 1660 L373 1660 Z " />
<glyph glyph-name="ccircumflex" unicode="&#x109;" horiz-adv-x="1182" d="M1124 760 L834 688 Q810 770 773 813 Q717 877 622 877 Q501 877 440 776 Q387 689 387 536 Q387 381 447 292 Q506 205 619 205 Q734 205 795 292 Q831 343 844 416 L1137 342 Q1017 -37 614 -37 Q367 -37 227 102 Q76 252 76 534 Q76 786 207 942 Q353 1118 626 1118 Q902 1118 1027 967 Q1094 886 1124 760 Z M191 1272 L459 1544 L766 1544 L1035 1272 L754 1272 L613 1395 L472 1272 L191 1272 Z " />
<glyph glyph-name="Cdotaccent" unicode="&#x10a;" horiz-adv-x="1583" d="M1501 1075 L1169 999 Q1091 1305 817 1305 Q626 1305 527 1158 Q432 1018 432 755 Q432 242 821 242 Q1134 242 1182 596 L1520 553 Q1463 291 1325 150 Q1143 -37 818 -37 Q516 -37 329 129 Q92 339 92 760 Q92 1143 282 1359 Q477 1581 830 1581 Q1174 1581 1351 1373 Q1446 1260 1501 1075 Z M687 1661 L687 1933 L953 1933 L953 1661 L687 1661 Z " />
<glyph glyph-name="cdotaccent" unicode="&#x10b;" horiz-adv-x="1182" d="M1124 760 L834 688 Q810 770 773 813 Q717 877 622 877 Q501 877 440 776 Q387 689 387 536 Q387 381 447 292 Q506 205 619 205 Q734 205 795 292 Q831 343 844 416 L1137 342 Q1017 -37 614 -37 Q367 -37 227 102 Q76 252 76 534 Q76 786 207 942 Q353 1118 626 1118 Q902 1118 1027 967 Q1094 886 1124 760 Z M498 1272 L498 1544 L764 1544 L764 1272 L498 1272 Z " />
<glyph glyph-name="Ccaron" unicode="&#x10c;" horiz-adv-x="1583" d="M1501 1075 L1169 999 Q1091 1305 817 1305 Q626 1305 527 1158 Q432 1018 432 755 Q432 242 821 242 Q1134 242 1182 596 L1520 553 Q1463 291 1325 150 Q1143 -37 818 -37 Q516 -37 329 129 Q92 339 92 760 Q92 1143 282 1359 Q477 1581 830 1581 Q1174 1581 1351 1373 Q1446 1260 1501 1075 Z M683 1659 L415 1931 L696 1931 L837 1808 L978 1931 L1259 1931 L991 1659 L683 1659 Z " />
<glyph glyph-name="ccaron" unicode="&#x10d;" horiz-adv-x="1182" d="M1124 760 L834 688 Q810 770 773 813 Q717 877 622 877 Q501 877 440 776 Q387 689 387 536 Q387 381 447 292 Q506 205 619 205 Q734 205 795 292 Q831 343 844 416 L1137 342 Q1017 -37 614 -37 Q367 -37 227 102 Q76 252 76 534 Q76 786 207 942 Q353 1118 626 1118 Q902 1118 1027 967 Q1094 886 1124 760 Z M465 1272 L197 1544 L478 1544 L619 1421 L760 1544 L1041 1544 L773 1272 L465 1272 Z " />
<glyph glyph-name="Dcaron" unicode="&#x10e;" horiz-adv-x="1567" d="M147 0 L147 1544 L678 1544 Q1083 1544 1281 1351 Q1475 1162 1475 778 Q1475 0 678 0 L147 0 Z M481 268 L684 268 Q911 268 1028 411 Q1135 541 1135 779 Q1135 1047 1003 1171 Q891 1276 692 1276 L481 1276 L481 268 Z M575 1659 L307 1931 L588 1931 L729 1808 L870 1931 L1151 1931 L883 1659 L575 1659 Z " />
<glyph glyph-name="dcaron" unicode="&#x10f;" horiz-adv-x="1518" d="M877 961 L877 1544 L1188 1544 L1188 0 L897 0 L887 143 Q834 60 766 19 Q673 -37 536 -37 Q358 -37 242 65 Q76 211 76 517 Q76 798 200 957 Q324 1116 560 1116 Q757 1116 877 961 Z M635 881 Q509 881 443 770 Q393 686 393 537 Q393 381 457 289 Q523 197 636 197 Q747 197 812 279 Q881 365 881 546 Q881 724 801 813 Q739 881 635 881 Z M1286 1169 L1286 1544 L1542 1544 L1478 1169 L1286 1169 Z " />
<glyph glyph-name="Dcroat" unicode="&#x110;" horiz-adv-x="1567" d="M147 0 L147 686 L0 686 L0 885 L147 885 L147 1544 L678 1544 Q1084 1544 1282 1351 Q1475 1162 1475 778 Q1475 0 678 0 L147 0 Z M481 268 L684 268 Q911 268 1028 411 Q1135 541 1135 780 Q1135 1046 1003 1171 Q891 1276 692 1276 L481 1276 L481 885 L831 885 L831 686 L481 686 L481 268 Z " />
<glyph glyph-name="dcroat" unicode="&#x111;" horiz-adv-x="1315" d="M457 1210 L457 1416 L877 1416 L877 1544 L1188 1544 L1188 1416 L1315 1416 L1315 1210 L1188 1210 L1188 0 L897 0 L887 143 Q834 60 766 19 Q673 -37 537 -37 Q336 -37 215 91 Q76 238 76 517 Q76 798 200 957 Q324 1116 560 1116 Q757 1116 877 961 L877 1210 L457 1210 Z M635 881 Q509 881 443 770 Q393 686 393 537 Q393 381 457 289 Q523 197 636 197 Q747 197 812 279 Q881 365 881 546 Q881 724 801 813 Q739 881 635 881 Z " />
<glyph glyph-name="Emacron" unicode="&#x112;" horiz-adv-x="1399" d="M147 0 L147 1544 L1290 1544 L1290 1270 L481 1270 L481 924 L1245 924 L1245 649 L481 649 L481 274 L1325 274 L1325 0 L147 0 Z M287 1686 L287 1892 L1145 1892 L1145 1686 L287 1686 Z " />
<glyph glyph-name="emacron" unicode="&#x113;" horiz-adv-x="1221" d="M1153 465 L387 465 Q400 197 635 197 Q799 197 864 344 L1128 223 Q999 -37 625 -37 Q379 -37 235 98 Q76 248 76 538 Q76 794 207 948 Q351 1118 619 1118 Q812 1118 937 1040 Q1153 904 1153 549 L1153 465 Z M387 649 L844 649 Q833 895 617 895 Q422 895 387 649 Z M230 1296 L230 1502 L1006 1502 L1006 1296 L230 1296 Z " />
<glyph glyph-name="Edotaccent" unicode="&#x116;" horiz-adv-x="1399" d="M147 0 L147 1544 L1290 1544 L1290 1270 L481 1270 L481 924 L1245 924 L1245 649 L481 649 L481 274 L1325 274 L1325 0 L147 0 Z M609 1659 L609 1931 L875 1931 L875 1659 L609 1659 Z " />
<glyph glyph-name="edotaccent" unicode="&#x117;" horiz-adv-x="1221" d="M1153 465 L387 465 Q400 197 635 197 Q799 197 864 344 L1128 223 Q999 -37 625 -37 Q379 -37 235 98 Q76 248 76 538 Q76 794 207 948 Q351 1118 619 1118 Q812 1118 937 1040 Q1153 904 1153 549 L1153 465 Z M387 649 L844 649 Q833 895 617 895 Q422 895 387 649 Z M490 1272 L490 1544 L756 1544 L756 1272 L490 1272 Z " />
<glyph glyph-name="Eogonek" unicode="&#x118;" horiz-adv-x="1399" d="M1262 0 Q1174 -73 1174 -153 Q1174 -229 1236 -229 Q1270 -229 1331 -200 L1331 -350 Q1261 -393 1182 -393 Q1108 -393 1059 -361 Q982 -309 982 -212 Q982 -90 1104 0 L147 0 L147 1544 L1290 1544 L1290 1270 L481 1270 L481 924 L1245 924 L1245 649 L481 649 L481 274 L1325 274 L1325 0 L1262 0 Z " />
<glyph glyph-name="eogonek" unicode="&#x119;" horiz-adv-x="1221" d="M739 -30 Q684 -85 684 -153 Q684 -229 746 -229 Q780 -229 842 -200 L842 -350 Q771 -393 692 -393 Q618 -393 570 -361 Q492 -309 492 -212 Q492 -117 572 -35 Q359 -18 235 98 Q76 248 76 538 Q76 794 207 948 Q351 1118 620 1118 Q812 1118 937 1040 Q1153 904 1153 549 L1153 465 L387 465 Q400 197 636 197 Q799 197 864 344 L1128 223 Q1085 136 1007 72 Q913 -6 739 -30 Z M387 649 L844 649 Q834 895 617 895 Q422 895 387 649 Z " />
<glyph glyph-name="Ecaron" unicode="&#x11a;" horiz-adv-x="1399" d="M147 0 L147 1544 L1290 1544 L1290 1270 L481 1270 L481 924 L1245 924 L1245 649 L481 649 L481 274 L1325 274 L1325 0 L147 0 Z M580 1659 L312 1931 L593 1931 L734 1808 L875 1931 L1156 1931 L888 1659 L580 1659 Z " />
<glyph glyph-name="ecaron" unicode="&#x11b;" horiz-adv-x="1221" d="M1153 465 L387 465 Q400 197 635 197 Q799 197 864 344 L1128 223 Q999 -37 625 -37 Q379 -37 235 98 Q76 248 76 538 Q76 794 207 948 Q351 1118 619 1118 Q812 1118 937 1040 Q1153 904 1153 549 L1153 465 Z M387 649 L844 649 Q833 895 617 895 Q422 895 387 649 Z M477 1272 L209 1544 L490 1544 L631 1421 L772 1544 L1053 1544 L785 1272 L477 1272 Z " />
<glyph glyph-name="Gbreve" unicode="&#x11e;" horiz-adv-x="1614" d="M1501 1100 L1188 1024 Q1148 1151 1075 1220 Q985 1305 831 1305 Q638 1305 533 1157 Q432 1014 432 756 Q432 505 538 372 Q642 240 835 240 Q983 240 1079 310 Q1180 385 1180 504 L1180 575 L932 575 L932 817 L1505 817 L1505 0 L1292 0 L1257 156 Q1101 -37 792 -37 Q508 -37 329 122 Q92 331 92 757 Q92 1141 289 1359 Q489 1581 843 1581 Q1189 1581 1355 1389 Q1451 1279 1501 1100 Z M453 1935 L674 1935 Q679 1901 708 1872 Q755 1827 834 1827 Q974 1827 990 1935 L1211 1935 Q1206 1817 1125 1741 Q1020 1643 831 1643 Q661 1643 558 1725 Q460 1803 453 1935 Z " />
<glyph glyph-name="gbreve" unicode="&#x11f;" horiz-adv-x="1315" d="M115 -184 L383 -84 Q447 -195 607 -195 Q751 -195 819 -129 Q877 -73 877 45 L877 188 Q824 113 761 76 Q673 23 536 23 Q332 23 215 138 Q76 275 76 548 Q76 804 182 948 Q307 1118 555 1118 Q785 1118 885 946 L899 1081 L1188 1081 L1188 76 Q1188 -167 1061 -289 Q920 -424 631 -424 Q416 -424 277 -353 Q157 -292 115 -184 Z M639 883 Q393 883 393 572 Q393 258 635 258 Q881 258 881 571 Q881 883 639 883 Z M285 1554 L506 1554 Q511 1519 540 1491 Q588 1446 666 1446 Q806 1446 822 1554 L1043 1554 Q1038 1436 956 1360 Q852 1262 663 1262 Q493 1262 390 1344 Q291 1423 285 1554 Z " />
<glyph glyph-name="Gdotaccent" unicode="&#x120;" horiz-adv-x="1614" d="M1501 1100 L1188 1024 Q1148 1151 1075 1220 Q985 1305 831 1305 Q638 1305 533 1157 Q432 1014 432 756 Q432 505 538 372 Q642 240 835 240 Q983 240 1079 310 Q1180 385 1180 504 L1180 575 L932 575 L932 817 L1505 817 L1505 0 L1292 0 L1257 156 Q1101 -37 792 -37 Q508 -37 329 122 Q92 331 92 757 Q92 1141 289 1359 Q489 1581 843 1581 Q1189 1581 1355 1389 Q1451 1279 1501 1100 Z M708 1658 L708 1930 L974 1930 L974 1658 L708 1658 Z " />
<glyph glyph-name="gdotaccent" unicode="&#x121;" horiz-adv-x="1315" d="M115 -184 L383 -84 Q447 -195 607 -195 Q751 -195 819 -129 Q877 -73 877 45 L877 188 Q824 113 761 76 Q673 23 536 23 Q332 23 215 138 Q76 275 76 548 Q76 804 182 948 Q307 1118 555 1118 Q785 1118 885 946 L899 1081 L1188 1081 L1188 76 Q1188 -167 1061 -289 Q920 -424 631 -424 Q416 -424 277 -353 Q157 -292 115 -184 Z M639 883 Q393 883 393 572 Q393 258 635 258 Q881 258 881 571 Q881 883 639 883 Z M503 1272 L503 1544 L769 1544 L769 1272 L503 1272 Z " />
<glyph glyph-name="Gcommaaccent" unicode="&#x122;" horiz-adv-x="1614" d="M1501 1100 L1188 1024 Q1148 1151 1075 1220 Q985 1305 831 1305 Q638 1305 533 1157 Q432 1014 432 756 Q432 505 538 372 Q642 240 835 240 Q983 240 1079 310 Q1180 385 1180 504 L1180 575 L932 575 L932 817 L1505 817 L1505 0 L1292 0 L1257 156 Q1101 -37 792 -37 Q508 -37 329 122 Q92 331 92 757 Q92 1141 289 1359 Q489 1581 843 1581 Q1189 1581 1355 1389 Q1451 1279 1501 1100 Z M579 -393 L796 -121 L1009 -121 L855 -393 L579 -393 Z " />
<glyph glyph-name="gcommaaccent" unicode="&#x123;" horiz-adv-x="1315" d="M115 -184 L383 -84 Q447 -195 607 -195 Q751 -195 819 -129 Q877 -73 877 45 L877 188 Q824 113 761 76 Q673 23 536 23 Q332 23 215 138 Q76 275 76 548 Q76 804 182 948 Q307 1118 555 1118 Q785 1118 885 946 L899 1081 L1188 1081 L1188 76 Q1188 -167 1061 -289 Q920 -424 631 -424 Q416 -424 277 -353 Q157 -292 115 -184 Z M639 883 Q393 883 393 572 Q393 258 635 258 Q881 258 881 571 Q881 883 639 883 Z M474 1272 L691 1544 L904 1544 L750 1272 L474 1272 Z " />
<glyph glyph-name="Hbar" unicode="&#x126;" horiz-adv-x="1606" d="M147 1181 L35 1181 L35 1387 L147 1387 L147 1544 L481 1544 L481 1387 L1124 1387 L1124 1544 L1458 1544 L1458 1387 L1573 1387 L1573 1181 L1458 1181 L1458 0 L1124 0 L1124 676 L481 676 L481 0 L147 0 L147 1181 Z M481 1181 L481 950 L1124 950 L1124 1181 L481 1181 Z " />
<glyph glyph-name="hbar" unicode="&#x127;" horiz-adv-x="1278" d="M127 1221 L24 1221 L24 1427 L127 1427 L127 1544 L438 1544 L438 1427 L777 1427 L777 1221 L438 1221 L438 936 Q552 1118 791 1118 Q1005 1118 1093 972 Q1151 877 1151 719 L1151 0 L840 0 L840 676 Q840 872 667 872 Q565 872 504 791 Q438 705 438 553 L438 0 L127 0 L127 1221 Z " />
<glyph glyph-name="Imacron" unicode="&#x12a;" horiz-adv-x="629" d="M147 0 L147 1544 L481 1544 L481 0 L147 0 Z M-123 1686 L-123 1892 L735 1892 L735 1686 L-123 1686 Z " />
<glyph glyph-name="imacron" unicode="&#x12b;" horiz-adv-x="588" d="M137 0 L137 1081 L449 1081 L449 0 L137 0 Z M-96 1296 L-96 1502 L680 1502 L680 1296 L-96 1296 Z " />
<glyph glyph-name="Iogonek" unicode="&#x12e;" horiz-adv-x="629" d="M422 0 Q333 -73 333 -153 Q333 -229 395 -229 Q429 -229 491 -200 L491 -350 Q420 -393 341 -393 Q267 -393 218 -361 Q141 -309 141 -212 Q141 -90 263 0 L147 0 L147 1544 L481 1544 L481 0 L422 0 Z " />
<glyph glyph-name="iogonek" unicode="&#x12f;" horiz-adv-x="588" d="M137 0 L137 1081 L449 1081 L449 0 L137 0 Z M137 1278 L137 1544 L449 1544 L449 1278 L137 1278 Z M246 0 L405 0 Q316 -74 316 -153 Q316 -229 378 -229 Q412 -229 474 -200 L474 -350 Q403 -393 324 -393 Q250 -393 202 -361 Q124 -309 124 -212 Q124 -91 246 0 Z " />
<glyph glyph-name="Idotaccent" unicode="&#x130;" horiz-adv-x="629" d="M147 0 L147 1544 L481 1544 L481 0 L147 0 Z M182 1659 L182 1931 L448 1931 L448 1659 L182 1659 Z " />
<glyph glyph-name="Kcommaaccent" unicode="&#x136;" horiz-adv-x="1497" d="M147 0 L147 1544 L481 1544 L481 928 L1079 1544 L1468 1544 L885 944 L1518 0 L1122 0 L655 719 L481 541 L481 0 L147 0 Z M492 -393 L709 -121 L922 -121 L768 -393 L492 -393 Z " />
<glyph glyph-name="kcommaaccent" unicode="&#x137;" horiz-adv-x="1202" d="M127 0 L127 1544 L438 1544 L438 733 L809 1081 L1194 1081 L801 713 L1219 0 L862 0 L571 518 L438 391 L438 0 L127 0 Z M365 -393 L582 -121 L795 -121 L641 -393 L365 -393 Z " />
<glyph glyph-name="Lacute" unicode="&#x139;" horiz-adv-x="1298" d="M147 0 L147 1544 L481 1544 L481 274 L1268 274 L1268 0 L147 0 Z M179 1658 L415 1930 L763 1930 L454 1658 L179 1658 Z " />
<glyph glyph-name="lacute" unicode="&#x13a;" horiz-adv-x="588" d="M137 0 L137 1544 L449 1544 L449 0 L137 0 Z M155 1658 L391 1930 L739 1930 L430 1658 L155 1658 Z " />
<glyph glyph-name="Lcommaaccent" unicode="&#x13b;" horiz-adv-x="1298" d="M147 0 L147 1544 L481 1544 L481 274 L1268 274 L1268 0 L147 0 Z M428 -393 L645 -121 L858 -121 L704 -393 L428 -393 Z " />
<glyph glyph-name="lcommaaccent" unicode="&#x13c;" horiz-adv-x="588" d="M137 0 L137 1544 L449 1544 L449 0 L137 0 Z M-17 -393 L200 -121 L413 -121 L259 -393 L-17 -393 Z " />
<glyph glyph-name="Lcaron" unicode="&#x13d;" horiz-adv-x="1298" d="M147 0 L147 1544 L481 1544 L481 274 L1268 274 L1268 0 L147 0 Z M802 1169 L802 1544 L1058 1544 L994 1169 L802 1169 Z " />
<glyph glyph-name="lcaron" unicode="&#x13e;" horiz-adv-x="789" d="M137 0 L137 1544 L449 1544 L449 0 L137 0 Z M557 1169 L557 1544 L813 1544 L749 1169 L557 1169 Z " />
<glyph glyph-name="Lslash" unicode="&#x141;" horiz-adv-x="1315" d="M147 0 L147 516 L0 408 L0 655 L147 764 L147 1544 L481 1544 L481 1010 L807 1247 L807 999 L481 762 L481 274 L1268 274 L1268 0 L147 0 Z " />
<glyph glyph-name="lslash" unicode="&#x142;" horiz-adv-x="588" d="M137 0 L137 567 L0 467 L0 680 L137 780 L137 1544 L449 1544 L449 1010 L588 1112 L588 901 L449 799 L449 0 L137 0 Z " />
<glyph glyph-name="Nacute" unicode="&#x143;" horiz-adv-x="1583" d="M147 0 L147 1544 L479 1544 L1122 502 L1122 1544 L1436 1544 L1436 0 L1104 0 L461 1042 L461 0 L147 0 Z M585 1658 L821 1930 L1169 1930 L860 1658 L585 1658 Z " />
<glyph glyph-name="nacute" unicode="&#x144;" horiz-adv-x="1278" d="M127 0 L127 1081 L426 1081 L442 928 Q552 1118 791 1118 Q1005 1118 1094 972 Q1151 877 1151 719 L1151 0 L840 0 L840 676 Q840 872 667 872 Q565 872 504 791 Q438 705 438 553 L438 0 L127 0 Z M453 1272 L689 1544 L1037 1544 L728 1272 L453 1272 Z " />
<glyph glyph-name="Ncommaaccent" unicode="&#x145;" horiz-adv-x="1583" d="M147 0 L147 1544 L479 1544 L1122 502 L1122 1544 L1436 1544 L1436 0 L1104 0 L461 1042 L461 0 L147 0 Z M532 -393 L749 -121 L962 -121 L808 -393 L532 -393 Z " />
<glyph glyph-name="ncommaaccent" unicode="&#x146;" horiz-adv-x="1278" d="M127 0 L127 1081 L426 1081 L442 928 Q552 1118 791 1118 Q1005 1118 1094 972 Q1151 877 1151 719 L1151 0 L840 0 L840 676 Q840 872 667 872 Q565 872 504 791 Q438 705 438 553 L438 0 L127 0 Z M351 -393 L568 -121 L781 -121 L627 -393 L351 -393 Z " />
<glyph glyph-name="Ncaron" unicode="&#x147;" horiz-adv-x="1583" d="M147 0 L147 1544 L479 1544 L1122 502 L1122 1544 L1436 1544 L1436 0 L1104 0 L461 1042 L461 0 L147 0 Z M632 1659 L364 1931 L645 1931 L786 1808 L927 1931 L1208 1931 L940 1659 L632 1659 Z " />
<glyph glyph-name="ncaron" unicode="&#x148;" horiz-adv-x="1278" d="M127 0 L127 1081 L426 1081 L442 928 Q552 1118 791 1118 Q1005 1118 1094 972 Q1151 877 1151 719 L1151 0 L840 0 L840 676 Q840 872 667 872 Q565 872 504 791 Q438 705 438 553 L438 0 L127 0 Z M489 1272 L221 1544 L502 1544 L643 1421 L784 1544 L1065 1544 L797 1272 L489 1272 Z " />
<glyph glyph-name="Omacron" unicode="&#x14c;" horiz-adv-x="1690" d="M844 1581 Q1199 1581 1398 1365 Q1597 1149 1597 770 Q1597 393 1398 179 Q1198 -37 848 -37 Q526 -37 329 141 Q92 354 92 770 Q92 1151 290 1365 Q490 1581 844 1581 Z M844 1305 Q649 1305 538 1158 Q432 1016 432 771 Q432 527 538 386 Q648 240 841 240 Q1019 240 1127 360 Q1257 503 1257 771 Q1257 1016 1149 1158 Q1037 1305 844 1305 Z M408 1686 L408 1892 L1266 1892 L1266 1686 L408 1686 Z " />
<glyph glyph-name="omacron" unicode="&#x14d;" horiz-adv-x="1292" d="M644 1118 Q925 1118 1079 947 Q1217 793 1217 539 Q1217 286 1079 134 Q924 -37 649 -37 Q390 -37 239 105 Q76 259 76 539 Q76 795 211 947 Q364 1118 644 1118 Z M642 879 Q524 879 455 786 Q387 695 387 539 Q387 384 455 294 Q524 203 643 203 Q758 203 828 285 Q903 373 903 544 Q903 718 812 813 Q749 879 642 879 Z M257 1296 L257 1502 L1033 1502 L1033 1296 L257 1296 Z " />
<glyph glyph-name="Ohungarumlaut" unicode="&#x150;" horiz-adv-x="1690" d="M844 1581 Q1199 1581 1398 1365 Q1597 1149 1597 770 Q1597 393 1398 179 Q1198 -37 848 -37 Q526 -37 329 141 Q92 354 92 770 Q92 1151 290 1365 Q490 1581 844 1581 Z M844 1305 Q649 1305 538 1158 Q432 1016 432 771 Q432 527 538 386 Q648 240 841 240 Q1019 240 1127 360 Q1257 503 1257 771 Q1257 1016 1149 1158 Q1037 1305 844 1305 Z M485 1659 L639 1931 L915 1931 L688 1659 L485 1659 Z M905 1659 L1058 1931 L1335 1931 L1108 1659 L905 1659 Z " />
<glyph glyph-name="ohungarumlaut" unicode="&#x151;" horiz-adv-x="1292" d="M644 1118 Q925 1118 1079 947 Q1217 793 1217 539 Q1217 286 1079 134 Q924 -37 649 -37 Q390 -37 239 105 Q76 259 76 539 Q76 795 211 947 Q364 1118 644 1118 Z M642 879 Q524 879 455 786 Q387 695 387 539 Q387 384 455 294 Q524 203 643 203 Q758 203 828 285 Q903 373 903 544 Q903 718 812 813 Q749 879 642 879 Z M301 1272 L455 1544 L731 1544 L504 1272 L301 1272 Z M721 1272 L874 1544 L1151 1544 L924 1272 L721 1272 Z " />
<glyph glyph-name="Racute" unicode="&#x154;" horiz-adv-x="1528" d="M147 0 L147 1544 L885 1544 Q1168 1544 1301 1391 Q1405 1273 1405 1071 Q1405 783 1133 657 L1464 0 L1090 0 L809 602 L477 602 L477 0 L147 0 Z M477 862 L799 862 Q1063 862 1063 1077 Q1063 1187 997 1235 Q932 1282 799 1282 L477 1282 L477 862 Z M527 1658 L763 1930 L1111 1930 L802 1658 L527 1658 Z " />
<glyph glyph-name="racute" unicode="&#x155;" horiz-adv-x="821" d="M127 0 L127 1081 L422 1081 L438 891 Q469 965 505 1008 Q577 1094 706 1094 Q755 1094 821 1081 L795 821 Q719 831 679 831 Q566 831 501 749 Q438 670 438 532 L438 0 L127 0 Z M167 1272 L403 1544 L751 1544 L442 1272 L167 1272 Z " />
<glyph glyph-name="Rcommaaccent" unicode="&#x156;" horiz-adv-x="1528" d="M147 0 L147 1544 L885 1544 Q1168 1544 1301 1391 Q1405 1273 1405 1071 Q1405 783 1133 657 L1464 0 L1090 0 L809 602 L477 602 L477 0 L147 0 Z M477 862 L799 862 Q1063 862 1063 1077 Q1063 1187 997 1235 Q932 1282 799 1282 L477 1282 L477 862 Z M482 -393 L699 -121 L912 -121 L758 -393 L482 -393 Z " />
<glyph glyph-name="rcommaaccent" unicode="&#x157;" horiz-adv-x="821" d="M127 0 L127 1081 L422 1081 L438 891 Q469 965 505 1008 Q577 1094 706 1094 Q755 1094 821 1081 L795 821 Q719 831 679 831 Q566 831 501 749 Q438 670 438 532 L438 0 L127 0 Z M-24 -393 L193 -121 L406 -121 L252 -393 L-24 -393 Z " />
<glyph glyph-name="Rcaron" unicode="&#x158;" horiz-adv-x="1528" d="M147 0 L147 1544 L885 1544 Q1168 1544 1301 1391 Q1405 1273 1405 1071 Q1405 783 1133 657 L1464 0 L1090 0 L809 602 L477 602 L477 0 L147 0 Z M477 862 L799 862 Q1063 862 1063 1077 Q1063 1187 997 1235 Q932 1282 799 1282 L477 1282 L477 862 Z M565 1659 L297 1931 L578 1931 L719 1808 L860 1931 L1141 1931 L873 1659 L565 1659 Z " />
<glyph glyph-name="rcaron" unicode="&#x159;" horiz-adv-x="821" d="M127 0 L127 1081 L422 1081 L438 891 Q469 965 505 1008 Q577 1094 706 1094 Q755 1094 821 1081 L795 821 Q719 831 679 831 Q566 831 501 749 Q438 670 438 532 L438 0 L127 0 Z M268 1272 L0 1544 L281 1544 L422 1421 L563 1544 L844 1544 L576 1272 L268 1272 Z " />
<glyph glyph-name="Sacute" unicode="&#x15a;" horiz-adv-x="1485" d="M53 440 L377 518 Q408 385 474 320 Q565 229 751 229 Q1051 229 1051 424 Q1051 512 990 560 Q926 609 803 629 L616 659 Q379 697 259 788 Q106 905 106 1116 Q106 1343 288 1468 Q453 1581 727 1581 Q1035 1581 1199 1452 Q1326 1352 1384 1159 L1075 1065 Q1035 1187 965 1245 Q878 1317 720 1317 Q596 1317 522 1272 Q444 1223 444 1132 Q444 1057 491 1016 Q547 967 690 942 L948 897 Q1181 856 1284 754 Q1397 641 1397 442 Q1397 224 1236 97 Q1065 -37 749 -37 Q460 -37 298 66 Q119 178 53 440 Z M531 1658 L767 1930 L1115 1930 L806 1658 L531 1658 Z " />
<glyph glyph-name="sacute" unicode="&#x15b;" horiz-adv-x="1139" d="M41 268 L328 348 Q384 186 561 186 Q737 186 737 297 Q737 346 704 373 Q669 402 582 420 L444 449 Q230 494 150 579 Q82 650 82 780 Q82 940 214 1031 Q341 1118 561 1118 Q807 1118 946 1002 Q1014 946 1049 852 L772 756 Q744 827 706 857 Q651 901 554 901 Q395 901 395 790 Q395 715 526 688 L745 643 Q935 604 1006 508 Q1061 433 1061 310 Q1061 151 936 59 Q805 -37 565 -37 Q337 -37 190 61 Q97 123 41 268 Z M373 1272 L609 1544 L957 1544 L648 1272 L373 1272 Z " />
<glyph glyph-name="Scedilla" unicode="&#x15e;" horiz-adv-x="1485" d="M53 440 L377 518 Q408 385 474 320 Q565 229 751 229 Q1051 229 1051 424 Q1051 512 990 560 Q926 609 803 629 L616 659 Q379 697 259 788 Q106 905 106 1116 Q106 1343 288 1468 Q453 1581 727 1581 Q1035 1581 1199 1452 Q1326 1352 1384 1159 L1075 1065 Q1035 1187 965 1245 Q878 1317 720 1317 Q596 1317 522 1272 Q444 1223 444 1132 Q444 1057 491 1016 Q547 967 690 942 L948 897 Q1181 856 1284 754 Q1397 641 1397 442 Q1397 224 1236 97 Q1065 -37 749 -37 Q460 -37 298 66 Q119 178 53 440 Z M471 -393 L688 -121 L901 -121 L747 -393 L471 -393 Z " />
<glyph glyph-name="scedilla" unicode="&#x15f;" horiz-adv-x="1139" d="M41 268 L328 348 Q384 186 561 186 Q737 186 737 297 Q737 346 704 373 Q669 402 582 420 L444 449 Q230 494 150 579 Q82 650 82 780 Q82 940 214 1031 Q341 1118 561 1118 Q807 1118 946 1002 Q1014 946 1049 852 L772 756 Q744 827 706 857 Q651 901 554 901 Q395 901 395 790 Q395 715 526 688 L745 643 Q935 604 1006 508 Q1061 433 1061 310 Q1061 151 936 59 Q805 -37 565 -37 Q337 -37 190 61 Q97 123 41 268 Z M328 -393 L545 -121 L758 -121 L604 -393 L328 -393 Z " />
<glyph glyph-name="Scaron" unicode="&#x160;" horiz-adv-x="1485" d="M53 440 L377 518 Q408 385 474 320 Q565 229 751 229 Q1051 229 1051 424 Q1051 512 990 560 Q926 609 803 629 L616 659 Q379 697 259 788 Q106 905 106 1116 Q106 1343 288 1468 Q453 1581 727 1581 Q1035 1581 1199 1452 Q1326 1352 1384 1159 L1075 1065 Q1035 1187 965 1245 Q878 1317 720 1317 Q596 1317 522 1272 Q444 1223 444 1132 Q444 1057 491 1016 Q547 967 690 942 L948 897 Q1181 856 1284 754 Q1397 641 1397 442 Q1397 224 1236 97 Q1065 -37 749 -37 Q460 -37 298 66 Q119 178 53 440 Z M582 1659 L314 1931 L595 1931 L736 1808 L877 1931 L1158 1931 L890 1659 L582 1659 Z " />
<glyph glyph-name="scaron" unicode="&#x161;" horiz-adv-x="1139" d="M41 268 L328 348 Q384 186 561 186 Q737 186 737 297 Q737 346 704 373 Q669 402 582 420 L444 449 Q230 494 150 579 Q82 650 82 780 Q82 940 214 1031 Q341 1118 561 1118 Q807 1118 946 1002 Q1014 946 1049 852 L772 756 Q744 827 706 857 Q651 901 554 901 Q395 901 395 790 Q395 715 526 688 L745 643 Q935 604 1006 508 Q1061 433 1061 310 Q1061 151 936 59 Q805 -37 565 -37 Q337 -37 190 61 Q97 123 41 268 Z M413 1272 L145 1544 L426 1544 L567 1421 L708 1544 L989 1544 L721 1272 L413 1272 Z " />
<glyph glyph-name="Tcommaaccent" unicode="&#x162;" horiz-adv-x="1436" d="M551 0 L551 1270 L31 1270 L31 1544 L1405 1544 L1405 1270 L885 1270 L885 0 L551 0 Z M406 -393 L623 -121 L836 -121 L682 -393 L406 -393 Z " />
<glyph glyph-name="tcommaaccent" unicode="&#x163;" horiz-adv-x="799" d="M190 856 L49 856 L49 1081 L190 1081 L190 1389 L502 1389 L502 1081 L729 1081 L729 856 L502 856 L502 348 Q502 275 536 244 Q561 221 619 221 Q670 221 731 227 L758 6 Q636 -20 490 -20 Q340 -20 266 55 Q190 132 190 307 L190 856 Z M112 -393 L329 -121 L542 -121 L388 -393 L112 -393 Z " />
<glyph glyph-name="Tcaron" unicode="&#x164;" horiz-adv-x="1436" d="M551 0 L551 1270 L31 1270 L31 1544 L1405 1544 L1405 1270 L885 1270 L885 0 L551 0 Z M564 1659 L296 1931 L577 1931 L718 1808 L859 1931 L1140 1931 L872 1659 L564 1659 Z " />
<glyph glyph-name="tcaron" unicode="&#x165;" horiz-adv-x="844" d="M190 856 L49 856 L49 1081 L190 1081 L190 1389 L502 1389 L502 1081 L729 1081 L729 856 L502 856 L502 348 Q502 275 536 244 Q561 221 619 221 Q670 221 731 227 L758 6 Q636 -20 490 -20 Q340 -20 266 55 Q190 132 190 307 L190 856 Z M619 1169 L619 1544 L875 1544 L811 1169 L619 1169 Z " />
<glyph glyph-name="Umacron" unicode="&#x16a;" horiz-adv-x="1567" d="M133 1544 L467 1544 L467 580 Q467 240 785 240 Q1100 240 1100 580 L1100 1544 L1434 1544 L1434 602 Q1434 298 1266 129 Q1102 -37 782 -37 Q453 -37 287 143 Q133 310 133 602 L133 1544 Z M357 1686 L357 1892 L1215 1892 L1215 1686 L357 1686 Z " />
<glyph glyph-name="umacron" unicode="&#x16b;" horiz-adv-x="1278" d="M127 1081 L438 1081 L438 416 Q438 316 474 270 Q516 215 608 215 Q724 215 786 308 Q840 390 840 528 L840 1081 L1151 1081 L1151 0 L852 0 L838 154 Q727 -37 495 -37 Q299 -37 205 84 Q127 184 127 344 L127 1081 Z M250 1296 L250 1502 L1026 1502 L1026 1296 L250 1296 Z " />
<glyph glyph-name="Uring" unicode="&#x16e;" horiz-adv-x="1567" d="M133 1544 L467 1544 L467 580 Q467 240 785 240 Q1100 240 1100 580 L1100 1544 L1434 1544 L1434 602 Q1434 298 1266 129 Q1102 -37 782 -37 Q453 -37 287 143 Q133 310 133 602 L133 1544 Z M787 1955 Q929 1955 1006 1868 Q1061 1806 1061 1715 Q1061 1615 988 1549 Q910 1480 786 1480 Q670 1480 595 1537 Q508 1603 508 1717 Q508 1831 595 1899 Q668 1955 787 1955 Z M782 1832 Q710 1832 672 1786 Q651 1760 651 1716 Q651 1667 683 1636 Q720 1602 783 1602 Q846 1602 884 1636 Q917 1667 917 1719 Q917 1771 880 1802 Q843 1832 782 1832 Z " />
<glyph glyph-name="uring" unicode="&#x16f;" horiz-adv-x="1278" d="M127 1081 L438 1081 L438 416 Q438 316 474 270 Q516 215 608 215 Q724 215 786 308 Q840 390 840 528 L840 1081 L1151 1081 L1151 0 L852 0 L838 154 Q727 -37 495 -37 Q299 -37 205 84 Q127 184 127 344 L127 1081 Z M642 1631 Q777 1631 850 1548 Q902 1489 902 1402 Q902 1307 832 1245 Q759 1179 641 1179 Q530 1179 459 1234 Q377 1297 377 1405 Q377 1513 460 1577 Q529 1631 642 1631 Z M637 1508 Q573 1508 539 1466 Q520 1443 520 1403 Q520 1359 549 1332 Q582 1301 638 1301 Q695 1301 729 1332 Q758 1359 758 1406 Q758 1453 725 1481 Q692 1508 637 1508 Z " />
<glyph glyph-name="Uhungarumlaut" unicode="&#x170;" horiz-adv-x="1567" d="M133 1544 L467 1544 L467 580 Q467 240 785 240 Q1100 240 1100 580 L1100 1544 L1434 1544 L1434 602 Q1434 298 1266 129 Q1102 -37 782 -37 Q453 -37 287 143 Q133 310 133 602 L133 1544 Z M461 1659 L615 1931 L891 1931 L664 1659 L461 1659 Z M881 1659 L1034 1931 L1311 1931 L1084 1659 L881 1659 Z " />
<glyph glyph-name="uhungarumlaut" unicode="&#x171;" horiz-adv-x="1278" d="M127 1081 L438 1081 L438 416 Q438 316 474 270 Q516 215 608 215 Q724 215 786 308 Q840 390 840 528 L840 1081 L1151 1081 L1151 0 L852 0 L838 154 Q727 -37 495 -37 Q299 -37 205 84 Q127 184 127 344 L127 1081 Z M282 1272 L436 1544 L712 1544 L485 1272 L282 1272 Z M702 1272 L855 1544 L1132 1544 L905 1272 L702 1272 Z " />
<glyph glyph-name="Uogonek" unicode="&#x172;" horiz-adv-x="1567" d="M942 -24 Q881 -84 881 -153 Q881 -229 943 -229 Q977 -229 1039 -200 L1039 -350 Q968 -393 889 -393 Q815 -393 767 -361 Q689 -309 689 -212 Q689 -118 768 -37 Q502 -38 339 94 Q133 261 133 602 L133 1544 L467 1544 L467 580 Q467 240 785 240 Q1100 240 1100 580 L1100 1544 L1434 1544 L1434 602 Q1434 298 1266 129 Q1152 14 942 -24 Z " />
<glyph glyph-name="uogonek" unicode="&#x173;" horiz-adv-x="1278" d="M1089 0 Q1084 -4 1078 -9 Q1000 -73 1000 -153 Q1000 -229 1062 -229 Q1096 -229 1158 -200 L1158 -350 Q1087 -393 1008 -393 Q934 -393 886 -361 Q808 -309 808 -212 Q808 -90 930 0 L852 0 L838 154 Q727 -37 495 -37 Q299 -37 205 84 Q127 184 127 344 L127 1081 L438 1081 L438 416 Q438 316 474 270 Q516 215 608 215 Q724 215 786 308 Q840 390 840 528 L840 1081 L1151 1081 L1151 0 L1089 0 Z " />
<glyph glyph-name="Zacute" unicode="&#x179;" horiz-adv-x="1376" d="M70 0 L70 258 L907 1270 L100 1270 L100 1544 L1298 1544 L1298 1286 L461 274 L1315 274 L1315 0 L70 0 Z M519 1658 L755 1930 L1103 1930 L794 1658 L519 1658 Z " />
<glyph glyph-name="zacute" unicode="&#x17a;" horiz-adv-x="1075" d="M53 0 L53 217 L631 856 L86 856 L86 1081 L999 1081 L999 864 L422 225 L1022 225 L1022 0 L53 0 Z M343 1272 L579 1544 L927 1544 L618 1272 L343 1272 Z " />
<glyph glyph-name="Zdotaccent" unicode="&#x17b;" horiz-adv-x="1376" d="M70 0 L70 258 L907 1270 L100 1270 L100 1544 L1298 1544 L1298 1286 L461 274 L1315 274 L1315 0 L70 0 Z M590 1657 L590 1929 L856 1929 L856 1657 L590 1657 Z " />
<glyph glyph-name="zdotaccent" unicode="&#x17c;" horiz-adv-x="1075" d="M53 0 L53 217 L631 856 L86 856 L86 1081 L999 1081 L999 864 L422 225 L1022 225 L1022 0 L53 0 Z M405 1272 L405 1544 L671 1544 L671 1272 L405 1272 Z " />
<glyph glyph-name="Zcaron" unicode="&#x17d;" horiz-adv-x="1376" d="M70 0 L70 258 L907 1270 L100 1270 L100 1544 L1298 1544 L1298 1286 L461 274 L1315 274 L1315 0 L70 0 Z M549 1659 L281 1931 L562 1931 L703 1808 L844 1931 L1125 1931 L857 1659 L549 1659 Z " />
<glyph glyph-name="zcaron" unicode="&#x17e;" horiz-adv-x="1075" d="M53 0 L53 217 L631 856 L86 856 L86 1081 L999 1081 L999 864 L422 225 L1022 225 L1022 0 L53 0 Z M392 1272 L124 1544 L405 1544 L546 1421 L687 1544 L968 1544 L700 1272 L392 1272 Z " />
<glyph glyph-name="uni018F" unicode="&#x18f;" horiz-adv-x="1690" d="M103 924 L1244 924 Q1218 1067 1149 1158 Q1037 1305 846 1305 Q570 1305 487 1031 L155 1107 Q187 1207 220 1265 Q311 1428 497 1512 Q650 1581 844 1581 Q1199 1581 1398 1365 Q1597 1149 1597 770 Q1597 393 1398 179 Q1198 -37 844 -37 Q526 -37 329 141 Q214 244 154 402 Q92 564 92 755 Q92 823 103 924 Z M1249 649 L440 649 Q462 487 538 386 Q648 240 844 240 Q1019 240 1127 360 Q1224 466 1249 649 Z " />
<glyph glyph-name="uni0259" unicode="&#x259;" horiz-adv-x="1229" d="M76 616 L842 616 Q829 884 594 884 Q430 884 365 737 L101 858 Q230 1118 604 1118 Q851 1118 994 983 Q1153 833 1153 543 Q1153 287 1022 133 Q878 -37 610 -37 Q417 -37 292 41 Q76 177 76 532 L76 616 Z M842 432 L385 432 Q396 186 612 186 Q807 186 842 432 Z " />
<glyph glyph-name="uni037E" unicode="&#x37e;" horiz-adv-x="621" d="M231 -442 L117 -328 Q197 -249 232 -197 Q283 -119 283 -31 L283 0 L137 0 L137 338 L483 338 L483 23 Q483 -247 231 -442 Z M137 743 L137 1081 L483 1081 L483 743 L137 743 Z " />
<glyph glyph-name="tonos" unicode="&#x384;" horiz-adv-x="632" d="M219 819 L147 1327 L147 1544 L485 1544 L485 1327 L414 819 L219 819 Z " />
<glyph glyph-name="dieresistonos" unicode="&#x385;" horiz-adv-x="1076" d="M682 1929 L682 1701 L597 1478 L475 1478 L395 1701 L395 1929 L682 1929 Z M147 1278 L147 1544 L413 1544 L413 1278 L147 1278 Z M663 1278 L663 1544 L929 1544 L929 1278 L663 1278 Z " />
<glyph glyph-name="Alphatonos" unicode="&#x386;" horiz-adv-x="1554" d="M0 0 L569 1544 L985 1544 L1554 0 L1200 0 L1083 326 L444 326 L326 0 L0 0 Z M539 590 L987 590 L764 1251 L539 590 Z M44 819 L-28 1327 L-28 1544 L310 1544 L310 1327 L239 819 L44 819 Z " />
<glyph glyph-name="anoteleia" unicode="&#x387;" horiz-adv-x="621" d="M137 561 L137 899 L483 899 L483 561 L137 561 Z " />
<glyph glyph-name="Epsilontonos" unicode="&#x388;" horiz-adv-x="1642" d="M389 0 L389 1544 L1532 1544 L1532 1270 L723 1270 L723 924 L1487 924 L1487 649 L723 649 L723 274 L1567 274 L1567 0 L389 0 Z M21 819 L-51 1327 L-51 1544 L287 1544 L287 1327 L216 819 L21 819 Z " />
<glyph glyph-name="Etatonos" unicode="&#x389;" horiz-adv-x="1894" d="M435 0 L435 1544 L769 1544 L769 950 L1412 950 L1412 1544 L1746 1544 L1746 0 L1412 0 L1412 676 L769 676 L769 0 L435 0 Z M67 819 L-5 1327 L-5 1544 L333 1544 L333 1327 L262 819 L67 819 Z " />
<glyph glyph-name="Iotatonos" unicode="&#x38a;" horiz-adv-x="917" d="M435 0 L435 1544 L769 1544 L769 0 L435 0 Z M67 819 L-5 1327 L-5 1544 L333 1544 L333 1327 L262 819 L67 819 Z " />
<glyph glyph-name="Omicrontonos" unicode="&#x38c;" horiz-adv-x="1958" d="M1112 1581 Q1467 1581 1666 1365 Q1865 1149 1865 770 Q1865 393 1666 179 Q1466 -37 1116 -37 Q794 -37 597 141 Q360 354 360 770 Q360 1151 558 1365 Q758 1581 1112 1581 Z M1112 1305 Q917 1305 806 1158 Q700 1016 700 771 Q700 527 806 386 Q916 240 1109 240 Q1287 240 1395 360 Q1525 503 1525 771 Q1525 1016 1417 1158 Q1305 1305 1112 1305 Z M67 819 L-5 1327 L-5 1544 L333 1544 L333 1327 L262 819 L67 819 Z " />
<glyph glyph-name="Upsilontonos" unicode="&#x38e;" horiz-adv-x="1824" d="M946 0 L946 618 L401 1544 L753 1544 L1126 895 L1493 1544 L1824 1544 L1280 618 L1280 0 L946 0 Z M67 819 L-5 1327 L-5 1544 L333 1544 L333 1327 L262 819 L67 819 Z " />
<glyph glyph-name="Omegatonos" unicode="&#x38f;" horiz-adv-x="1933" d="M992 265 L992 0 L330 0 L330 274 L662 274 Q555 342 496 414 Q360 580 360 840 Q360 1143 555 1346 Q769 1569 1100 1569 Q1432 1569 1645 1346 Q1840 1143 1840 840 Q1840 580 1705 414 Q1646 342 1539 274 L1870 274 L1870 0 L1209 0 L1209 265 L1209 265 Q1345 358 1395 428 Q1500 575 1500 821 Q1500 1047 1381 1176 Q1272 1293 1100 1293 Q928 1293 819 1176 Q700 1046 700 821 Q700 555 823 406 Q871 347 992 265 Z M67 819 L-5 1327 L-5 1544 L333 1544 L333 1327 L262 819 L67 819 Z " />
<glyph glyph-name="iotadieresistonos" unicode="&#x390;" horiz-adv-x="588" d="M137 0 L137 1081 L449 1081 L449 0 L137 0 Z M436 1929 L436 1701 L351 1478 L229 1478 L149 1701 L149 1929 L436 1929 Z M-99 1278 L-99 1544 L167 1544 L167 1278 L-99 1278 Z M417 1278 L417 1544 L683 1544 L683 1278 L417 1278 Z " />
<glyph glyph-name="Alpha" unicode="&#x391;" horiz-adv-x="1554" d="M0 0 L569 1544 L985 1544 L1554 0 L1200 0 L1083 326 L444 326 L326 0 L0 0 Z M539 590 L987 590 L764 1251 L539 590 Z " />
<glyph glyph-name="Beta" unicode="&#x392;" horiz-adv-x="1542" d="M147 0 L147 1544 L889 1544 Q1112 1544 1242 1461 Q1405 1358 1405 1152 Q1405 917 1206 821 Q1454 722 1454 464 Q1454 0 817 0 L147 0 Z M475 262 L823 262 Q994 262 1062 319 Q1118 366 1118 470 Q1118 595 1029 641 Q961 676 823 676 L475 676 L475 262 Z M475 936 L827 936 Q959 936 1015 978 Q1073 1020 1073 1110 Q1073 1219 984 1258 Q930 1282 827 1282 L475 1282 L475 936 Z " />
<glyph glyph-name="Gamma" unicode="&#x393;" horiz-adv-x="1298" d="M147 1544 L1268 1544 L1268 1270 L481 1270 L481 0 L147 0 L147 1544 Z " />
<glyph glyph-name="uni0394" unicode="&#x394;" horiz-adv-x="1554" d="M0 0 L569 1544 L985 1544 L1554 0 L0 0 Z M422 274 L1105 274 L764 1251 L422 274 Z " />
<glyph glyph-name="Epsilon" unicode="&#x395;" horiz-adv-x="1399" d="M147 0 L147 1544 L1290 1544 L1290 1270 L481 1270 L481 924 L1245 924 L1245 649 L481 649 L481 274 L1325 274 L1325 0 L147 0 Z " />
<glyph glyph-name="Zeta" unicode="&#x396;" horiz-adv-x="1376" d="M70 0 L70 258 L907 1270 L100 1270 L100 1544 L1298 1544 L1298 1286 L461 274 L1315 274 L1315 0 L70 0 Z " />
<glyph glyph-name="Eta" unicode="&#x397;" horiz-adv-x="1606" d="M147 0 L147 1544 L481 1544 L481 950 L1124 950 L1124 1544 L1458 1544 L1458 0 L1124 0 L1124 676 L481 676 L481 0 L147 0 Z " />
<glyph glyph-name="Theta" unicode="&#x398;" horiz-adv-x="1690" d="M544 621 L544 860 L1145 860 L1145 621 L544 621 Z M844 1581 Q1199 1581 1398 1365 Q1597 1149 1597 770 Q1597 393 1398 179 Q1198 -37 848 -37 Q526 -37 329 141 Q92 354 92 770 Q92 1151 290 1365 Q490 1581 844 1581 Z M844 1305 Q649 1305 538 1158 Q432 1016 432 771 Q432 527 538 386 Q648 240 841 240 Q1019 240 1127 360 Q1257 503 1257 771 Q1257 1016 1149 1158 Q1037 1305 844 1305 Z " />
<glyph glyph-name="Iota" unicode="&#x399;" horiz-adv-x="629" d="M147 0 L147 1544 L481 1544 L481 0 L147 0 Z " />
<glyph glyph-name="Kappa" unicode="&#x39a;" horiz-adv-x="1497" d="M147 0 L147 1544 L481 1544 L481 928 L1079 1544 L1468 1544 L885 944 L1518 0 L1122 0 L655 719 L481 541 L481 0 L147 0 Z " />
<glyph glyph-name="Lambda" unicode="&#x39b;" horiz-adv-x="1554" d="M326 0 L0 0 L569 1544 L985 1544 L1554 0 L1200 0 L764 1251 L326 0 Z " />
<glyph glyph-name="Mu" unicode="&#x39c;" horiz-adv-x="1927" d="M147 0 L147 1544 L594 1544 L971 397 L1343 1544 L1780 1544 L1780 0 L1464 0 L1464 1100 L1100 0 L827 0 L461 1100 L461 0 L147 0 Z " />
<glyph glyph-name="Nu" unicode="&#x39d;" horiz-adv-x="1583" d="M147 0 L147 1544 L479 1544 L1122 502 L1122 1544 L1436 1544 L1436 0 L1104 0 L461 1042 L461 0 L147 0 Z " />
<glyph glyph-name="Xi" unicode="&#x39e;" horiz-adv-x="1472" d="M147 274 L1325 274 L1325 0 L147 0 L147 274 Z M1157 924 L1157 649 L278 649 L278 924 L1157 924 Z M147 1544 L1290 1544 L1290 1270 L147 1270 L147 1544 Z " />
<glyph glyph-name="Omicron" unicode="&#x39f;" horiz-adv-x="1690" d="M844 1581 Q1199 1581 1398 1365 Q1597 1149 1597 770 Q1597 393 1398 179 Q1198 -37 848 -37 Q526 -37 329 141 Q92 354 92 770 Q92 1151 290 1365 Q490 1581 844 1581 Z M844 1305 Q649 1305 538 1158 Q432 1016 432 771 Q432 527 538 386 Q648 240 841 240 Q1019 240 1127 360 Q1257 503 1257 771 Q1257 1016 1149 1158 Q1037 1305 844 1305 Z " />
<glyph glyph-name="Pi" unicode="&#x3a0;" horiz-adv-x="1583" d="M147 1544 L1436 1544 L1436 0 L1102 0 L1102 1270 L481 1270 L481 0 L147 0 L147 1544 Z " />
<glyph glyph-name="Rho" unicode="&#x3a1;" horiz-adv-x="1458" d="M147 0 L147 1544 L872 1544 Q1119 1544 1258 1414 Q1397 1282 1397 1055 Q1397 825 1237 688 Q1084 557 831 557 L477 557 L477 0 L147 0 Z M477 819 L797 819 Q910 819 981 881 Q1055 947 1055 1056 Q1055 1164 987 1223 Q919 1282 801 1282 L477 1282 L477 819 Z " />
<glyph glyph-name="Sigma" unicode="&#x3a3;" horiz-adv-x="1399" d="M147 0 L147 274 L542 784 L147 1270 L147 1544 L1290 1544 L1290 1270 L481 1270 L910 784 L481 274 L1325 274 L1325 0 L147 0 Z " />
<glyph glyph-name="Tau" unicode="&#x3a4;" horiz-adv-x="1436" d="M551 0 L551 1270 L31 1270 L31 1544 L1405 1544 L1405 1270 L885 1270 L885 0 L551 0 Z " />
<glyph glyph-name="Upsilon" unicode="&#x3a5;" horiz-adv-x="1423" d="M545 0 L545 618 L0 1544 L352 1544 L725 895 L1092 1544 L1423 1544 L879 618 L879 0 L545 0 Z " />
<glyph glyph-name="Phi" unicode="&#x3a6;" horiz-adv-x="1757" d="M713 0 L713 181 Q523 200 399 260 Q245 335 160 495 Q93 622 93 772 Q93 998 238 1161 Q368 1308 609 1350 Q646 1357 713 1363 L713 1544 L1047 1544 L1047 1363 Q1246 1344 1376 1278 Q1526 1202 1603 1046 Q1664 923 1664 772 Q1664 544 1530 388 Q1402 238 1156 195 Q1118 188 1047 181 L1047 0 L713 0 Z M713 1088 Q607 1073 542 1032 Q406 946 406 774 Q406 599 548 510 Q613 469 713 453 L713 1088 Z M1047 453 Q1159 471 1228 524 Q1351 619 1351 781 Q1351 883 1297 962 Q1240 1046 1128 1074 Q1101 1081 1047 1087 L1047 453 Z " />
<glyph glyph-name="Chi" unicode="&#x3a7;" horiz-adv-x="1448" d="M0 0 L537 784 L43 1544 L424 1544 L737 1059 L1061 1544 L1407 1544 L911 811 L1448 0 L1051 0 L713 530 L362 0 L0 0 Z " />
<glyph glyph-name="Psi" unicode="&#x3a8;" horiz-adv-x="1673" d="M669 0 L669 275 Q412 289 251 445 Q133 558 105 778 Q93 873 93 1083 L93 1544 L427 1544 L427 1083 Q427 858 437 780 Q457 622 575 569 Q614 552 669 551 L669 1544 L1003 1544 L1003 551 Q1127 552 1196 654 Q1235 713 1243 855 Q1246 913 1246 1083 L1246 1544 L1580 1544 L1580 1083 Q1580 788 1545 660 Q1493 471 1318 365 Q1184 285 1003 275 L1003 0 L669 0 Z " />
<glyph glyph-name="uni03A9" unicode="&#x3a9;" horiz-adv-x="1666" d="M725 265 L725 0 L63 0 L63 274 L395 274 Q288 342 229 414 Q93 580 93 840 Q93 1143 288 1346 Q502 1569 833 1569 Q1165 1569 1378 1346 Q1573 1143 1573 840 Q1573 580 1438 414 Q1379 342 1272 274 L1603 274 L1603 0 L942 0 L942 265 L942 265 Q1078 358 1128 428 Q1233 575 1233 821 Q1233 1047 1114 1176 Q1005 1293 833 1293 Q661 1293 552 1176 Q433 1046 433 821 Q433 555 556 406 Q604 347 725 265 Z " />
<glyph glyph-name="Iotadieresis" unicode="&#x3aa;" horiz-adv-x="629" d="M147 0 L147 1544 L481 1544 L481 0 L147 0 Z M-75 1661 L-75 1927 L191 1927 L191 1661 L-75 1661 Z M441 1661 L441 1927 L707 1927 L707 1661 L441 1661 Z " />
<glyph glyph-name="Upsilondieresis" unicode="&#x3ab;" horiz-adv-x="1423" d="M545 0 L545 618 L0 1544 L352 1544 L725 895 L1092 1544 L1423 1544 L879 618 L879 0 L545 0 Z M331 1661 L331 1927 L597 1927 L597 1661 L331 1661 Z M847 1661 L847 1927 L1113 1927 L1113 1661 L847 1661 Z " />
<glyph glyph-name="alphatonos" unicode="&#x3ac;" horiz-adv-x="1455" d="M1181 557 L1455 -2 L1122 -2 L1011 286 Q956 174 897 104 Q768 -49 577 -49 Q448 -49 336 19 Q211 95 146 226 Q76 367 76 531 Q76 687 140 825 Q205 964 332 1044 Q448 1118 583 1118 Q762 1118 893 995 Q952 941 1010 839 L1095 1099 L1412 1099 L1181 557 Z M900 557 Q861 669 820 739 Q738 880 621 880 Q509 880 441 767 Q390 681 390 541 Q390 369 463 277 Q531 192 617 192 Q700 192 772 276 Q819 330 870 471 Q876 487 900 557 Z M787 1686 L787 1458 L695 1235 L562 1235 L475 1458 L475 1686 L787 1686 Z " />
<glyph glyph-name="epsilontonos" unicode="&#x3ad;" horiz-adv-x="1153" d="M725 638 L725 456 Q586 454 547 449 Q441 437 404 381 Q386 355 386 324 Q386 281 414 256 Q473 203 598 203 Q717 203 778 257 Q808 284 831 343 L1108 272 Q1062 155 986 86 Q898 9 790 -16 Q700 -36 593 -36 Q359 -36 219 57 Q76 152 76 306 Q76 439 182 515 Q221 542 297 565 Q114 670 114 822 Q114 918 190 993 Q318 1118 594 1118 Q865 1118 994 1000 Q1052 947 1095 838 L815 769 Q796 821 760 843 Q703 878 607 878 Q502 878 451 834 Q424 811 424 769 Q424 703 499 667 Q556 639 725 638 Z M759 1686 L759 1458 L667 1235 L534 1235 L447 1458 L447 1686 L759 1686 Z " />
<glyph glyph-name="etatonos" unicode="&#x3ae;" horiz-adv-x="1278" d="M127 0 L127 1081 L426 1081 L442 928 Q552 1118 791 1118 Q1005 1118 1094 972 Q1151 877 1151 719 L1151 -393 L840 -393 L840 676 Q840 872 667 872 Q565 872 504 791 Q438 705 438 553 L438 0 L127 0 Z M795 1686 L795 1458 L703 1235 L570 1235 L483 1458 L483 1686 L795 1686 Z " />
<glyph glyph-name="iotatonos" unicode="&#x3af;" horiz-adv-x="588" d="M137 0 L137 1081 L449 1081 L449 0 L137 0 Z M449 1686 L449 1458 L357 1235 L224 1235 L137 1458 L137 1686 L449 1686 Z " />
<glyph glyph-name="upsilondieresistonos" unicode="&#x3b0;" horiz-adv-x="1224" d="M786 1081 L1097 1081 L1097 344 Q1097 175 983 74 Q858 -37 612 -37 Q355 -37 230 84 Q127 184 127 344 L127 1081 L438 1081 L438 416 Q438 316 474 270 Q516 215 612 215 Q708 215 750 270 Q786 316 786 416 L786 1081 Z M756 1929 L756 1701 L671 1478 L549 1478 L469 1701 L469 1929 L756 1929 Z M221 1278 L221 1544 L487 1544 L487 1278 L221 1278 Z M737 1278 L737 1544 L1003 1544 L1003 1278 L737 1278 Z " />
<glyph glyph-name="alpha" unicode="&#x3b1;" horiz-adv-x="1455" d="M1181 557 L1455 -2 L1122 -2 L1011 286 Q956 174 897 104 Q768 -49 577 -49 Q448 -49 336 19 Q211 95 146 226 Q76 367 76 531 Q76 687 140 825 Q205 964 332 1044 Q448 1118 583 1118 Q762 1118 893 995 Q952 941 1010 839 L1095 1099 L1412 1099 L1181 557 Z M900 557 Q861 669 820 739 Q738 880 621 880 Q509 880 441 767 Q390 681 390 541 Q390 369 463 277 Q531 192 617 192 Q700 192 772 276 Q819 330 870 471 Q876 487 900 557 Z " />
<glyph glyph-name="beta" unicode="&#x3b2;" horiz-adv-x="1279" d="M127 -393 L127 1015 Q127 1201 157 1286 Q208 1434 365 1509 Q487 1568 637 1568 Q854 1568 982 1447 Q1104 1331 1104 1168 Q1104 1020 1002 916 Q973 886 912 848 Q1034 806 1091 749 Q1154 687 1184 581 Q1203 512 1203 439 Q1203 202 1032 59 Q904 -49 724 -49 Q593 -49 503 8 Q476 25 438 61 L438 -393 L127 -393 Z M438 292 Q531 185 649 185 Q764 185 834 276 Q892 351 892 463 Q892 676 705 736 Q651 753 599 753 Q586 753 570 753 L570 940 Q661 943 706 970 Q749 995 773 1051 Q793 1100 793 1154 Q793 1241 744 1288 Q697 1332 625 1332 Q549 1332 498 1286 Q456 1247 444 1180 Q438 1141 438 1044 L438 292 Z " />
<glyph glyph-name="gamma" unicode="&#x3b3;" horiz-adv-x="1202" d="M788 -10 L788 -393 L471 -393 L471 -10 L0 1081 L336 1081 L618 334 L881 1081 L1202 1081 L788 -10 Z " />
<glyph glyph-name="delta" unicode="&#x3b4;" horiz-adv-x="1293" d="M549 1113 L233 1346 L233 1544 L1079 1544 L1079 1305 L644 1305 L935 1093 Q1102 972 1163 843 Q1217 728 1217 550 Q1217 286 1079 134 Q924 -37 645 -37 Q390 -37 239 105 Q76 259 76 539 Q76 834 254 989 Q373 1092 549 1113 Z M642 879 Q524 879 455 786 Q387 695 387 539 Q387 384 455 294 Q524 203 643 203 Q758 203 828 285 Q903 373 903 544 Q903 718 812 813 Q749 879 642 879 Z " />
<glyph glyph-name="epsilon" unicode="&#x3b5;" horiz-adv-x="1153" d="M725 638 L725 456 Q586 454 547 449 Q441 437 404 381 Q386 355 386 324 Q386 281 414 256 Q473 203 598 203 Q717 203 778 257 Q808 284 831 343 L1108 272 Q1062 155 986 86 Q898 9 790 -16 Q700 -36 593 -36 Q359 -36 219 57 Q76 152 76 306 Q76 439 182 515 Q221 542 297 565 Q114 670 114 822 Q114 918 190 993 Q318 1118 594 1118 Q865 1118 994 1000 Q1052 947 1095 838 L815 769 Q796 821 760 843 Q703 878 607 878 Q502 878 451 834 Q424 811 424 769 Q424 703 499 667 Q556 639 725 638 Z " />
<glyph glyph-name="zeta" unicode="&#x3b6;" horiz-adv-x="1035" d="M173 1270 L173 1544 L979 1544 L979 1313 Q810 1231 720 1151 Q533 987 440 772 Q387 647 387 532 Q387 413 455 365 Q488 342 558 331 Q581 328 668 320 L748 313 Q876 301 940 251 Q1034 177 1034 17 Q1034 -91 977 -253 Q960 -302 924 -393 L614 -393 Q725 -149 725 -53 Q725 7 694 28 Q670 44 613 49 L534 56 Q363 70 269 116 Q173 164 125 268 Q76 375 76 503 Q76 748 232 984 Q313 1107 407 1190 Q439 1218 509 1270 L173 1270 Z " />
<glyph glyph-name="eta" unicode="&#x3b7;" horiz-adv-x="1278" d="M127 0 L127 1081 L426 1081 L442 928 Q552 1118 791 1118 Q1005 1118 1094 972 Q1151 877 1151 719 L1151 -393 L840 -393 L840 676 Q840 872 667 872 Q565 872 504 791 Q438 705 438 553 L438 0 L127 0 Z " />
<glyph glyph-name="theta" unicode="&#x3b8;" horiz-adv-x="1288" d="M643 1544 Q1212 1544 1212 754 Q1212 -37 645 -37 Q76 -37 76 754 Q76 1544 643 1544 Z M895 889 Q881 1060 840 1153 Q777 1298 641 1298 Q496 1298 437 1138 Q407 1057 394 889 L895 889 Z M391 649 L392 642 Q403 453 445 354 Q506 209 641 209 Q766 209 832 336 Q883 433 895 642 L896 649 L391 649 Z " />
<glyph glyph-name="iota" unicode="&#x3b9;" horiz-adv-x="588" d="M137 0 L137 1081 L449 1081 L449 0 L137 0 Z " />
<glyph glyph-name="kappa" unicode="&#x3ba;" horiz-adv-x="1202" d="M127 0 L127 1081 L438 1081 L438 733 L809 1081 L1194 1081 L801 713 L1219 0 L862 0 L571 518 L438 391 L438 0 L127 0 Z " />
<glyph glyph-name="lambda" unicode="&#x3bb;" horiz-adv-x="1202" d="M414 1091 L218 1544 L535 1544 L1202 0 L866 0 L584 747 L321 0 L0 0 L414 1091 Z " />
<glyph glyph-name="uni03BC" unicode="&#x3bc;" horiz-adv-x="1278" d="M127 -393 L127 1081 L438 1081 L438 416 Q438 316 474 270 Q516 215 608 215 Q724 215 786 308 Q840 390 840 528 L840 1081 L1151 1081 L1151 0 L852 0 L838 154 Q727 -37 494 -37 Q468 -37 438 -34 L438 -393 L127 -393 Z " />
<glyph glyph-name="nu" unicode="&#x3bd;" horiz-adv-x="1124" d="M387 0 L0 1081 L332 1081 L567 291 L803 1081 L1124 1081 L739 0 L387 0 Z " />
<glyph glyph-name="xi" unicode="&#x3be;" horiz-adv-x="1046" d="M927 -393 L616 -393 Q729 -149 729 -53 Q729 7 698 28 Q673 44 616 49 L537 56 Q361 71 272 116 Q183 162 128 268 Q80 360 80 463 Q80 642 208 746 Q275 800 401 839 Q321 868 279 901 Q185 976 185 1102 Q185 1198 247 1270 L123 1270 L123 1544 L966 1544 L966 1270 L764 1270 Q641 1270 580 1244 Q496 1209 496 1128 Q496 1061 551 1010 Q615 951 778 951 L910 951 L910 706 L773 706 Q606 706 528 677 Q466 653 426 596 Q388 543 392 489 Q395 444 424 400 Q452 359 517 341 Q555 330 671 320 L751 313 Q880 301 944 251 Q1038 177 1038 17 Q1038 -91 981 -253 Q962 -306 927 -393 Z " />
<glyph glyph-name="omicron" unicode="&#x3bf;" horiz-adv-x="1292" d="M644 1118 Q925 1118 1079 947 Q1217 793 1217 539 Q1217 286 1079 134 Q924 -37 649 -37 Q390 -37 239 105 Q76 259 76 539 Q76 795 211 947 Q364 1118 644 1118 Z M642 879 Q524 879 455 786 Q387 695 387 539 Q387 384 455 294 Q524 203 643 203 Q758 203 828 285 Q903 373 903 544 Q903 718 812 813 Q749 879 642 879 Z " />
<glyph glyph-name="rho" unicode="&#x3c1;" horiz-adv-x="1292" d="M387 10 L387 -393 L76 -393 L76 554 Q76 767 186 915 Q336 1118 644 1118 Q925 1118 1079 947 Q1217 793 1217 539 Q1217 286 1079 134 Q924 -37 645 -37 Q500 -37 387 10 Z M642 879 Q524 879 455 786 Q387 695 387 539 Q387 384 455 294 Q524 203 643 203 Q758 203 828 285 Q903 373 903 544 Q903 718 812 813 Q749 879 642 879 Z " />
<glyph glyph-name="sigma1" unicode="&#x3c2;" horiz-adv-x="1178" d="M1125 760 L835 688 Q780 877 623 877 Q502 877 441 776 Q388 689 388 541 Q388 413 457 365 Q490 342 560 331 Q582 328 669 320 L749 313 Q878 301 942 251 Q1036 177 1036 17 Q1036 -91 979 -253 Q962 -298 926 -393 L615 -393 Q727 -149 727 -53 Q727 7 696 28 Q672 44 614 49 L535 56 Q365 70 270 116 Q171 165 126 268 Q77 382 77 528 Q77 785 208 942 Q354 1118 627 1118 Q902 1118 1028 967 Q1095 886 1125 760 Z " />
<glyph glyph-name="sigma" unicode="&#x3c3;" horiz-adv-x="1292" d="M1137 867 Q1217 724 1217 539 Q1217 286 1079 134 Q924 -37 645 -37 Q390 -37 239 105 Q76 259 76 539 Q76 795 211 947 Q363 1118 645 1118 Q721 1118 785 1106 L1289 1106 L1289 867 L1137 867 Z M642 879 Q524 879 455 786 Q387 695 387 539 Q387 384 455 294 Q524 203 643 203 Q758 203 828 285 Q903 373 903 544 Q903 718 812 813 Q749 879 642 879 Z " />
<glyph glyph-name="tau" unicode="&#x3c4;" horiz-adv-x="1053" d="M371 0 L371 842 L32 842 L32 1081 L1022 1081 L1022 842 L682 842 L682 0 L371 0 Z " />
<glyph glyph-name="upsilon" unicode="&#x3c5;" horiz-adv-x="1224" d="M786 1081 L1097 1081 L1097 344 Q1097 175 983 74 Q858 -37 612 -37 Q355 -37 230 84 Q127 184 127 344 L127 1081 L438 1081 L438 416 Q438 316 474 270 Q516 215 612 215 Q708 215 750 270 Q786 316 786 416 L786 1081 Z " />
<glyph glyph-name="phi" unicode="&#x3c6;" horiz-adv-x="1553" d="M612 1110 Q691 1118 770 1118 Q1070 1118 1244 1007 Q1381 920 1437 763 Q1476 654 1476 531 Q1476 193 1234 47 Q1115 -24 923 -38 L923 -393 L612 -393 L612 -38 Q433 -23 318 47 Q76 194 76 529 Q76 843 298 996 Q381 1053 495 1080 L495 886 Q472 865 459 844 Q387 728 387 557 Q387 381 469 280 Q524 212 612 201 L612 1110 Z M923 201 Q1026 211 1082 276 Q1165 370 1165 534 Q1165 703 1082 806 Q1026 875 923 886 L923 201 Z " />
<glyph glyph-name="chi" unicode="&#x3c7;" horiz-adv-x="1272" d="M-39 -393 L447 355 L0 1081 L345 1081 L628 618 L922 1081 L1235 1081 L786 381 L1272 -393 L913 -393 L607 113 L289 -393 L-39 -393 Z " />
<glyph glyph-name="psi" unicode="&#x3c8;" horiz-adv-x="1614" d="M651 -393 L651 -38 Q499 -32 401 13 Q233 90 164 240 Q127 321 127 491 L127 1081 L438 1081 L438 506 Q438 385 459 328 Q493 234 584 210 Q608 203 651 201 L651 1081 L962 1081 L962 201 Q1049 205 1097 243 Q1144 282 1163 353 Q1176 404 1176 506 L1176 1081 L1487 1081 L1487 491 Q1487 321 1449 239 Q1380 89 1211 13 Q1113 -31 962 -38 L962 -393 L651 -393 Z " />
<glyph glyph-name="omega" unicode="&#x3c9;" horiz-adv-x="1683" d="M841 165 Q796 92 738 47 Q630 -36 503 -36 Q327 -36 207 93 Q76 234 76 492 Q76 824 297 1081 L631 1081 Q387 816 387 494 Q387 311 463 236 Q494 206 543 206 Q610 206 649 262 Q686 317 686 475 L686 812 L997 812 L997 475 Q997 318 1034 263 Q1073 207 1138 207 Q1189 207 1220 237 Q1296 312 1296 495 Q1296 816 1052 1081 L1386 1081 Q1607 824 1607 491 Q1607 236 1478 95 Q1357 -36 1180 -36 Q1053 -36 945 47 Q887 92 841 165 Z " />
<glyph glyph-name="iotadieresis" unicode="&#x3ca;" horiz-adv-x="588" d="M137 0 L137 1081 L449 1081 L449 0 L137 0 Z M-98 1278 L-98 1544 L168 1544 L168 1278 L-98 1278 Z M418 1278 L418 1544 L684 1544 L684 1278 L418 1278 Z " />
<glyph glyph-name="upsilondieresis" unicode="&#x3cb;" horiz-adv-x="1224" d="M786 1081 L1097 1081 L1097 344 Q1097 175 983 74 Q858 -37 612 -37 Q355 -37 230 84 Q127 184 127 344 L127 1081 L438 1081 L438 416 Q438 316 474 270 Q516 215 612 215 Q708 215 750 270 Q786 316 786 416 L786 1081 Z M223 1278 L223 1544 L489 1544 L489 1278 L223 1278 Z M739 1278 L739 1544 L1005 1544 L1005 1278 L739 1278 Z " />
<glyph glyph-name="omicrontonos" unicode="&#x3cc;" horiz-adv-x="1292" d="M644 1118 Q925 1118 1079 947 Q1217 793 1217 539 Q1217 286 1079 134 Q924 -37 649 -37 Q390 -37 239 105 Q76 259 76 539 Q76 795 211 947 Q364 1118 644 1118 Z M642 879 Q524 879 455 786 Q387 695 387 539 Q387 384 455 294 Q524 203 643 203 Q758 203 828 285 Q903 373 903 544 Q903 718 812 813 Q749 879 642 879 Z M804 1686 L804 1458 L712 1235 L579 1235 L492 1458 L492 1686 L804 1686 Z " />
<glyph glyph-name="upsilontonos" unicode="&#x3cd;" horiz-adv-x="1224" d="M786 1081 L1097 1081 L1097 344 Q1097 175 983 74 Q858 -37 612 -37 Q355 -37 230 84 Q127 184 127 344 L127 1081 L438 1081 L438 416 Q438 316 474 270 Q516 215 612 215 Q708 215 750 270 Q786 316 786 416 L786 1081 Z M771 1686 L771 1458 L679 1235 L546 1235 L459 1458 L459 1686 L771 1686 Z " />
<glyph glyph-name="omegatonos" unicode="&#x3ce;" horiz-adv-x="1683" d="M841 165 Q796 92 738 47 Q630 -36 503 -36 Q327 -36 207 93 Q76 234 76 492 Q76 824 297 1081 L631 1081 Q387 816 387 494 Q387 311 463 236 Q494 206 543 206 Q610 206 649 262 Q686 317 686 475 L686 812 L997 812 L997 475 Q997 318 1034 263 Q1073 207 1138 207 Q1189 207 1220 237 Q1296 312 1296 495 Q1296 816 1052 1081 L1386 1081 Q1607 824 1607 491 Q1607 236 1478 95 Q1357 -36 1180 -36 Q1053 -36 945 47 Q887 92 841 165 Z M1001 1686 L1001 1458 L909 1235 L776 1235 L689 1458 L689 1686 L1001 1686 Z " />
<glyph glyph-name="theta1" unicode="&#x3d1;" horiz-adv-x="1284" d="M32 664 L405 664 Q409 538 418 454 Q430 334 487 280 Q543 226 621 226 Q775 226 820 431 Q841 528 840 704 Q551 724 395 805 Q253 879 193 999 Q153 1080 153 1169 Q153 1310 242 1412 Q311 1491 423 1531 Q512 1563 613 1563 Q917 1563 1068 1278 Q1137 1147 1156 934 Q1191 937 1244 944 L1244 721 Q1229 718 1221 717 Q1191 710 1157 708 Q1153 414 1070 239 Q1000 90 855 19 Q741 -37 606 -37 Q336 -37 206 170 Q145 265 122 439 L32 439 L32 664 Z M840 925 Q840 928 839 943 Q833 1071 796 1165 Q766 1242 704 1277 Q652 1307 596 1307 Q545 1307 507 1272 Q463 1231 463 1167 Q463 1052 589 986 Q685 936 840 925 Z " />
<glyph glyph-name="phi1" unicode="&#x3d5;" horiz-adv-x="1569" d="M940 207 Q1043 218 1099 284 Q1182 382 1182 548 Q1182 712 1099 809 Q1042 875 940 886 L940 207 Z M629 886 Q526 875 470 809 Q387 712 387 548 Q387 382 470 284 Q526 218 629 207 L629 886 Z M629 -393 L629 -32 Q438 -18 318 55 Q76 204 76 549 Q76 867 298 1021 Q427 1110 629 1124 L629 1383 L940 1383 L940 1124 Q1143 1110 1271 1021 Q1493 867 1493 548 Q1493 204 1251 55 Q1131 -18 940 -32 L940 -393 L629 -393 Z " />
<glyph glyph-name="afii10023" unicode="&#x401;" horiz-adv-x="1399" d="M147 0 L147 1544 L1290 1544 L1290 1270 L481 1270 L481 924 L1245 924 L1245 649 L481 649 L481 274 L1325 274 L1325 0 L147 0 Z M328 1661 L328 1927 L594 1927 L594 1661 L328 1661 Z M844 1661 L844 1927 L1110 1927 L1110 1661 L844 1661 Z " />
<glyph glyph-name="afii10051" unicode="&#x402;" horiz-adv-x="1482" d="M311 1270 L12 1270 L12 1544 L311 1544 L311 1544 L622 1544 L622 1544 L1031 1544 L1031 1270 L622 1270 L622 936 Q736 1118 975 1118 Q1189 1118 1278 972 Q1335 877 1335 719 L1335 321 Q1335 175 1238 83 Q1151 0 992 0 L744 0 L744 266 L830 266 Q922 266 952 275 Q999 290 1015 329 Q1024 352 1024 401 L1024 676 Q1024 872 851 872 Q750 872 688 791 Q622 705 622 554 L622 0 L311 0 L311 1270 Z " />
<glyph glyph-name="afii10052" unicode="&#x403;" horiz-adv-x="1217" d="M147 0 L147 1544 L1175 1544 L1175 1270 L481 1270 L481 0 L147 0 Z M395 1658 L631 1930 L979 1930 L670 1658 L395 1658 Z " />
<glyph glyph-name="afii10053" unicode="&#x404;" horiz-adv-x="1583" d="M444 924 L1044 924 L1044 649 L437 649 Q478 242 821 242 Q1133 242 1182 596 L1520 553 Q1463 291 1325 150 Q1143 -37 818 -37 Q516 -37 329 129 Q92 339 92 760 Q92 1143 282 1359 Q477 1581 830 1581 Q1174 1581 1351 1373 Q1446 1260 1501 1075 L1169 999 Q1090 1305 817 1305 Q626 1305 527 1158 Q464 1065 444 924 Z " />
<glyph glyph-name="afii10054" unicode="&#x405;" horiz-adv-x="1485" d="M53 440 L377 518 Q408 385 474 320 Q565 229 751 229 Q1051 229 1051 424 Q1051 512 990 560 Q926 609 803 629 L616 659 Q379 697 259 788 Q106 905 106 1116 Q106 1343 288 1468 Q453 1581 727 1581 Q1035 1581 1199 1452 Q1326 1352 1384 1159 L1075 1065 Q1035 1187 965 1245 Q878 1317 720 1317 Q596 1317 522 1272 Q444 1223 444 1132 Q444 1057 491 1016 Q547 967 690 942 L948 897 Q1181 856 1284 754 Q1397 641 1397 442 Q1397 224 1236 97 Q1065 -37 749 -37 Q460 -37 298 66 Q119 178 53 440 Z " />
<glyph glyph-name="afii10055" unicode="&#x406;" horiz-adv-x="629" d="M147 0 L147 1544 L481 1544 L481 0 L147 0 Z " />
<glyph glyph-name="afii10056" unicode="&#x407;" horiz-adv-x="629" d="M147 0 L147 1544 L481 1544 L481 0 L147 0 Z M-77 1661 L-77 1927 L189 1927 L189 1661 L-77 1661 Z M439 1661 L439 1927 L705 1927 L705 1661 L439 1661 Z " />
<glyph glyph-name="afii10057" unicode="&#x408;" horiz-adv-x="1243" d="M43 469 L356 504 Q372 373 407 312 Q457 225 565 225 Q776 225 776 475 L776 1544 L1110 1544 L1110 500 Q1110 258 987 118 Q851 -37 573 -37 Q304 -37 171 108 Q61 229 43 469 Z " />
<glyph glyph-name="afii10058" unicode="&#x409;" horiz-adv-x="2435" d="M1418 936 L1806 936 Q1903 936 1999 913 Q2143 878 2244 753 Q2343 631 2343 458 Q2343 282 2240 166 Q2091 0 1706 0 L1084 0 L1084 1270 L610 1270 L610 1027 Q610 794 588 575 Q553 228 382 92 Q263 -4 107 -4 Q69 -4 12 0 L12 294 Q32 293 40 293 Q188 293 232 481 Q265 622 272 837 Q276 951 276 1084 L276 1544 L1418 1544 L1418 936 Z M1418 262 L1712 262 Q1883 262 1951 319 Q2007 366 2007 470 Q2007 595 1918 641 Q1850 676 1712 676 L1418 676 L1418 262 Z " />
<glyph glyph-name="afii10059" unicode="&#x40a;" horiz-adv-x="2475" d="M1458 1544 L1458 1544 L1458 936 L1846 936 Q1943 936 2039 913 Q2183 878 2284 753 Q2383 631 2383 458 Q2383 282 2280 166 Q2131 0 1746 0 L1124 0 L1124 676 L481 676 L481 0 L147 0 L147 1544 L481 1544 L481 936 L1124 936 L1124 1544 L1458 1544 L1458 1544 Z M1458 262 L1752 262 Q1923 262 1991 319 Q2047 366 2047 470 Q2047 595 1958 641 Q1890 676 1752 676 L1458 676 L1458 262 Z " />
<glyph glyph-name="afii10060" unicode="&#x40b;" horiz-adv-x="1482" d="M311 1270 L12 1270 L12 1544 L311 1544 L311 1544 L622 1544 L622 1544 L1031 1544 L1031 1270 L622 1270 L622 936 Q736 1118 975 1118 Q1189 1118 1278 972 Q1335 877 1335 719 L1335 0 L1024 0 L1024 676 Q1024 872 851 872 Q749 872 688 791 Q622 705 622 553 L622 0 L311 0 L311 1270 Z " />
<glyph glyph-name="afii10061" unicode="&#x40c;" horiz-adv-x="1328" d="M147 0 L147 1544 L481 1544 L481 966 L689 966 L892 1544 L1230 1544 L974 831 L1327 0 L974 0 L675 701 L481 701 L481 0 L147 0 Z M467 1658 L703 1930 L1051 1930 L742 1658 L467 1658 Z " />
<glyph glyph-name="afii10062" unicode="&#x40e;" horiz-adv-x="1277" d="M98 36 L148 261 Q223 242 292 242 Q426 242 479 373 L501 425 L0 1544 L357 1544 L657 778 L936 1544 L1277 1544 L790 303 Q739 173 668 103 Q566 0 388 0 L368 0 Q232 0 98 36 Z M278 1935 L499 1935 Q504 1901 533 1872 Q580 1827 659 1827 Q799 1827 815 1935 L1036 1935 Q1031 1817 950 1741 Q845 1643 656 1643 Q486 1643 383 1725 Q285 1803 278 1935 Z " />
<glyph glyph-name="afii10145" unicode="&#x40f;" horiz-adv-x="1583" d="M959 0 L959 -336 L625 -336 L625 0 L147 0 L147 1544 L481 1544 L481 274 L1102 274 L1102 1544 L1436 1544 L1436 0 L959 0 Z " />
<glyph glyph-name="afii10017" unicode="&#x410;" horiz-adv-x="1554" d="M0 0 L569 1544 L985 1544 L1554 0 L1200 0 L1083 326 L444 326 L326 0 L0 0 Z M539 590 L987 590 L764 1251 L539 590 Z " />
<glyph glyph-name="afii10018" unicode="&#x411;" horiz-adv-x="1548" d="M147 0 L147 1544 L1250 1544 L1250 1270 L481 1270 L481 936 L924 936 Q1021 936 1116 913 Q1261 878 1362 753 Q1461 631 1461 458 Q1461 282 1358 166 Q1209 0 823 0 L147 0 Z M481 262 L829 262 Q1001 262 1069 319 Q1125 366 1125 470 Q1125 595 1035 641 Q968 676 829 676 L481 676 L481 262 Z " />
<glyph glyph-name="afii10019" unicode="&#x412;" horiz-adv-x="1542" d="M147 0 L147 1544 L889 1544 Q1112 1544 1242 1461 Q1405 1358 1405 1152 Q1405 917 1206 821 Q1454 722 1454 464 Q1454 0 817 0 L147 0 Z M475 262 L823 262 Q994 262 1062 319 Q1118 366 1118 470 Q1118 595 1029 641 Q961 676 823 676 L475 676 L475 262 Z M475 936 L827 936 Q959 936 1015 978 Q1073 1020 1073 1110 Q1073 1219 984 1258 Q930 1282 827 1282 L475 1282 L475 936 Z " />
<glyph glyph-name="afii10020" unicode="&#x413;" horiz-adv-x="1217" d="M147 0 L147 1544 L1175 1544 L1175 1270 L481 1270 L481 0 L147 0 Z " />
<glyph glyph-name="afii10021" unicode="&#x414;" horiz-adv-x="1673" d="M12 -336 L12 270 Q84 270 121 285 Q224 328 287 483 Q357 654 372 870 Q379 968 379 1145 L379 1544 L1522 1544 L1522 270 L1654 270 L1654 -336 L1320 -336 L1320 0 L346 0 L346 -336 L12 -336 Z M1188 274 L1188 1270 L713 1270 L713 1088 Q713 825 679 649 Q641 453 551 274 L1188 274 Z " />
<glyph glyph-name="afii10022" unicode="&#x415;" horiz-adv-x="1399" d="M147 0 L147 1544 L1290 1544 L1290 1270 L481 1270 L481 924 L1245 924 L1245 649 L481 649 L481 274 L1325 274 L1325 0 L147 0 Z " />
<glyph glyph-name="afii10024" unicode="&#x416;" horiz-adv-x="2194" d="M941 0 L941 701 L725 701 L426 0 L73 0 L426 831 L170 1544 L508 1544 L710 966 L941 966 L941 1544 L1275 1544 L1275 966 L1483 966 L1686 1544 L2024 1544 L1768 831 L2121 0 L1768 0 L1469 701 L1275 701 L1275 0 L941 0 Z " />
<glyph glyph-name="afii10025" unicode="&#x417;" horiz-adv-x="1356" d="M50 469 L375 506 Q385 207 653 207 Q775 207 846 263 Q917 318 917 424 Q917 561 792 614 Q718 646 570 649 L570 897 Q903 905 903 1116 Q903 1197 853 1247 Q791 1309 666 1309 Q422 1309 394 1057 L79 1096 Q111 1296 244 1412 Q394 1544 685 1544 Q876 1544 1018 1481 Q1146 1424 1198 1319 Q1243 1229 1243 1124 Q1243 955 1101 850 Q1034 801 941 770 Q1264 722 1264 421 Q1264 289 1205 198 Q1055 -37 656 -37 Q351 -37 194 115 Q53 251 50 469 Z " />
<glyph glyph-name="afii10026" unicode="&#x418;" horiz-adv-x="1583" d="M1436 0 L1122 0 L1122 1042 L479 0 L147 0 L147 1544 L461 1544 L461 502 L1104 1544 L1436 1544 L1436 0 Z " />
<glyph glyph-name="afii10027" unicode="&#x419;" horiz-adv-x="1583" d="M1436 0 L1122 0 L1122 1042 L479 0 L147 0 L147 1544 L461 1544 L461 502 L1104 1544 L1436 1544 L1436 0 Z M414 1935 L635 1935 Q640 1901 669 1872 Q716 1827 795 1827 Q935 1827 951 1935 L1172 1935 Q1167 1817 1086 1741 Q981 1643 792 1643 Q622 1643 519 1725 Q421 1803 414 1935 Z " />
<glyph glyph-name="afii10028" unicode="&#x41a;" horiz-adv-x="1328" d="M147 0 L147 1544 L481 1544 L481 966 L689 966 L892 1544 L1230 1544 L974 831 L1327 0 L974 0 L675 701 L481 701 L481 0 L147 0 Z " />
<glyph glyph-name="afii10029" unicode="&#x41b;" horiz-adv-x="1565" d="M12 294 Q32 293 40 293 Q188 293 232 481 Q265 622 272 837 Q276 951 276 1084 L276 1544 L1418 1544 L1418 0 L1084 0 L1084 1270 L610 1270 L610 1027 Q610 794 588 575 Q553 228 382 92 Q263 -4 107 -4 Q69 -4 12 0 L12 294 Z " />
<glyph glyph-name="afii10030" unicode="&#x41c;" horiz-adv-x="1927" d="M147 0 L147 1544 L594 1544 L971 397 L1343 1544 L1780 1544 L1780 0 L1464 0 L1464 1100 L1100 0 L827 0 L461 1100 L461 0 L147 0 Z " />
<glyph glyph-name="afii10031" unicode="&#x41d;" horiz-adv-x="1606" d="M147 0 L147 1544 L481 1544 L481 950 L1124 950 L1124 1544 L1458 1544 L1458 0 L1124 0 L1124 676 L481 676 L481 0 L147 0 Z " />
<glyph glyph-name="afii10032" unicode="&#x41e;" horiz-adv-x="1690" d="M844 1581 Q1199 1581 1398 1365 Q1597 1149 1597 770 Q1597 393 1398 179 Q1198 -37 848 -37 Q526 -37 329 141 Q92 354 92 770 Q92 1151 290 1365 Q490 1581 844 1581 Z M844 1305 Q649 1305 538 1158 Q432 1016 432 771 Q432 527 538 386 Q648 240 841 240 Q1019 240 1127 360 Q1257 503 1257 771 Q1257 1016 1149 1158 Q1037 1305 844 1305 Z " />
<glyph glyph-name="afii10033" unicode="&#x41f;" horiz-adv-x="1583" d="M481 1270 L481 0 L147 0 L147 1544 L1436 1544 L1436 0 L1102 0 L1102 1270 L481 1270 Z " />
<glyph glyph-name="afii10034" unicode="&#x420;" horiz-adv-x="1458" d="M147 0 L147 1544 L872 1544 Q1119 1544 1258 1414 Q1397 1282 1397 1055 Q1397 825 1237 688 Q1084 557 831 557 L477 557 L477 0 L147 0 Z M477 819 L797 819 Q910 819 981 881 Q1055 947 1055 1056 Q1055 1164 987 1223 Q919 1282 801 1282 L477 1282 L477 819 Z " />
<glyph glyph-name="afii10035" unicode="&#x421;" horiz-adv-x="1583" d="M1501 1075 L1169 999 Q1091 1305 817 1305 Q626 1305 527 1158 Q432 1018 432 755 Q432 242 821 242 Q1134 242 1182 596 L1520 553 Q1463 291 1325 150 Q1143 -37 818 -37 Q516 -37 329 129 Q92 339 92 760 Q92 1143 282 1359 Q477 1581 830 1581 Q1174 1581 1351 1373 Q1446 1260 1501 1075 Z " />
<glyph glyph-name="afii10036" unicode="&#x422;" horiz-adv-x="1436" d="M551 0 L551 1270 L31 1270 L31 1544 L1405 1544 L1405 1270 L885 1270 L885 0 L551 0 Z " />
<glyph glyph-name="afii10037" unicode="&#x423;" horiz-adv-x="1277" d="M98 36 L148 261 Q223 242 292 242 Q426 242 479 373 L501 425 L0 1544 L357 1544 L657 778 L936 1544 L1277 1544 L790 303 Q739 173 668 103 Q566 0 388 0 L368 0 Q232 0 98 36 Z " />
<glyph glyph-name="afii10038" unicode="&#x424;" horiz-adv-x="1830" d="M753 1054 Q676 1052 643 1048 Q561 1036 506 975 Q432 892 432 773 Q432 641 524 554 Q581 499 684 492 Q699 491 753 490 L753 1054 Z M1087 1054 L1087 490 Q1190 494 1225 505 Q1297 527 1347 603 Q1398 680 1398 773 Q1398 892 1324 975 Q1270 1036 1187 1047 Q1157 1051 1087 1054 Z M753 0 L753 215 L674 215 Q519 215 415 260 Q256 329 168 485 Q92 618 92 776 Q92 1035 279 1197 Q431 1329 647 1329 L753 1329 L753 1544 L1087 1544 L1087 1329 L1183 1329 Q1398 1329 1551 1197 Q1738 1034 1738 776 Q1738 592 1636 444 Q1534 296 1369 243 Q1281 215 1156 215 L1087 215 L1087 0 L753 0 Z " />
<glyph glyph-name="afii10039" unicode="&#x425;" horiz-adv-x="1448" d="M0 0 L537 784 L43 1544 L424 1544 L737 1059 L1061 1544 L1407 1544 L911 811 L1448 0 L1051 0 L713 530 L362 0 L0 0 Z " />
<glyph glyph-name="afii10040" unicode="&#x426;" horiz-adv-x="1583" d="M1436 270 L1568 270 L1568 -336 L1234 -336 L1234 0 L147 0 L147 1544 L481 1544 L481 274 L1102 274 L1102 1544 L1436 1544 L1436 270 Z " />
<glyph glyph-name="afii10041" unicode="&#x427;" horiz-adv-x="1566" d="M1085 0 L1085 513 Q1006 490 962 478 Q844 447 721 447 Q421 447 259 604 Q127 731 127 932 L127 1544 L461 1544 L461 932 Q461 844 528 799 Q601 750 725 750 Q870 750 1083 812 L1085 1544 L1419 1544 L1419 0 L1085 0 Z " />
<glyph glyph-name="afii10042" unicode="&#x428;" horiz-adv-x="2373" d="M147 0 L147 1544 L481 1544 L481 274 L1019 274 L1019 1544 L1353 1544 L1353 274 L1892 274 L1892 1544 L2226 1544 L2226 0 L147 0 Z " />
<glyph glyph-name="afii10043" unicode="&#x429;" horiz-adv-x="2373" d="M2226 270 L2358 270 L2358 -336 L2024 -336 L2024 0 L147 0 L147 1544 L481 1544 L481 274 L1019 274 L1019 1544 L1353 1544 L1353 274 L1892 274 L1892 1544 L2226 1544 L2226 270 Z " />
<glyph glyph-name="afii10044" unicode="&#x42a;" horiz-adv-x="1928" d="M577 1270 L18 1270 L18 1544 L911 1544 L911 936 L1299 936 Q1396 936 1492 913 Q1636 878 1737 753 Q1836 631 1836 458 Q1836 282 1733 166 Q1584 0 1199 0 L577 0 L577 1270 Z M911 262 L1205 262 Q1376 262 1444 319 Q1500 366 1500 470 Q1500 595 1411 641 Q1343 676 1205 676 L911 676 L911 262 Z " />
<glyph glyph-name="afii10045" unicode="&#x42b;" horiz-adv-x="2027" d="M147 0 L147 1544 L481 1544 L481 936 L869 936 Q966 936 1062 913 Q1206 878 1307 753 Q1406 631 1406 458 Q1406 282 1303 166 Q1154 0 769 0 L147 0 Z M481 262 L775 262 Q946 262 1014 319 Q1070 366 1070 470 Q1070 595 981 641 Q913 676 775 676 L481 676 L481 262 Z M1546 0 L1546 1544 L1880 1544 L1880 0 L1546 0 Z " />
<glyph glyph-name="afii10046" unicode="&#x42c;" horiz-adv-x="1498" d="M147 0 L147 1544 L481 1544 L481 936 L869 936 Q966 936 1062 913 Q1206 878 1307 753 Q1406 631 1406 458 Q1406 282 1303 166 Q1154 0 769 0 L147 0 Z M481 262 L775 262 Q946 262 1014 319 Q1070 366 1070 470 Q1070 595 981 641 Q913 676 775 676 L481 676 L481 262 Z " />
<glyph glyph-name="afii10047" unicode="&#x42d;" horiz-adv-x="1583" d="M1139 924 Q1119 1065 1056 1158 Q957 1305 766 1305 Q492 1305 414 999 L82 1075 Q143 1283 258 1401 Q432 1581 753 1581 Q1106 1581 1300 1359 Q1491 1143 1491 760 Q1491 319 1232 111 Q1049 -37 765 -37 Q426 -37 242 166 Q117 305 63 553 L401 596 Q449 242 762 242 Q1105 242 1146 649 L539 649 L539 924 L1139 924 Z " />
<glyph glyph-name="afii10048" unicode="&#x42e;" horiz-adv-x="2467" d="M879 924 Q907 1162 1032 1323 Q1233 1581 1622 1581 Q1977 1581 2176 1365 Q2375 1149 2375 770 Q2375 393 2176 179 Q1976 -37 1622 -37 Q1268 -37 1067 179 Q943 313 896 521 Q880 592 875 649 L481 649 L481 0 L147 0 L147 1544 L481 1544 L481 924 L879 924 Z M1622 1305 Q1427 1305 1317 1158 Q1210 1017 1210 771 Q1210 527 1317 386 Q1427 240 1619 240 Q1797 240 1905 360 Q2035 503 2035 771 Q2035 1016 1927 1158 Q1815 1305 1622 1305 Z " />
<glyph glyph-name="afii10049" unicode="&#x42f;" horiz-adv-x="1528" d="M1381 0 L1051 0 L1051 602 L719 602 L438 0 L64 0 L395 657 Q123 783 123 1071 Q123 1273 227 1391 Q360 1544 643 1544 L1381 1544 L1381 0 Z M1051 862 L1051 1282 L729 1282 Q596 1282 531 1235 Q465 1187 465 1077 Q465 862 729 862 L1051 862 Z " />
<glyph glyph-name="afii10065" unicode="&#x430;" horiz-adv-x="1186" d="M770 698 L770 745 Q770 897 588 897 Q484 897 429 846 Q399 817 375 764 L111 836 Q140 939 232 1011 Q368 1118 607 1118 Q863 1118 975 1013 Q1073 922 1073 743 L1073 233 Q1073 104 1116 0 L831 0 Q812 62 809 111 Q721 31 649 0 Q562 -37 435 -37 Q272 -37 174 44 Q68 132 68 293 Q68 485 207 573 Q291 627 467 653 L770 698 Z M770 502 L551 469 Q367 441 367 304 Q367 246 403 212 Q443 174 516 174 Q618 174 691 225 Q770 280 770 377 L770 502 Z " />
<glyph glyph-name="afii10066" unicode="&#x431;" horiz-adv-x="1325" d="M402 1052 Q496 1118 655 1118 Q915 1118 1067 976 Q1233 820 1233 539 Q1233 287 1095 134 Q940 -37 662 -37 Q406 -37 255 105 Q174 182 132 296 Q92 407 92 579 Q92 1030 278 1252 Q376 1368 523 1405 Q578 1419 704 1433 Q820 1447 851 1483 Q866 1501 870 1544 L1179 1544 Q1170 1408 1134 1343 Q1083 1252 976 1217 Q930 1203 788 1187 Q642 1172 556 1150 Q478 1131 402 1052 Z M658 879 Q540 879 471 786 Q403 695 403 539 Q403 384 471 294 Q540 203 659 203 Q774 203 844 285 Q919 373 919 544 Q919 718 828 813 Q765 879 658 879 Z " />
<glyph glyph-name="afii10067" unicode="&#x432;" horiz-adv-x="1195" d="M127 0 L127 1081 L724 1081 Q880 1081 971 1016 Q1023 979 1054 921 Q1085 860 1085 796 Q1085 724 1028 646 Q997 605 946 576 Q1015 546 1056 495 Q1120 417 1120 331 Q1120 223 1048 131 Q945 0 674 0 L127 0 Z M434 205 L678 205 Q755 205 784 240 Q809 270 809 335 Q809 411 769 440 Q740 462 678 462 L434 462 L434 205 Z M434 667 L681 667 Q774 667 774 773 Q774 876 681 876 L434 876 L434 667 Z " />
<glyph glyph-name="afii10068" unicode="&#x433;" horiz-adv-x="878" d="M127 0 L127 1081 L847 1081 L847 842 L434 842 L434 0 L127 0 Z " />
<glyph glyph-name="afii10069" unicode="&#x434;" horiz-adv-x="1284" d="M1 -236 L1 239 Q107 240 179 341 Q212 387 223 430 Q247 520 247 801 L247 1081 L1157 1081 L1157 128 L1227 128 L1227 -236 L920 -236 L920 0 L308 0 L308 -236 L1 -236 Z M850 239 L850 842 L554 842 L554 767 Q554 532 545 442 Q534 333 454 239 L850 239 Z " />
<glyph glyph-name="afii10070" unicode="&#x435;" horiz-adv-x="1221" d="M1153 465 L387 465 Q400 197 635 197 Q799 197 864 344 L1128 223 Q999 -37 625 -37 Q379 -37 235 98 Q76 248 76 538 Q76 794 207 948 Q351 1118 619 1118 Q812 1118 937 1040 Q1153 904 1153 549 L1153 465 Z M387 649 L844 649 Q833 895 617 895 Q422 895 387 649 Z " />
<glyph glyph-name="afii10072" unicode="&#x436;" horiz-adv-x="1741" d="M725 0 L725 464 L574 464 L364 0 L70 0 L317 581 L138 1081 L422 1081 L564 703 L725 703 L725 1081 L1032 1081 L1032 703 L1178 703 L1320 1081 L1604 1081 L1425 581 L1672 0 L1377 0 L1168 464 L1032 464 L1032 0 L725 0 Z " />
<glyph glyph-name="afii10073" unicode="&#x437;" horiz-adv-x="1153" d="M428 638 Q613 639 672 677 Q729 713 729 769 Q729 811 702 834 Q650 878 546 878 Q450 878 393 843 Q356 821 338 769 L58 838 Q101 947 159 1000 Q288 1118 559 1118 Q760 1118 893 1045 Q958 1009 1000 948 Q1039 892 1039 822 Q1039 670 855 565 Q949 537 996 494 Q1077 420 1077 306 Q1077 152 934 57 Q794 -36 560 -36 Q384 -36 278 13 Q116 89 45 272 L322 343 Q345 284 375 257 Q435 203 555 203 Q680 203 739 256 Q767 281 767 324 Q767 392 694 428 Q652 449 551 454 Q538 454 428 456 L428 638 Z " />
<glyph glyph-name="afii10074" unicode="&#x438;" horiz-adv-x="1303" d="M1177 0 L871 0 L871 709 L434 0 L127 0 L127 1081 L421 1081 L421 372 L858 1081 L1177 1081 L1177 0 Z " />
<glyph glyph-name="afii10075" unicode="&#x439;" horiz-adv-x="1303" d="M1177 0 L871 0 L871 709 L434 0 L127 0 L127 1081 L421 1081 L421 372 L858 1081 L1177 1081 L1177 0 Z M273 1554 L494 1554 Q499 1519 528 1491 Q576 1446 654 1446 Q794 1446 810 1554 L1031 1554 Q1026 1436 944 1360 Q840 1262 651 1262 Q481 1262 378 1344 Q279 1423 273 1554 Z " />
<glyph glyph-name="afii10076" unicode="&#x43a;" horiz-adv-x="1143" d="M127 0 L127 1081 L434 1081 L434 703 L580 703 L722 1081 L1006 1081 L827 581 L1074 0 L779 0 L570 464 L434 464 L434 0 L127 0 Z " />
<glyph glyph-name="afii10077" unicode="&#x43b;" horiz-adv-x="1182" d="M11 237 Q89 237 122 308 Q159 386 159 770 L159 1081 L1055 1081 L1055 0 L748 0 L748 842 L466 842 L466 720 Q466 406 425 261 Q381 105 256 36 Q181 -5 97 -5 Q64 -5 11 0 L11 237 Z " />
<glyph glyph-name="afii10078" unicode="&#x43c;" horiz-adv-x="1458" d="M127 0 L127 1081 L504 1081 L733 359 L960 1081 L1331 1081 L1331 0 L1024 0 L1024 696 L819 0 L641 0 L434 696 L434 0 L127 0 Z " />
<glyph glyph-name="afii10079" unicode="&#x43d;" horiz-adv-x="1246" d="M127 0 L127 1081 L434 1081 L434 672 L812 672 L812 1081 L1119 1081 L1119 0 L812 0 L812 467 L434 467 L434 0 L127 0 Z " />
<glyph glyph-name="afii10080" unicode="&#x43e;" horiz-adv-x="1292" d="M644 1118 Q925 1118 1079 947 Q1217 793 1217 539 Q1217 286 1079 134 Q924 -37 649 -37 Q390 -37 239 105 Q76 259 76 539 Q76 795 211 947 Q364 1118 644 1118 Z M642 879 Q524 879 455 786 Q387 695 387 539 Q387 384 455 294 Q524 203 643 203 Q758 203 828 285 Q903 373 903 544 Q903 718 812 813 Q749 879 642 879 Z " />
<glyph glyph-name="afii10081" unicode="&#x43f;" horiz-adv-x="1207" d="M127 1081 L1080 1081 L1080 0 L773 0 L773 842 L434 842 L434 0 L127 0 L127 1081 Z " />
<glyph glyph-name="afii10082" unicode="&#x440;" horiz-adv-x="1315" d="M127 -393 L127 1081 L416 1081 L426 942 Q486 1027 557 1067 Q646 1118 778 1118 Q980 1118 1100 990 Q1239 842 1239 566 Q1239 285 1112 124 Q988 -35 749 -35 Q541 -35 438 121 L438 -393 L127 -393 Z M675 883 Q549 883 483 774 Q432 690 432 535 Q432 380 496 291 Q560 199 678 199 Q782 199 845 273 Q922 363 922 540 Q922 724 837 818 Q777 883 675 883 Z " />
<glyph glyph-name="afii10083" unicode="&#x441;" horiz-adv-x="1182" d="M1124 760 L834 688 Q810 770 773 813 Q717 877 622 877 Q501 877 440 776 Q387 689 387 536 Q387 381 447 292 Q506 205 619 205 Q734 205 795 292 Q831 343 844 416 L1137 342 Q1017 -37 614 -37 Q367 -37 227 102 Q76 252 76 534 Q76 786 207 942 Q353 1118 626 1118 Q902 1118 1027 967 Q1094 886 1124 760 Z " />
<glyph glyph-name="afii10084" unicode="&#x442;" horiz-adv-x="1025" d="M360 0 L360 856 L32 856 L32 1081 L994 1081 L994 856 L667 856 L667 0 L360 0 Z " />
<glyph glyph-name="afii10085" unicode="&#x443;" horiz-adv-x="1202" d="M92 -389 L139 -170 Q209 -188 276 -188 Q401 -188 451 -61 L471 -10 L0 1081 L336 1081 L618 334 L881 1081 L1202 1081 L743 -129 Q695 -256 629 -324 Q533 -424 365 -424 L346 -424 Q219 -424 92 -389 Z " />
<glyph glyph-name="afii10086" unicode="&#x444;" horiz-adv-x="1659" d="M983 234 Q1072 241 1116 264 Q1188 303 1229 385 Q1267 460 1267 551 Q1267 694 1181 791 Q1132 846 1069 862 Q1037 871 983 875 L983 234 Z M676 -8 L632 -8 Q505 -8 383 53 Q236 126 156 264 Q76 403 76 565 Q76 721 151 852 Q234 996 397 1067 Q510 1117 632 1117 L676 1117 L676 1544 L983 1544 L983 1117 L1027 1117 Q1259 1117 1415 963 Q1486 893 1530 792 Q1583 671 1583 553 Q1583 407 1508 271 Q1427 123 1270 51 Q1144 -8 1027 -8 L983 -8 L983 -393 L676 -393 L676 -8 Z M676 875 Q579 865 532 836 Q461 793 422 711 Q387 640 387 559 Q387 417 479 317 Q527 264 589 248 Q621 239 676 234 L676 875 Z " />
<glyph glyph-name="afii10087" unicode="&#x445;" horiz-adv-x="1161" d="M0 0 L408 551 L31 1081 L383 1081 L590 786 L801 1081 L1133 1081 L756 563 L1161 0 L801 0 L575 326 L342 0 L0 0 Z " />
<glyph glyph-name="afii10088" unicode="&#x446;" horiz-adv-x="1207" d="M878 0 L127 0 L127 1081 L434 1081 L434 239 L773 239 L773 1081 L1080 1081 L1080 267 L1212 267 L1212 -338 L878 -338 L878 0 Z " />
<glyph glyph-name="afii10089" unicode="&#x447;" horiz-adv-x="1199" d="M765 0 L765 342 Q683 307 562 307 Q319 307 191 412 Q76 505 76 646 L76 1074 L383 1074 L383 646 Q383 586 437 557 Q497 524 584 524 Q660 524 765 569 L765 1081 L1072 1081 L1072 0 L765 0 Z " />
<glyph glyph-name="afii10090" unicode="&#x448;" horiz-adv-x="1853" d="M1080 1081 L1080 239 L1419 239 L1419 1081 L1726 1081 L1726 0 L127 0 L127 1081 L434 1081 L434 239 L773 239 L773 1081 L1080 1081 Z " />
<glyph glyph-name="afii10091" unicode="&#x449;" horiz-adv-x="1853" d="M1080 1081 L1080 239 L1419 239 L1419 1081 L1726 1081 L1726 267 L1858 267 L1858 -338 L1524 -338 L1524 0 L127 0 L127 1081 L434 1081 L434 239 L773 239 L773 1081 L1080 1081 Z " />
<glyph glyph-name="afii10092" unicode="&#x44a;" horiz-adv-x="1428" d="M667 1081 L667 677 L976 677 Q1088 677 1154 653 Q1241 620 1298 527 Q1353 436 1353 336 Q1353 248 1280 144 Q1180 0 906 0 L360 0 L360 856 L0 856 L0 1081 L667 1081 Z M667 225 L911 225 Q988 225 1017 256 Q1042 283 1042 340 Q1042 407 1002 433 Q973 452 911 452 L667 452 L667 225 Z " />
<glyph glyph-name="afii10093" unicode="&#x44b;" horiz-adv-x="1658" d="M434 1081 L434 677 L743 677 Q855 677 921 653 Q1008 621 1065 527 Q1120 437 1120 336 Q1120 247 1047 144 Q947 0 674 0 L127 0 L127 1081 L434 1081 Z M434 225 L678 225 Q755 225 784 256 Q809 283 809 340 Q809 407 769 433 Q740 452 678 452 L434 452 L434 225 Z M1219 0 L1219 1081 L1531 1081 L1531 0 L1219 0 Z " />
<glyph glyph-name="afii10094" unicode="&#x44c;" horiz-adv-x="1195" d="M434 1081 L434 677 L743 677 Q855 677 921 653 Q1008 621 1065 527 Q1120 437 1120 336 Q1120 247 1047 144 Q947 0 674 0 L127 0 L127 1081 L434 1081 Z M434 225 L678 225 Q755 225 784 256 Q809 283 809 340 Q809 407 769 433 Q740 452 678 452 L434 452 L434 225 Z " />
<glyph glyph-name="afii10095" unicode="&#x44d;" horiz-adv-x="1182" d="M786 649 Q744 877 560 877 Q458 877 402 804 Q370 763 348 688 L58 760 Q91 897 167 980 Q293 1118 556 1118 Q829 1118 975 942 Q1106 786 1106 534 Q1106 239 941 89 Q803 -37 568 -37 Q165 -37 45 342 L338 416 Q353 336 394 283 Q454 205 563 205 Q759 205 791 465 L370 465 L370 649 L786 649 Z " />
<glyph glyph-name="afii10096" unicode="&#x44e;" horiz-adv-x="1920" d="M434 458 L434 0 L127 0 L127 1081 L434 1081 L434 683 L716 683 Q749 847 838 947 Q990 1118 1271 1118 Q1552 1118 1706 947 Q1844 794 1844 539 Q1844 286 1706 134 Q1551 -37 1272 -37 Q991 -37 838 134 Q726 259 707 458 L434 458 Z M1269 879 Q1151 879 1082 786 Q1014 695 1014 539 Q1014 384 1082 294 Q1151 203 1270 203 Q1385 203 1455 285 Q1530 373 1530 544 Q1530 718 1439 813 Q1376 879 1269 879 Z " />
<glyph glyph-name="afii10097" unicode="&#x44f;" horiz-adv-x="1157" d="M1030 0 L723 0 L723 410 L541 410 L345 0 L32 0 L264 453 Q181 497 136 563 Q73 654 73 746 Q73 815 105 889 Q187 1081 437 1081 L1030 1081 L1030 0 Z M723 615 L723 876 L498 876 Q383 876 383 748 Q383 615 498 615 L723 615 Z " />
<glyph glyph-name="afii10071" unicode="&#x451;" horiz-adv-x="1221" d="M1153 465 L387 465 Q400 197 635 197 Q799 197 864 344 L1128 223 Q999 -37 625 -37 Q379 -37 235 98 Q76 248 76 538 Q76 794 207 948 Q351 1118 619 1118 Q812 1118 937 1040 Q1153 904 1153 549 L1153 465 Z M387 649 L844 649 Q833 895 617 895 Q422 895 387 649 Z M226 1278 L226 1544 L492 1544 L492 1278 L226 1278 Z M742 1278 L742 1544 L1008 1544 L1008 1278 L742 1278 Z " />
<glyph glyph-name="afii10099" unicode="&#x452;" horiz-adv-x="1415" d="M575 1135 L575 892 Q690 1074 928 1074 Q1142 1074 1231 928 Q1288 833 1288 675 L1288 -71 Q1288 -217 1191 -309 Q1104 -392 945 -392 L696 -392 L696 -126 L782 -126 Q875 -126 904 -117 Q952 -102 968 -64 Q977 -41 977 8 L977 632 Q977 828 803 828 Q702 828 640 747 Q575 661 575 509 L575 0 L264 0 L264 1135 L3 1135 L3 1341 L264 1341 L264 1544 L575 1544 L575 1341 L861 1341 L861 1135 L575 1135 Z " />
<glyph glyph-name="afii10100" unicode="&#x453;" horiz-adv-x="878" d="M127 0 L127 1081 L847 1081 L847 842 L434 842 L434 0 L127 0 Z M297 1272 L533 1544 L881 1544 L572 1272 L297 1272 Z " />
<glyph glyph-name="afii10101" unicode="&#x454;" horiz-adv-x="1182" d="M396 649 L812 649 L812 465 L391 465 Q423 205 619 205 Q734 205 795 292 Q831 343 844 416 L1137 342 Q1017 -37 614 -37 Q367 -37 227 102 Q76 252 76 534 Q76 786 207 942 Q353 1118 626 1118 Q902 1118 1027 967 Q1094 886 1124 760 L834 688 Q810 770 773 813 Q717 877 622 877 Q438 877 396 649 Z " />
<glyph glyph-name="afii10102" unicode="&#x455;" horiz-adv-x="1139" d="M41 268 L328 348 Q384 186 561 186 Q737 186 737 297 Q737 346 704 373 Q669 402 582 420 L444 449 Q230 494 150 579 Q82 650 82 780 Q82 940 214 1031 Q341 1118 561 1118 Q807 1118 946 1002 Q1014 946 1049 852 L772 756 Q744 827 706 857 Q651 901 554 901 Q395 901 395 790 Q395 715 526 688 L745 643 Q935 604 1006 508 Q1061 433 1061 310 Q1061 151 936 59 Q805 -37 565 -37 Q337 -37 190 61 Q97 123 41 268 Z " />
<glyph glyph-name="afii10103" unicode="&#x456;" horiz-adv-x="588" d="M137 0 L137 1081 L449 1081 L449 0 L137 0 Z M137 1278 L137 1544 L449 1544 L449 1278 L137 1278 Z " />
<glyph glyph-name="afii10104" unicode="&#x457;" horiz-adv-x="588" d="M137 0 L137 1081 L449 1081 L449 0 L137 0 Z M-98 1278 L-98 1544 L168 1544 L168 1278 L-98 1278 Z M418 1278 L418 1544 L684 1544 L684 1278 L418 1278 Z " />
<glyph glyph-name="afii10105" unicode="&#x458;" horiz-adv-x="598" d="M-127 -395 L-98 -172 Q-32 -186 20 -186 Q147 -186 147 -55 L147 1081 L459 1081 L459 -78 Q459 -424 131 -424 L113 -424 Q-23 -424 -127 -395 Z M147 1278 L147 1544 L459 1544 L459 1278 L147 1278 Z " />
<glyph glyph-name="afii10106" unicode="&#x459;" horiz-adv-x="1808" d="M458 842 L458 720 Q458 406 417 261 Q373 104 248 36 Q173 -5 89 -5 Q56 -5 3 0 L3 237 Q105 237 127 348 Q151 467 151 770 L151 1081 L1047 1081 L1047 677 L1356 677 Q1468 677 1534 653 Q1621 620 1678 527 Q1733 436 1733 336 Q1733 248 1661 144 Q1560 0 1286 0 L740 0 L740 842 L458 842 Z M1047 225 L1291 225 Q1368 225 1397 256 Q1422 283 1422 340 Q1422 407 1382 433 Q1353 452 1291 452 L1047 452 L1047 225 Z " />
<glyph glyph-name="afii10107" unicode="&#x45a;" horiz-adv-x="1881" d="M812 677 L812 1081 L1119 1081 L1119 677 L1428 677 Q1540 677 1606 653 Q1693 621 1750 527 Q1805 437 1805 336 Q1805 248 1732 144 Q1632 0 1359 0 L812 0 L812 452 L434 452 L434 0 L127 0 L127 1081 L434 1081 L434 677 L812 677 Z M1119 225 L1363 225 Q1440 225 1469 256 Q1494 283 1494 340 Q1494 407 1454 433 Q1425 452 1363 452 L1119 452 L1119 225 Z " />
<glyph glyph-name="afii10108" unicode="&#x45b;" horiz-adv-x="1415" d="M575 1135 L575 892 Q689 1074 928 1074 Q1142 1074 1231 928 Q1288 833 1288 675 L1288 0 L977 0 L977 632 Q977 828 803 828 Q702 828 640 747 Q575 661 575 509 L575 0 L264 0 L264 1135 L3 1135 L3 1341 L264 1341 L264 1544 L575 1544 L575 1341 L861 1341 L861 1135 L575 1135 Z " />
<glyph glyph-name="afii10109" unicode="&#x45c;" horiz-adv-x="1143" d="M127 0 L127 1081 L434 1081 L434 703 L580 703 L722 1081 L1006 1081 L827 581 L1074 0 L779 0 L570 464 L434 464 L434 0 L127 0 Z M409 1272 L645 1544 L993 1544 L684 1272 L409 1272 Z " />
<glyph glyph-name="afii10110" unicode="&#x45e;" horiz-adv-x="1202" d="M92 -389 L139 -170 Q209 -188 276 -188 Q401 -188 451 -61 L471 -10 L0 1081 L336 1081 L618 334 L881 1081 L1202 1081 L743 -129 Q695 -256 629 -324 Q533 -424 365 -424 L346 -424 Q219 -424 92 -389 Z M222 1554 L443 1554 Q448 1519 477 1491 Q525 1446 603 1446 Q743 1446 759 1554 L980 1554 Q975 1436 893 1360 Q789 1262 600 1262 Q430 1262 327 1344 Q228 1423 222 1554 Z " />
<glyph glyph-name="afii10193" unicode="&#x45f;" horiz-adv-x="1207" d="M436 0 L127 0 L127 1081 L434 1081 L434 239 L773 239 L773 1081 L1080 1081 L1080 0 L770 0 L770 -338 L436 -338 L436 0 Z " />
<glyph glyph-name="afii10050" unicode="&#x490;" horiz-adv-x="1217" d="M1092 1544 L1175 1544 L1175 1270 L481 1270 L481 0 L147 0 L147 1544 L814 1544 L1039 1803 L1387 1803 L1092 1544 Z " />
<glyph glyph-name="afii10098" unicode="&#x491;" horiz-adv-x="878" d="M765 1081 L847 1081 L847 842 L434 842 L434 0 L127 0 L127 1081 L490 1081 L726 1353 L1074 1353 L765 1081 Z " />
<glyph glyph-name="uni0492" unicode="&#x492;" horiz-adv-x="1217" d="M481 924 L892 924 L892 649 L481 649 L481 0 L147 0 L147 649 L34 649 L34 924 L147 924 L147 1544 L1175 1544 L1175 1270 L481 1270 L481 924 Z " />
<glyph glyph-name="uni0493" unicode="&#x493;" horiz-adv-x="878" d="M434 649 L765 649 L765 444 L434 444 L434 0 L127 0 L127 444 L51 444 L51 649 L127 649 L127 1081 L846 1081 L846 842 L434 842 L434 649 Z " />
<glyph glyph-name="uni0496" unicode="&#x496;" horiz-adv-x="2194" d="M2006 270 L2224 270 L2224 -336 L1890 -336 L1890 0 L1768 0 L1469 701 L1275 701 L1275 0 L941 0 L941 701 L725 701 L426 0 L73 0 L426 831 L170 1544 L508 1544 L710 966 L941 966 L941 1544 L1275 1544 L1275 966 L1483 966 L1686 1544 L2024 1544 L1768 831 L2006 270 Z " />
<glyph glyph-name="uni0497" unicode="&#x497;" horiz-adv-x="1741" d="M1558 267 L1775 267 L1775 -338 L1475 -338 L1475 0 L1377 0 L1168 464 L1032 464 L1032 0 L725 0 L725 464 L574 464 L364 0 L70 0 L317 581 L138 1081 L422 1081 L564 703 L725 703 L725 1081 L1032 1081 L1032 703 L1178 703 L1320 1081 L1604 1081 L1425 581 L1558 267 Z " />
<glyph glyph-name="uni049A" unicode="&#x49a;" horiz-adv-x="1400" d="M1213 270 L1430 270 L1430 -336 L1096 -336 L1096 0 L974 0 L675 701 L481 701 L481 0 L147 0 L147 1544 L481 1544 L481 966 L689 966 L892 1544 L1230 1544 L974 831 L1213 270 Z " />
<glyph glyph-name="uni049B" unicode="&#x49b;" horiz-adv-x="1143" d="M960 267 L1177 267 L1177 -338 L877 -338 L877 0 L779 0 L570 464 L434 464 L434 0 L127 0 L127 1081 L434 1081 L434 703 L580 703 L722 1081 L1006 1081 L827 581 L960 267 Z " />
<glyph glyph-name="uni049C" unicode="&#x49c;" horiz-adv-x="1388" d="M539 966 L539 1262 L707 1262 L707 966 L751 966 L954 1544 L1291 1544 L1035 831 L1388 0 L1035 0 L736 701 L707 701 L707 405 L539 405 L539 701 L481 701 L481 0 L147 0 L147 1544 L481 1544 L481 966 L539 966 Z " />
<glyph glyph-name="uni049D" unicode="&#x49d;" horiz-adv-x="1143" d="M462 703 L462 968 L559 968 L559 703 L580 703 L722 1081 L1006 1081 L827 581 L1074 0 L780 0 L570 464 L559 464 L559 296 L462 296 L462 464 L434 464 L434 0 L127 0 L127 1081 L434 1081 L434 703 L462 703 Z " />
<glyph glyph-name="uni04A2" unicode="&#x4a2;" horiz-adv-x="1606" d="M1256 0 L1124 0 L1124 676 L481 676 L481 0 L147 0 L147 1544 L481 1544 L481 950 L1124 950 L1124 1544 L1458 1544 L1458 270 L1590 270 L1590 -336 L1256 -336 L1256 0 Z " />
<glyph glyph-name="uni04A3" unicode="&#x4a3;" horiz-adv-x="1246" d="M951 0 L812 0 L812 467 L434 467 L434 0 L127 0 L127 1081 L434 1081 L434 672 L812 672 L812 1081 L1119 1081 L1119 264 L1251 264 L1251 -341 L951 -341 L951 0 Z " />
<glyph glyph-name="uni04AE" unicode="&#x4ae;" horiz-adv-x="1423" d="M545 0 L545 618 L0 1544 L352 1544 L725 895 L1092 1544 L1423 1544 L879 618 L879 0 L545 0 Z " />
<glyph glyph-name="uni04AF" unicode="&#x4af;" horiz-adv-x="1202" d="M788 -10 L788 -393 L471 -393 L471 -10 L0 1081 L336 1081 L618 334 L881 1081 L1202 1081 L788 -10 Z " />
<glyph glyph-name="uni04B0" unicode="&#x4b0;" horiz-adv-x="1423" d="M879 500 L1128 500 L1128 232 L879 232 L879 0 L545 0 L545 232 L296 232 L296 500 L545 500 L545 617 L0 1544 L352 1544 L725 895 L1092 1544 L1423 1544 L879 617 L879 500 Z " />
<glyph glyph-name="uni04B1" unicode="&#x4b1;" horiz-adv-x="1202" d="M792 0 L1020 0 L1020 -206 L788 -206 L788 -393 L471 -393 L471 -206 L239 -206 L239 0 L467 0 L0 1081 L336 1081 L618 334 L881 1081 L1202 1081 L792 0 Z " />
<glyph glyph-name="uni04B2" unicode="&#x4b2;" horiz-adv-x="1454" d="M1151 0 L1052 0 L714 530 L363 0 L1 0 L538 784 L44 1544 L425 1544 L738 1059 L1062 1544 L1408 1544 L912 811 L1270 270 L1485 270 L1485 -336 L1151 -336 L1151 0 Z " />
<glyph glyph-name="uni04B3" unicode="&#x4b3;" horiz-adv-x="1161" d="M923 0 L801 0 L575 326 L342 0 L0 0 L408 551 L31 1081 L383 1081 L590 786 L801 1081 L1133 1081 L756 563 L967 270 L1223 270 L1223 -336 L923 -336 L923 0 Z " />
<glyph glyph-name="uni04B8" unicode="&#x4b8;" horiz-adv-x="1566" d="M830 453 L830 180 L662 180 L662 449 Q483 459 348 537 Q215 612 159 750 Q127 830 127 932 L127 1544 L461 1544 L461 932 Q461 782 662 754 L662 1059 L830 1059 L830 757 Q942 771 1083 812 L1085 1544 L1419 1544 L1419 0 L1085 0 L1085 513 Q919 464 830 453 Z " />
<glyph glyph-name="uni04B9" unicode="&#x4b9;" horiz-adv-x="1199" d="M632 311 L632 83 L505 83 L505 310 Q383 320 294 353 Q199 389 135 469 Q76 542 76 646 L76 1074 L383 1074 L383 646 Q383 560 505 533 L505 831 L632 831 L632 528 Q686 537 765 569 L765 1081 L1072 1081 L1072 0 L765 0 L765 343 Q708 319 632 311 Z " />
<glyph glyph-name="uni04BA" unicode="&#x4ba;" horiz-adv-x="1566" d="M481 1544 L481 1031 Q560 1054 604 1066 Q722 1097 845 1097 Q1145 1097 1307 940 Q1439 813 1439 612 L1439 0 L1105 0 L1105 612 Q1105 701 1038 745 Q965 794 841 794 Q695 794 483 732 L481 0 L147 0 L147 1544 L481 1544 Z " />
<glyph glyph-name="uni04BB" unicode="&#x4bb;" horiz-adv-x="1278" d="M127 0 L127 1544 L438 1544 L438 936 Q553 1118 791 1118 Q1005 1118 1094 972 Q1151 877 1151 719 L1151 0 L840 0 L840 676 Q840 872 667 872 Q565 872 504 791 Q438 705 438 553 L438 0 L127 0 Z " />
<glyph glyph-name="uni04C0" unicode="&#x4c0;" horiz-adv-x="629" d="M147 0 L147 1544 L481 1544 L481 0 L147 0 Z " />
<glyph glyph-name="uni04D8" unicode="&#x4d8;" horiz-adv-x="1690" d="M103 924 L1244 924 Q1218 1067 1149 1158 Q1037 1305 846 1305 Q570 1305 487 1031 L155 1107 Q187 1207 220 1265 Q311 1428 497 1512 Q650 1581 844 1581 Q1199 1581 1398 1365 Q1597 1149 1597 770 Q1597 393 1398 179 Q1198 -37 844 -37 Q526 -37 329 141 Q214 244 154 402 Q92 564 92 755 Q92 823 103 924 Z M1249 649 L440 649 Q462 487 538 386 Q648 240 844 240 Q1019 240 1127 360 Q1224 466 1249 649 Z " />
<glyph glyph-name="afii10846" unicode="&#x4d9;" horiz-adv-x="1229" d="M76 616 L842 616 Q829 884 594 884 Q430 884 365 737 L101 858 Q230 1118 604 1118 Q851 1118 994 983 Q1153 833 1153 543 Q1153 287 1022 133 Q878 -37 610 -37 Q417 -37 292 41 Q76 177 76 532 L76 616 Z M842 432 L385 432 Q396 186 612 186 Q807 186 842 432 Z " />
<glyph glyph-name="uni04E8" unicode="&#x4e8;" horiz-adv-x="1690" d="M844 1581 Q1199 1581 1398 1365 Q1597 1149 1597 770 Q1597 393 1398 179 Q1198 -37 848 -37 Q526 -37 329 141 Q92 354 92 770 Q92 1151 290 1365 Q490 1581 844 1581 Z M445 924 L1244 924 Q1218 1067 1149 1158 Q1037 1305 844 1305 Q649 1305 538 1158 Q467 1063 445 924 Z M1249 649 L440 649 Q462 487 538 386 Q648 240 844 240 Q1019 240 1127 360 Q1224 466 1249 649 Z " />
<glyph glyph-name="uni04E9" unicode="&#x4e9;" horiz-adv-x="1292" d="M644 1118 Q925 1118 1079 947 Q1217 793 1217 538 Q1217 286 1079 133 Q924 -37 649 -37 Q390 -37 239 105 Q76 259 76 538 Q76 794 211 947 Q364 1118 644 1118 Z M895 637 Q845 879 642 879 Q524 879 455 786 Q413 730 395 637 L895 637 Z M395 440 Q442 203 645 203 Q758 203 828 285 Q876 341 894 440 L395 440 Z " />
<glyph glyph-name="uni060C" unicode="&#x60c;" horiz-adv-x="510" d="" />
<glyph glyph-name="uni061B" unicode="&#x61b;" horiz-adv-x="510" d="" />
<glyph glyph-name="uni061F" unicode="&#x61f;" horiz-adv-x="510" d="" />
<glyph glyph-name="uni0621" unicode="&#x621;" horiz-adv-x="510" d="" />
<glyph glyph-name="uni0622" unicode="&#x622;" horiz-adv-x="510" d="" />
<glyph glyph-name="uni0623" unicode="&#x623;" horiz-adv-x="510" d="" />
<glyph glyph-name="uni0624" unicode="&#x624;" horiz-adv-x="510" d="" />
<glyph glyph-name="uni0625" unicode="&#x625;" horiz-adv-x="510" d="" />
<glyph glyph-name="uni0626" unicode="&#x626;" horiz-adv-x="510" d="" />
<glyph glyph-name="uni0627" unicode="&#x627;" horiz-adv-x="510" d="" />
<glyph glyph-name="uni0628" unicode="&#x628;" horiz-adv-x="510" d="" />
<glyph glyph-name="uni0629" unicode="&#x629;" horiz-adv-x="510" d="" />
<glyph glyph-name="uni062A" unicode="&#x62a;" horiz-adv-x="510" d="" />
<glyph glyph-name="uni062B" unicode="&#x62b;" horiz-adv-x="510" d="" />
<glyph glyph-name="uni062C" unicode="&#x62c;" horiz-adv-x="510" d="" />
<glyph glyph-name="uni062D" unicode="&#x62d;" horiz-adv-x="510" d="" />
<glyph glyph-name="uni062E" unicode="&#x62e;" horiz-adv-x="510" d="" />
<glyph glyph-name="uni062F" unicode="&#x62f;" horiz-adv-x="510" d="" />
<glyph glyph-name="uni0630" unicode="&#x630;" horiz-adv-x="510" d="" />
<glyph glyph-name="uni0631" unicode="&#x631;" horiz-adv-x="510" d="" />
<glyph glyph-name="uni0632" unicode="&#x632;" horiz-adv-x="510" d="" />
<glyph glyph-name="uni0633" unicode="&#x633;" horiz-adv-x="510" d="" />
<glyph glyph-name="uni0634" unicode="&#x634;" horiz-adv-x="510" d="" />
<glyph glyph-name="uni0635" unicode="&#x635;" horiz-adv-x="510" d="" />
<glyph glyph-name="uni0636" unicode="&#x636;" horiz-adv-x="510" d="" />
<glyph glyph-name="uni0637" unicode="&#x637;" horiz-adv-x="510" d="" />
<glyph glyph-name="uni0638" unicode="&#x638;" horiz-adv-x="510" d="" />
<glyph glyph-name="uni0639" unicode="&#x639;" horiz-adv-x="510" d="" />
<glyph glyph-name="uni063A" unicode="&#x63a;" horiz-adv-x="510" d="" />
<glyph glyph-name="uni0640" unicode="&#x640;" horiz-adv-x="510" d="" />
<glyph glyph-name="uni0641" unicode="&#x641;" horiz-adv-x="510" d="" />
<glyph glyph-name="uni0642" unicode="&#x642;" horiz-adv-x="510" d="" />
<glyph glyph-name="uni0643" unicode="&#x643;" horiz-adv-x="510" d="" />
<glyph glyph-name="uni0644" unicode="&#x644;" horiz-adv-x="510" d="" />
<glyph glyph-name="uni0645" unicode="&#x645;" horiz-adv-x="510" d="" />
<glyph glyph-name="uni0646" unicode="&#x646;" horiz-adv-x="510" d="" />
<glyph glyph-name="uni0647" unicode="&#x647;" horiz-adv-x="510" d="" />
<glyph glyph-name="uni0648" unicode="&#x648;" horiz-adv-x="510" d="" />
<glyph glyph-name="uni0649" unicode="&#x649;" horiz-adv-x="510" d="" />
<glyph glyph-name="uni064A" unicode="&#x64a;" horiz-adv-x="510" d="" />
<glyph glyph-name="uni064B" unicode="&#x64b;" horiz-adv-x="510" d="" />
<glyph glyph-name="uni064C" unicode="&#x64c;" horiz-adv-x="510" d="" />
<glyph glyph-name="uni064D" unicode="&#x64d;" horiz-adv-x="510" d="" />
<glyph glyph-name="uni064E" unicode="&#x64e;" horiz-adv-x="510" d="" />
<glyph glyph-name="uni064F" unicode="&#x64f;" horiz-adv-x="510" d="" />
<glyph glyph-name="uni0650" unicode="&#x650;" horiz-adv-x="510" d="" />
<glyph glyph-name="uni0651" unicode="&#x651;" horiz-adv-x="510" d="" />
<glyph glyph-name="uni0652" unicode="&#x652;" horiz-adv-x="510" d="" />
<glyph glyph-name="uni0653" unicode="&#x653;" horiz-adv-x="510" d="" />
<glyph glyph-name="uni0654" unicode="&#x654;" horiz-adv-x="510" d="" />
<glyph glyph-name="uni0655" unicode="&#x655;" horiz-adv-x="510" d="" />
<glyph glyph-name="uni0660" unicode="&#x660;" horiz-adv-x="510" d="" />
<glyph glyph-name="uni0661" unicode="&#x661;" horiz-adv-x="510" d="" />
<glyph glyph-name="uni0662" unicode="&#x662;" horiz-adv-x="510" d="" />
<glyph glyph-name="uni0663" unicode="&#x663;" horiz-adv-x="510" d="" />
<glyph glyph-name="uni0664" unicode="&#x664;" horiz-adv-x="510" d="" />
<glyph glyph-name="uni0665" unicode="&#x665;" horiz-adv-x="510" d="" />
<glyph glyph-name="uni0666" unicode="&#x666;" horiz-adv-x="510" d="" />
<glyph glyph-name="uni0667" unicode="&#x667;" horiz-adv-x="510" d="" />
<glyph glyph-name="uni0668" unicode="&#x668;" horiz-adv-x="510" d="" />
<glyph glyph-name="uni0669" unicode="&#x669;" horiz-adv-x="510" d="" />
<glyph glyph-name="uni066A" unicode="&#x66a;" horiz-adv-x="510" d="" />
<glyph glyph-name="uni066B" unicode="&#x66b;" horiz-adv-x="510" d="" />
<glyph glyph-name="uni066C" unicode="&#x66c;" horiz-adv-x="510" d="" />
<glyph glyph-name="uni066D" unicode="&#x66d;" horiz-adv-x="510" d="" />
<glyph glyph-name="uni0670" unicode="&#x670;" horiz-adv-x="510" d="" />
<glyph glyph-name="uni0671" unicode="&#x671;" horiz-adv-x="510" d="" />
<glyph glyph-name="uni0672" unicode="&#x672;" horiz-adv-x="510" d="" />
<glyph glyph-name="uni0673" unicode="&#x673;" horiz-adv-x="510" d="" />
<glyph glyph-name="uni0674" unicode="&#x674;" horiz-adv-x="510" d="" />
<glyph glyph-name="uni0675" unicode="&#x675;" horiz-adv-x="510" d="" />
<glyph glyph-name="uni0676" unicode="&#x676;" horiz-adv-x="510" d="" />
<glyph glyph-name="uni0677" unicode="&#x677;" horiz-adv-x="510" d="" />
<glyph glyph-name="uni0678" unicode="&#x678;" horiz-adv-x="510" d="" />
<glyph glyph-name="uni0679" unicode="&#x679;" horiz-adv-x="510" d="" />
<glyph glyph-name="uni067A" unicode="&#x67a;" horiz-adv-x="510" d="" />
<glyph glyph-name="uni067B" unicode="&#x67b;" horiz-adv-x="510" d="" />
<glyph glyph-name="uni067C" unicode="&#x67c;" horiz-adv-x="510" d="" />
<glyph glyph-name="uni067D" unicode="&#x67d;" horiz-adv-x="510" d="" />
<glyph glyph-name="uni067E" unicode="&#x67e;" horiz-adv-x="510" d="" />
<glyph glyph-name="uni067F" unicode="&#x67f;" horiz-adv-x="510" d="" />
<glyph glyph-name="uni0680" unicode="&#x680;" horiz-adv-x="510" d="" />
<glyph glyph-name="uni0681" unicode="&#x681;" horiz-adv-x="510" d="" />
<glyph glyph-name="uni0682" unicode="&#x682;" horiz-adv-x="510" d="" />
<glyph glyph-name="uni0683" unicode="&#x683;" horiz-adv-x="510" d="" />
<glyph glyph-name="uni0684" unicode="&#x684;" horiz-adv-x="510" d="" />
<glyph glyph-name="uni0685" unicode="&#x685;" horiz-adv-x="510" d="" />
<glyph glyph-name="uni0686" unicode="&#x686;" horiz-adv-x="510" d="" />
<glyph glyph-name="uni0687" unicode="&#x687;" horiz-adv-x="510" d="" />
<glyph glyph-name="uni0688" unicode="&#x688;" horiz-adv-x="510" d="" />
<glyph glyph-name="uni0689" unicode="&#x689;" horiz-adv-x="510" d="" />
<glyph glyph-name="uni068A" unicode="&#x68a;" horiz-adv-x="510" d="" />
<glyph glyph-name="uni068B" unicode="&#x68b;" horiz-adv-x="510" d="" />
<glyph glyph-name="uni068C" unicode="&#x68c;" horiz-adv-x="510" d="" />
<glyph glyph-name="uni068D" unicode="&#x68d;" horiz-adv-x="510" d="" />
<glyph glyph-name="uni068E" unicode="&#x68e;" horiz-adv-x="510" d="" />
<glyph glyph-name="uni068F" unicode="&#x68f;" horiz-adv-x="510" d="" />
<glyph glyph-name="uni0690" unicode="&#x690;" horiz-adv-x="510" d="" />
<glyph glyph-name="uni0691" unicode="&#x691;" horiz-adv-x="510" d="" />
<glyph glyph-name="uni0692" unicode="&#x692;" horiz-adv-x="510" d="" />
<glyph glyph-name="uni0693" unicode="&#x693;" horiz-adv-x="510" d="" />
<glyph glyph-name="uni0694" unicode="&#x694;" horiz-adv-x="510" d="" />
<glyph glyph-name="uni0695" unicode="&#x695;" horiz-adv-x="510" d="" />
<glyph glyph-name="uni0696" unicode="&#x696;" horiz-adv-x="510" d="" />
<glyph glyph-name="uni0697" unicode="&#x697;" horiz-adv-x="510" d="" />
<glyph glyph-name="uni0698" unicode="&#x698;" horiz-adv-x="510" d="" />
<glyph glyph-name="uni0699" unicode="&#x699;" horiz-adv-x="510" d="" />
<glyph glyph-name="uni069A" unicode="&#x69a;" horiz-adv-x="510" d="" />
<glyph glyph-name="uni069B" unicode="&#x69b;" horiz-adv-x="510" d="" />
<glyph glyph-name="uni069C" unicode="&#x69c;" horiz-adv-x="510" d="" />
<glyph glyph-name="uni069D" unicode="&#x69d;" horiz-adv-x="510" d="" />
<glyph glyph-name="uni069E" unicode="&#x69e;" horiz-adv-x="510" d="" />
<glyph glyph-name="uni069F" unicode="&#x69f;" horiz-adv-x="510" d="" />
<glyph glyph-name="uni06A0" unicode="&#x6a0;" horiz-adv-x="510" d="" />
<glyph glyph-name="uni06A1" unicode="&#x6a1;" horiz-adv-x="510" d="" />
<glyph glyph-name="uni06A2" unicode="&#x6a2;" horiz-adv-x="510" d="" />
<glyph glyph-name="uni06A3" unicode="&#x6a3;" horiz-adv-x="510" d="" />
<glyph glyph-name="uni06A4" unicode="&#x6a4;" horiz-adv-x="510" d="" />
<glyph glyph-name="uni06A5" unicode="&#x6a5;" horiz-adv-x="510" d="" />
<glyph glyph-name="uni06A6" unicode="&#x6a6;" horiz-adv-x="510" d="" />
<glyph glyph-name="uni06A7" unicode="&#x6a7;" horiz-adv-x="510" d="" />
<glyph glyph-name="uni06A8" unicode="&#x6a8;" horiz-adv-x="510" d="" />
<glyph glyph-name="uni06A9" unicode="&#x6a9;" horiz-adv-x="510" d="" />
<glyph glyph-name="uni06AA" unicode="&#x6aa;" horiz-adv-x="510" d="" />
<glyph glyph-name="uni06AB" unicode="&#x6ab;" horiz-adv-x="510" d="" />
<glyph glyph-name="uni06AC" unicode="&#x6ac;" horiz-adv-x="510" d="" />
<glyph glyph-name="uni06AD" unicode="&#x6ad;" horiz-adv-x="510" d="" />
<glyph glyph-name="uni06AE" unicode="&#x6ae;" horiz-adv-x="510" d="" />
<glyph glyph-name="uni06AF" unicode="&#x6af;" horiz-adv-x="510" d="" />
<glyph glyph-name="uni06B0" unicode="&#x6b0;" horiz-adv-x="510" d="" />
<glyph glyph-name="uni06B1" unicode="&#x6b1;" horiz-adv-x="510" d="" />
<glyph glyph-name="uni06B2" unicode="&#x6b2;" horiz-adv-x="510" d="" />
<glyph glyph-name="uni06B3" unicode="&#x6b3;" horiz-adv-x="510" d="" />
<glyph glyph-name="uni06B4" unicode="&#x6b4;" horiz-adv-x="510" d="" />
<glyph glyph-name="uni06B5" unicode="&#x6b5;" horiz-adv-x="510" d="" />
<glyph glyph-name="uni06B6" unicode="&#x6b6;" horiz-adv-x="510" d="" />
<glyph glyph-name="uni06B7" unicode="&#x6b7;" horiz-adv-x="510" d="" />
<glyph glyph-name="uni06B8" unicode="&#x6b8;" horiz-adv-x="510" d="" />
<glyph glyph-name="uni06B9" unicode="&#x6b9;" horiz-adv-x="510" d="" />
<glyph glyph-name="uni06BA" unicode="&#x6ba;" horiz-adv-x="510" d="" />
<glyph glyph-name="uni06BB" unicode="&#x6bb;" horiz-adv-x="510" d="" />
<glyph glyph-name="uni06BC" unicode="&#x6bc;" horiz-adv-x="510" d="" />
<glyph glyph-name="uni06BD" unicode="&#x6bd;" horiz-adv-x="510" d="" />
<glyph glyph-name="uni06BE" unicode="&#x6be;" horiz-adv-x="510" d="" />
<glyph glyph-name="uni06BF" unicode="&#x6bf;" horiz-adv-x="510" d="" />
<glyph glyph-name="uni06C0" unicode="&#x6c0;" horiz-adv-x="510" d="" />
<glyph glyph-name="uni06C1" unicode="&#x6c1;" horiz-adv-x="510" d="" />
<glyph glyph-name="uni06C2" unicode="&#x6c2;" horiz-adv-x="510" d="" />
<glyph glyph-name="uni06C3" unicode="&#x6c3;" horiz-adv-x="510" d="" />
<glyph glyph-name="uni06C4" unicode="&#x6c4;" horiz-adv-x="510" d="" />
<glyph glyph-name="uni06C5" unicode="&#x6c5;" horiz-adv-x="510" d="" />
<glyph glyph-name="uni06C6" unicode="&#x6c6;" horiz-adv-x="510" d="" />
<glyph glyph-name="uni06C7" unicode="&#x6c7;" horiz-adv-x="510" d="" />
<glyph glyph-name="uni06C8" unicode="&#x6c8;" horiz-adv-x="510" d="" />
<glyph glyph-name="uni06C9" unicode="&#x6c9;" horiz-adv-x="510" d="" />
<glyph glyph-name="uni06CA" unicode="&#x6ca;" horiz-adv-x="510" d="" />
<glyph glyph-name="uni06CB" unicode="&#x6cb;" horiz-adv-x="510" d="" />
<glyph glyph-name="uni06CC" unicode="&#x6cc;" horiz-adv-x="510" d="" />
<glyph glyph-name="uni06CD" unicode="&#x6cd;" horiz-adv-x="510" d="" />
<glyph glyph-name="uni06CE" unicode="&#x6ce;" horiz-adv-x="510" d="" />
<glyph glyph-name="uni06CF" unicode="&#x6cf;" horiz-adv-x="510" d="" />
<glyph glyph-name="uni06D0" unicode="&#x6d0;" horiz-adv-x="510" d="" />
<glyph glyph-name="uni06D1" unicode="&#x6d1;" horiz-adv-x="510" d="" />
<glyph glyph-name="uni06D2" unicode="&#x6d2;" horiz-adv-x="510" d="" />
<glyph glyph-name="uni06D3" unicode="&#x6d3;" horiz-adv-x="510" d="" />
<glyph glyph-name="uni06D4" unicode="&#x6d4;" horiz-adv-x="510" d="" />
<glyph glyph-name="uni06D5" unicode="&#x6d5;" horiz-adv-x="510" d="" />
<glyph glyph-name="uni06D6" unicode="&#x6d6;" horiz-adv-x="510" d="" />
<glyph glyph-name="uni06D7" unicode="&#x6d7;" horiz-adv-x="510" d="" />
<glyph glyph-name="uni06D8" unicode="&#x6d8;" horiz-adv-x="510" d="" />
<glyph glyph-name="uni06D9" unicode="&#x6d9;" horiz-adv-x="510" d="" />
<glyph glyph-name="uni06DA" unicode="&#x6da;" horiz-adv-x="510" d="" />
<glyph glyph-name="uni06DB" unicode="&#x6db;" horiz-adv-x="510" d="" />
<glyph glyph-name="uni06DC" unicode="&#x6dc;" horiz-adv-x="510" d="" />
<glyph glyph-name="uni06DD" unicode="&#x6dd;" horiz-adv-x="510" d="" />
<glyph glyph-name="uni06DE" unicode="&#x6de;" horiz-adv-x="510" d="" />
<glyph glyph-name="uni06DF" unicode="&#x6df;" horiz-adv-x="510" d="" />
<glyph glyph-name="uni06E0" unicode="&#x6e0;" horiz-adv-x="510" d="" />
<glyph glyph-name="uni06E1" unicode="&#x6e1;" horiz-adv-x="510" d="" />
<glyph glyph-name="uni06E2" unicode="&#x6e2;" horiz-adv-x="510" d="" />
<glyph glyph-name="uni06E3" unicode="&#x6e3;" horiz-adv-x="510" d="" />
<glyph glyph-name="uni06E4" unicode="&#x6e4;" horiz-adv-x="510" d="" />
<glyph glyph-name="uni06E5" unicode="&#x6e5;" horiz-adv-x="510" d="" />
<glyph glyph-name="uni06E6" unicode="&#x6e6;" horiz-adv-x="510" d="" />
<glyph glyph-name="uni06E7" unicode="&#x6e7;" horiz-adv-x="510" d="" />
<glyph glyph-name="uni06E8" unicode="&#x6e8;" horiz-adv-x="510" d="" />
<glyph glyph-name="uni06E9" unicode="&#x6e9;" horiz-adv-x="510" d="" />
<glyph glyph-name="uni06EA" unicode="&#x6ea;" horiz-adv-x="510" d="" />
<glyph glyph-name="uni06EB" unicode="&#x6eb;" horiz-adv-x="510" d="" />
<glyph glyph-name="uni06EC" unicode="&#x6ec;" horiz-adv-x="510" d="" />
<glyph glyph-name="uni06ED" unicode="&#x6ed;" horiz-adv-x="510" d="" />
<glyph glyph-name="uni06EE" unicode="&#x6ee;" horiz-adv-x="510" d="" />
<glyph glyph-name="uni06EF" unicode="&#x6ef;" horiz-adv-x="510" d="" />
<glyph glyph-name="uni06F0" unicode="&#x6f0;" horiz-adv-x="510" d="" />
<glyph glyph-name="uni06F1" unicode="&#x6f1;" horiz-adv-x="510" d="" />
<glyph glyph-name="uni06F2" unicode="&#x6f2;" horiz-adv-x="510" d="" />
<glyph glyph-name="uni06F3" unicode="&#x6f3;" horiz-adv-x="510" d="" />
<glyph glyph-name="uni06F4" unicode="&#x6f4;" horiz-adv-x="510" d="" />
<glyph glyph-name="uni06F5" unicode="&#x6f5;" horiz-adv-x="510" d="" />
<glyph glyph-name="uni06F6" unicode="&#x6f6;" horiz-adv-x="510" d="" />
<glyph glyph-name="uni06F7" unicode="&#x6f7;" horiz-adv-x="510" d="" />
<glyph glyph-name="uni06F8" unicode="&#x6f8;" horiz-adv-x="510" d="" />
<glyph glyph-name="uni06F9" unicode="&#x6f9;" horiz-adv-x="510" d="" />
<glyph glyph-name="uni06FA" unicode="&#x6fa;" horiz-adv-x="510" d="" />
<glyph glyph-name="uni06FB" unicode="&#x6fb;" horiz-adv-x="510" d="" />
<glyph glyph-name="uni06FC" unicode="&#x6fc;" horiz-adv-x="510" d="" />
<glyph glyph-name="uni06FD" unicode="&#x6fd;" horiz-adv-x="510" d="" />
<glyph glyph-name="uni06FE" unicode="&#x6fe;" horiz-adv-x="510" d="" />
<glyph glyph-name="uni2010" unicode="&#x2010;" horiz-adv-x="938" d="M102 385 L102 702 L836 702 L836 385 L102 385 Z " />
<glyph glyph-name="uni2011" unicode="&#x2011;" horiz-adv-x="938" d="M102 385 L102 702 L836 702 L836 385 L102 385 Z " />
<glyph glyph-name="figuredash" unicode="&#x2012;" horiz-adv-x="1024" d="M0 467 L0 698 L1024 698 L1024 467 L0 467 Z " />
<glyph glyph-name="afii00208" unicode="&#x2015;" horiz-adv-x="2048" d="M0 467 L0 698 L2048 698 L2048 467 L0 467 Z " />
<glyph glyph-name="uni203E" unicode="&#x203e;" horiz-adv-x="942" d="M41 1305 L41 1511 L899 1511 L899 1305 L41 1305 Z " />
<glyph glyph-name="afii61352" unicode="&#x2116;" horiz-adv-x="2581" d="M2036 1323 Q2155 1323 2256 1256 Q2350 1195 2395 1098 Q2434 1013 2434 921 Q2434 805 2367 704 Q2306 610 2209 566 Q2124 527 2036 527 Q1889 527 1777 623 Q1713 677 1676 756 Q1638 836 1638 925 Q1638 1091 1754 1207 Q1871 1323 2036 1323 Z M2034 1102 Q1961 1102 1915 1037 Q1879 987 1879 924 Q1879 854 1925 801 Q1970 747 2036 747 Q2098 747 2145 797 Q2193 848 2193 927 Q2193 1007 2136 1061 Q2093 1102 2034 1102 Z M147 0 L147 1544 L479 1544 L1122 502 L1122 1544 L1436 1544 L1436 0 L1104 0 L461 1042 L461 0 L147 0 Z M1638 171 L1638 377 L2434 377 L2434 171 L1638 171 Z " />
<glyph glyph-name="minus" unicode="&#x2212;" horiz-adv-x="1288" d="M92 598 L92 864 L1198 864 L1198 598 L92 598 Z " />
<glyph glyph-name="uni2215" unicode="&#x2215;" horiz-adv-x="289" d="M-393 -37 L442 1497 L682 1497 L-154 -37 L-393 -37 Z " />
<glyph glyph-name="uni2219" unicode="&#x2219;" horiz-adv-x="621" d="M137 561 L137 899 L483 899 L483 561 L137 561 Z " />
<glyph glyph-name="dotmath" unicode="&#x22c5;" horiz-adv-x="621" d="M137 561 L137 899 L483 899 L483 561 L137 561 Z " />
<glyph glyph-name="uniE815" unicode="&#xe815;" horiz-adv-x="510" d="" />
<glyph glyph-name="uniEA3E" unicode="&#xea3e;" horiz-adv-x="1182" d="M396 649 L812 649 L812 465 L391 465 Q423 205 619 205 Q734 205 795 292 Q831 343 844 416 L1137 342 Q1017 -37 614 -37 Q367 -37 227 102 Q76 252 76 534 Q76 786 207 942 Q353 1118 626 1118 Q902 1118 1027 967 Q1094 886 1124 760 L834 688 Q810 770 773 813 Q717 877 622 877 Q438 877 396 649 Z " />
<glyph glyph-name="uniEA3F" unicode="&#xea3f;" horiz-adv-x="588" d="M590 1169 L590 1544 L846 1544 L782 1169 L590 1169 Z " />
<glyph glyph-name="uniEA4F" unicode="&#xea4f;" horiz-adv-x="1315" d="M600 1272 L817 1544 L1030 1544 L876 1272 L600 1272 Z " />
<glyph glyph-name="uniEA66" unicode="&#xea66;" horiz-adv-x="799" d="M176 -393 L393 -121 L606 -121 L452 -393 L176 -393 Z " />
<glyph glyph-name="uniEA67" unicode="&#xea67;" horiz-adv-x="1298" d="M723 1169 L723 1544 L979 1544 L915 1169 L723 1169 Z " />
<glyph glyph-name="uniEA68" unicode="&#xea68;" horiz-adv-x="629" d="M-74 1661 L-74 1927 L192 1927 L192 1661 L-74 1661 Z M442 1661 L442 1927 L708 1927 L708 1661 L442 1661 Z " />
<glyph glyph-name="uniEA69" unicode="&#xea69;" horiz-adv-x="799" d="M176 -393 L393 -121 L606 -121 L452 -393 L176 -393 Z " />
<glyph glyph-name="uniEA6A" unicode="&#xea6a;" horiz-adv-x="588" d="M-94 1278 L-94 1544 L172 1544 L172 1278 L-94 1278 Z M422 1278 L422 1544 L688 1544 L688 1278 L422 1278 Z " />
<glyph glyph-name="Dotaccent" unicode="&#xefed;" horiz-adv-x="1399" d="M625 1657 L625 1929 L891 1929 L891 1657 L625 1657 Z " />
<glyph glyph-name="Breve" unicode="&#xefee;" horiz-adv-x="1554" d="M399 1935 L620 1935 Q625 1901 654 1872 Q701 1827 780 1827 Q920 1827 936 1935 L1157 1935 Q1152 1817 1071 1741 Q966 1643 777 1643 Q607 1643 504 1725 Q406 1803 399 1935 Z " />
<glyph glyph-name="Ogonek" unicode="&#xeff1;" horiz-adv-x="1554" d="M1280 0 L1439 0 Q1350 -74 1350 -153 Q1350 -229 1412 -229 Q1446 -229 1508 -200 L1508 -350 Q1437 -393 1358 -393 Q1284 -393 1236 -361 Q1158 -309 1158 -212 Q1158 -91 1280 0 Z " />
<glyph glyph-name="Cedilla" unicode="&#xeff2;" horiz-adv-x="1583" d="M481 -393 L698 -121 L911 -121 L757 -393 L481 -393 Z " />
<glyph glyph-name="Ring" unicode="&#xeff3;" horiz-adv-x="1567" d="M773 1955 Q915 1955 992 1868 Q1047 1806 1047 1715 Q1047 1615 974 1549 Q896 1480 772 1480 Q656 1480 581 1537 Q494 1603 494 1717 Q494 1831 581 1899 Q654 1955 773 1955 Z M768 1832 Q696 1832 658 1786 Q637 1760 637 1716 Q637 1667 669 1636 Q706 1602 769 1602 Q832 1602 870 1636 Q903 1667 903 1719 Q903 1771 866 1802 Q829 1832 768 1832 Z " />
<glyph glyph-name="Tilde" unicode="&#xeff5;" horiz-adv-x="1554" d="M526 1653 L352 1692 Q407 1954 602 1954 Q676 1954 774 1901 L842 1864 Q891 1837 922 1837 Q982 1837 1004 1935 L1178 1897 Q1123 1634 925 1634 Q886 1634 851 1644 Q817 1654 737 1698 L688 1725 Q640 1751 612 1751 Q549 1751 526 1653 Z " />
<glyph glyph-name="Circumflex" unicode="&#xeff7;" horiz-adv-x="1554" d="M350 1658 L618 1930 L925 1930 L1194 1658 L913 1658 L772 1781 L631 1658 L350 1658 Z " />
<glyph glyph-name="uniF080" unicode="&#xf080;" horiz-adv-x="1661" d="M1620 879 L1620 703 L43 703 L43 879 L1620 879 Z " />
<glyph glyph-name="uniF081" unicode="&#xf081;" horiz-adv-x="1024" d="M291 0 L590 1542 L740 1542 L445 0 L291 0 Z " />
<glyph glyph-name="uniF082" unicode="&#xf082;" horiz-adv-x="3488" d="M6 6 L448 1550 L661 1550 L1106 6 L913 6 L807 389 L278 389 L170 6 L6 6 Z M313 545 L766 545 L545 1368 L313 545 Z M2158 1120 L1970 1090 Q1942 1228 1893 1306 Q1819 1423 1682 1423 Q1506 1423 1419 1230 Q1352 1082 1352 760 Q1352 452 1425 303 Q1508 133 1676 133 Q1860 133 1937 324 Q1969 403 1986 532 L2173 512 Q2134 255 2028 125 Q1902 -27 1676 -27 Q1159 -27 1159 762 Q1159 1180 1296 1381 Q1433 1581 1689 1581 Q2082 1581 2158 1120 Z M3348 1120 L3162 1090 Q3132 1228 3085 1306 Q3012 1423 2874 1423 Q2542 1423 2542 758 Q2542 133 2869 133 Q3050 133 3128 324 Q3161 406 3178 532 L3365 512 Q3283 -27 2866 -27 Q2650 -27 2521 120 Q2349 317 2349 761 Q2349 1173 2488 1381 Q2622 1581 2880 1581 Q3134 1581 3250 1403 Q3319 1298 3348 1120 Z " />
<glyph glyph-name="uniF083" unicode="&#xf083;" horiz-adv-x="3578" d="M84 0 L84 1546 L284 1546 L846 332 L846 1546 L1026 1546 L1026 0 L823 0 L264 1210 L264 0 L84 0 Z M2243 1116 L2054 1081 Q2026 1221 1977 1300 Q1903 1419 1764 1419 Q1582 1419 1498 1226 Q1428 1067 1428 754 Q1428 129 1759 129 Q1945 129 2021 319 Q2053 398 2071 530 L2261 512 Q2217 247 2113 121 Q1988 -31 1758 -31 Q1233 -31 1233 757 Q1233 1164 1374 1375 Q1509 1577 1770 1577 Q2174 1577 2243 1116 Z M2947 1577 Q3215 1577 3356 1378 Q3502 1171 3502 772 Q3502 375 3356 168 Q3215 -31 2945 -31 Q2708 -31 2570 129 Q2394 335 2394 772 Q2394 1171 2541 1378 Q2681 1577 2947 1577 Z M2947 1419 Q2767 1419 2674 1244 Q2584 1075 2584 771 Q2584 468 2674 301 Q2767 129 2946 129 Q3108 129 3199 267 Q3307 432 3307 771 Q3307 1079 3219 1244 Q3125 1419 2947 1419 Z " />
<glyph glyph-name="uniF084" unicode="&#xf084;" horiz-adv-x="2132" d="M615 -965 L375 -743 L887 -158 L455 -4 L1821 764 L1405 -754 L1141 -365 L615 -965 Z " />
<glyph glyph-name="uniF085" unicode="&#xf085;" horiz-adv-x="45" d="M139 35 L139 1374 L4217 1374 L4217 35 L139 35 Z " />
<glyph glyph-name="uniF086" unicode="&#xf086;" horiz-adv-x="4352" d="M4139 1335 L135 1335 L135 74 L4139 74 L4139 1335 Z M4212 1409 L4212 0 L61 0 L61 1409 L4212 1409 Z " />
<glyph glyph-name="uniF087" unicode="&#xf087;" horiz-adv-x="1096" d="M59 414 L239 451 Q257 318 303 245 Q379 125 544 125 Q702 125 773 215 Q823 280 823 393 Q823 612 596 682 L436 731 Q254 787 173 888 Q90 991 90 1156 Q90 1297 155 1401 Q265 1579 534 1579 Q750 1579 863 1460 Q955 1362 991 1192 L821 1143 Q758 1425 528 1425 Q270 1425 270 1158 Q270 962 501 893 L680 840 Q812 800 886 735 Q1011 625 1011 407 Q1011 200 900 90 Q779 -31 547 -31 Q319 -31 200 89 Q102 188 59 414 Z " />
<glyph glyph-name="uniF088" unicode="&#xf088;" horiz-adv-x="4164" d="M59 418 L239 453 Q256 324 302 249 Q376 129 542 129 Q821 129 821 396 Q821 619 594 686 L434 733 Q258 785 172 889 Q90 987 90 1155 Q90 1297 155 1402 Q262 1577 532 1577 Q748 1577 862 1458 Q951 1366 987 1190 L819 1145 Q792 1260 745 1323 Q670 1423 527 1423 Q380 1423 314 1332 Q270 1271 270 1160 Q270 1060 327 993 Q378 935 499 897 L677 842 Q808 801 882 736 Q1009 622 1009 411 Q1009 204 897 93 Q777 -27 545 -27 Q321 -27 198 93 Q102 187 59 418 Z M1138 -387 L1138 1085 L1310 1085 L1312 948 Q1349 1025 1400 1062 Q1470 1114 1579 1114 Q1755 1114 1838 959 Q1916 811 1916 555 Q1916 285 1831 138 Q1736 -27 1558 -27 Q1399 -27 1316 125 L1316 -387 L1138 -387 Z M1526 973 Q1310 973 1310 536 Q1310 339 1358 234 Q1412 116 1520 116 Q1614 116 1669 203 Q1730 299 1730 549 Q1730 757 1683 864 Q1635 973 1526 973 Z M2434 1114 Q2634 1114 2738 961 Q2836 817 2836 544 Q2836 276 2738 128 Q2635 -27 2433 -27 Q2255 -27 2154 99 Q2035 249 2035 544 Q2035 816 2132 961 Q2234 1114 2434 1114 Z M2431 967 Q2213 967 2213 545 Q2213 123 2435 123 Q2656 123 2656 553 Q2656 967 2431 967 Z M2967 4 L2967 1085 L3139 1085 L3141 915 Q3155 963 3196 1012 Q3266 1095 3361 1095 Q3401 1095 3442 1085 L3426 928 Q3392 934 3350 934 Q3283 934 3237 891 Q3141 801 3141 551 L3141 4 L2967 4 Z M3690 935 L3575 935 L3575 1085 L3690 1085 L3690 1391 L3864 1391 L3864 1085 L4042 1085 L4042 935 L3864 935 L3864 264 Q3864 193 3888 163 Q3910 133 3966 133 Q4014 133 4054 147 L4067 2 Q4001 -16 3911 -16 Q3690 -16 3690 237 L3690 935 Z " />
<glyph glyph-name="uniF089" unicode="&#xf089;" horiz-adv-x="2095" d="M59 418 L239 453 Q256 324 302 249 Q376 129 542 129 Q821 129 821 396 Q821 619 594 686 L434 733 Q258 785 172 889 Q90 987 90 1155 Q90 1297 155 1402 Q262 1577 532 1577 Q748 1577 862 1458 Q951 1366 987 1190 L819 1145 Q792 1260 745 1323 Q670 1423 527 1423 Q380 1423 314 1332 Q270 1271 270 1160 Q270 1060 327 993 Q378 935 499 897 L677 842 Q808 801 882 736 Q1009 622 1009 411 Q1009 204 897 93 Q777 -27 545 -27 Q321 -27 198 93 Q102 187 59 418 Z M1155 4 L1155 1546 L1982 1546 L1982 1384 L1337 1384 L1337 870 L1947 870 L1947 708 L1337 708 L1337 166 L2011 166 L2011 4 L1155 4 Z " />
<glyph glyph-name="uniF08A" unicode="&#xf08a;" horiz-adv-x="6775" d="M60 414 L240 451 Q259 318 304 245 Q378 125 544 125 Q698 125 770 214 Q822 279 822 392 Q822 613 595 680 L435 727 Q261 778 173 885 Q91 983 91 1152 Q91 1293 156 1397 Q265 1573 534 1573 Q750 1573 863 1456 Q951 1365 988 1188 L820 1139 Q790 1257 747 1318 Q673 1420 528 1420 Q381 1420 316 1329 Q271 1267 271 1157 Q271 960 500 891 L678 838 Q806 800 883 732 Q1010 619 1010 407 Q1010 203 898 90 Q779 -31 543 -31 Q318 -31 199 89 Q103 187 60 414 Z M1156 0 L1156 1542 L1983 1542 L1983 1380 L1338 1380 L1338 864 L1948 864 L1948 708 L1338 708 L1338 162 L2012 162 L2012 0 L1156 0 Z M2163 0 L2462 1542 L2612 1542 L2317 0 L2163 0 Z M2681 414 L2860 451 Q2898 125 3165 125 Q3319 125 3391 214 Q3443 279 3443 392 Q3443 614 3216 680 L3054 727 Q2880 778 2793 885 Q2712 984 2712 1152 Q2712 1293 2776 1397 Q2886 1573 3155 1573 Q3369 1573 3483 1456 Q3567 1368 3609 1188 L3439 1139 Q3413 1253 3366 1318 Q3291 1420 3149 1420 Q3002 1420 2936 1329 Q2892 1267 2892 1157 Q2892 1056 2948 990 Q3002 927 3122 891 L3298 838 Q3427 799 3505 732 Q3630 625 3630 407 Q3630 201 3519 90 Q3399 -31 3163 -31 Q2939 -31 2821 89 Q2718 193 2681 414 Z M3761 -393 L3761 1081 L3933 1081 L3935 944 Q4017 1112 4201 1112 Q4375 1112 4460 954 Q4539 808 4539 550 Q4539 279 4447 134 Q4396 54 4334 12 Q4271 -31 4182 -31 Q4068 -31 3997 31 Q3959 63 3939 121 L3939 -393 L3761 -393 Z M4148 969 Q4038 969 3982 846 Q3933 737 3933 532 Q3933 112 4146 112 Q4355 112 4355 548 Q4355 969 4148 969 Z M5057 1112 Q5257 1112 5361 956 Q5459 809 5459 539 Q5459 272 5361 125 Q5257 -31 5057 -31 Q4880 -31 4777 97 Q4658 245 4658 539 Q4658 809 4755 956 Q4858 1112 5057 1112 Z M5055 960 Q4836 960 4836 540 Q4836 116 5058 116 Q5277 116 5277 547 Q5277 960 5055 960 Z M5588 0 L5588 1081 L5762 1081 L5766 911 Q5781 959 5818 1009 Q5881 1092 5983 1092 Q6020 1092 6063 1081 L6049 921 Q6011 928 5975 928 Q5899 928 5860 887 Q5766 787 5766 547 L5766 0 L5588 0 Z M6313 932 L6198 932 L6198 1081 L6313 1081 L6313 1389 L6487 1389 L6487 1081 L6665 1081 L6665 932 L6487 932 L6487 260 Q6487 190 6510 161 Q6533 132 6589 132 Q6637 132 6677 141 L6690 -2 Q6639 -20 6532 -20 Q6313 -20 6313 233 L6313 932 Z " />
<glyph glyph-name="uniF08B" unicode="&#xf08b;" horiz-adv-x="2157" d="M59 414 L239 451 Q256 321 302 245 Q376 125 542 125 Q697 125 769 214 Q821 280 821 393 Q821 613 594 680 L434 727 Q261 778 172 885 Q90 983 90 1152 Q90 1293 155 1397 Q264 1573 532 1573 Q749 1573 862 1456 Q950 1365 987 1188 L819 1139 Q794 1251 746 1317 Q671 1419 527 1419 Q380 1419 314 1328 Q270 1267 270 1154 Q270 959 499 891 L677 838 Q806 799 882 732 Q1009 618 1009 406 Q1009 203 897 90 Q778 -31 545 -31 Q317 -31 198 89 Q101 187 59 414 Z M1138 0 L1138 1542 L1619 1542 Q1831 1542 1927 1442 Q2016 1349 2016 1168 Q2016 943 1849 833 Q1945 792 1998 726 Q2076 626 2076 447 Q2076 202 1933 89 Q1818 0 1595 0 L1138 0 Z M1316 152 L1576 152 Q1722 152 1793 215 Q1877 291 1877 450 Q1877 637 1771 703 Q1710 741 1597 741 L1316 741 L1316 152 Z M1316 895 L1568 895 Q1823 895 1823 1143 Q1823 1275 1761 1333 Q1699 1390 1576 1390 L1316 1390 L1316 895 Z " />
<glyph glyph-name="uniF08C" unicode="&#xf08c;" horiz-adv-x="2193" d="M59 412 L239 446 Q257 318 302 243 Q376 123 542 123 Q697 123 769 212 Q821 278 821 390 Q821 611 594 678 L434 725 Q260 776 172 884 Q90 984 90 1149 Q90 1291 155 1395 Q264 1571 532 1571 Q749 1571 862 1454 Q950 1363 987 1186 L819 1139 Q792 1255 745 1317 Q670 1417 527 1417 Q270 1417 270 1152 Q270 957 499 889 L677 836 Q806 797 882 729 Q1009 617 1009 404 Q1009 198 897 87 Q777 -33 545 -33 Q318 -33 198 86 Q102 181 59 412 Z M2105 1141 L1923 1104 Q1892 1265 1824 1338 Q1752 1415 1628 1415 Q1457 1415 1370 1229 Q1292 1062 1292 749 Q1292 125 1625 125 Q1777 125 1860 234 Q1925 320 1925 467 L1925 612 L1757 612 L1757 766 L2107 766 L2107 -2 L1984 -2 L1954 156 Q1835 -33 1611 -33 Q1400 -33 1274 113 Q1102 314 1102 754 Q1102 1165 1243 1371 Q1380 1571 1639 1571 Q1888 1571 2001 1410 Q2071 1310 2105 1141 Z " />
<glyph glyph-name="uniF08D" unicode="&#xf08d;" horiz-adv-x="1612" d="M766 1907 L1018 1159 L1796 1159 L1178 692 L1454 -94 L766 393 L78 -94 L354 692 L-264 1159 L518 1159 L766 1907 Z " />
<glyph glyph-name="uniF08E" unicode="&#xf08e;" horiz-adv-x="1747" d="M1788 0 L-231 0 L779 1874 L1788 0 Z M1512 178 L781 1474 L50 178 L1512 178 Z " />
<glyph glyph-name="uniF08F" unicode="&#xf08f;" horiz-adv-x="1747" d="M1788 0 L-231 0 L779 1874 L1788 0 Z " />
<glyph glyph-name="uniF090" unicode="&#xf090;" horiz-adv-x="1622" d="M812 1444 Q1118 1444 1335 1228 Q1551 1013 1551 705 Q1551 465 1411 276 Q1184 -29 813 -29 Q506 -29 289 186 Q72 401 72 708 Q72 1021 289 1230 Q512 1444 812 1444 Z M812 1274 Q577 1274 409 1109 Q242 945 242 709 Q242 473 410 307 Q578 141 812 141 Q1047 141 1214 308 Q1381 475 1381 711 Q1381 897 1273 1041 Q1190 1151 1071 1214 Q955 1274 812 1274 Z " />
<glyph glyph-name="uniF091" unicode="&#xf091;" horiz-adv-x="1663" d="M41 1581 L1622 1581 L1622 0 L41 0 L41 1581 Z M1446 1405 L217 1405 L217 176 L1446 176 L1446 1405 Z " />
<glyph glyph-name="uniF092" unicode="&#xf092;" horiz-adv-x="1622" d="M811 1447 Q1116 1447 1332 1230 Q1548 1015 1548 710 Q1548 406 1332 189 Q1117 -29 812 -29 Q505 -29 289 187 Q72 402 72 713 Q72 959 212 1146 Q319 1288 475 1369 Q626 1447 811 1447 Z " />
<glyph glyph-name="uniF093" unicode="&#xf093;" horiz-adv-x="2091" d="M-61 831 L1057 1950 L2175 811 L1057 -307 L-61 831 Z " />
<glyph glyph-name="uniF094" unicode="&#xf094;" horiz-adv-x="1663" d="M41 1581 L1622 1581 L1622 0 L41 0 L41 1581 Z " />
<glyph glyph-name="uniF095" unicode="&#xf095;" horiz-adv-x="2091" d="M-61 811 L1057 1929 L2175 811 L1057 -307 L-61 811 Z M1057 1679 L189 811 L1057 -57 L1926 811 L1057 1679 Z " />
<glyph glyph-name="Acute" unicode="&#xf6c9;" horiz-adv-x="1554" d="M631 1658 L867 1930 L1215 1930 L906 1658 L631 1658 Z " />
<glyph glyph-name="Caron" unicode="&#xf6ca;" horiz-adv-x="1485" d="M583 1659 L315 1931 L596 1931 L737 1808 L878 1931 L1159 1931 L891 1659 L583 1659 Z " />
<glyph glyph-name="Dieresis" unicode="&#xf6cb;" horiz-adv-x="1554" d="M387 1661 L387 1927 L653 1927 L653 1661 L387 1661 Z M903 1661 L903 1927 L1169 1927 L1169 1661 L903 1661 Z " />
<glyph glyph-name="Grave" unicode="&#xf6ce;" horiz-adv-x="1554" d="M671 1658 L362 1930 L710 1930 L946 1658 L671 1658 Z " />
<glyph glyph-name="Hungarumlaut" unicode="&#xf6cf;" horiz-adv-x="1690" d="M522 1659 L676 1931 L952 1931 L725 1659 L522 1659 Z M942 1659 L1095 1931 L1372 1931 L1145 1659 L942 1659 Z " />
<glyph glyph-name="Macron" unicode="&#xf6d0;" horiz-adv-x="1554" d="M340 1686 L340 1892 L1198 1892 L1198 1686 L340 1686 Z " />
<glyph glyph-name="uniFB50" unicode="&#xfb50;" horiz-adv-x="510" d="" />
<glyph glyph-name="uniFB51" unicode="&#xfb51;" horiz-adv-x="510" d="" />
<glyph glyph-name="uniFB52" unicode="&#xfb52;" horiz-adv-x="510" d="" />
<glyph glyph-name="uniFB53" unicode="&#xfb53;" horiz-adv-x="510" d="" />
<glyph glyph-name="uniFB54" unicode="&#xfb54;" horiz-adv-x="510" d="" />
<glyph glyph-name="uniFB55" unicode="&#xfb55;" horiz-adv-x="510" d="" />
<glyph glyph-name="uniFB56" unicode="&#xfb56;" horiz-adv-x="510" d="" />
<glyph glyph-name="uniFB57" unicode="&#xfb57;" horiz-adv-x="510" d="" />
<glyph glyph-name="uniFB58" unicode="&#xfb58;" horiz-adv-x="510" d="" />
<glyph glyph-name="uniFB59" unicode="&#xfb59;" horiz-adv-x="510" d="" />
<glyph glyph-name="uniFB5A" unicode="&#xfb5a;" horiz-adv-x="510" d="" />
<glyph glyph-name="uniFB5B" unicode="&#xfb5b;" horiz-adv-x="510" d="" />
<glyph glyph-name="uniFB5C" unicode="&#xfb5c;" horiz-adv-x="510" d="" />
<glyph glyph-name="uniFB5D" unicode="&#xfb5d;" horiz-adv-x="510" d="" />
<glyph glyph-name="uniFB5E" unicode="&#xfb5e;" horiz-adv-x="510" d="" />
<glyph glyph-name="uniFB5F" unicode="&#xfb5f;" horiz-adv-x="510" d="" />
<glyph glyph-name="uniFB60" unicode="&#xfb60;" horiz-adv-x="510" d="" />
<glyph glyph-name="uniFB61" unicode="&#xfb61;" horiz-adv-x="510" d="" />
<glyph glyph-name="uniFB62" unicode="&#xfb62;" horiz-adv-x="510" d="" />
<glyph glyph-name="uniFB63" unicode="&#xfb63;" horiz-adv-x="510" d="" />
<glyph glyph-name="uniFB64" unicode="&#xfb64;" horiz-adv-x="510" d="" />
<glyph glyph-name="uniFB65" unicode="&#xfb65;" horiz-adv-x="510" d="" />
<glyph glyph-name="uniFB66" unicode="&#xfb66;" horiz-adv-x="510" d="" />
<glyph glyph-name="uniFB67" unicode="&#xfb67;" horiz-adv-x="510" d="" />
<glyph glyph-name="uniFB68" unicode="&#xfb68;" horiz-adv-x="510" d="" />
<glyph glyph-name="uniFB69" unicode="&#xfb69;" horiz-adv-x="510" d="" />
<glyph glyph-name="uniFB6A" unicode="&#xfb6a;" horiz-adv-x="510" d="" />
<glyph glyph-name="uniFB6B" unicode="&#xfb6b;" horiz-adv-x="510" d="" />
<glyph glyph-name="uniFB6C" unicode="&#xfb6c;" horiz-adv-x="510" d="" />
<glyph glyph-name="uniFB6D" unicode="&#xfb6d;" horiz-adv-x="510" d="" />
<glyph glyph-name="uniFB6E" unicode="&#xfb6e;" horiz-adv-x="510" d="" />
<glyph glyph-name="uniFB6F" unicode="&#xfb6f;" horiz-adv-x="510" d="" />
<glyph glyph-name="uniFB70" unicode="&#xfb70;" horiz-adv-x="510" d="" />
<glyph glyph-name="uniFB71" unicode="&#xfb71;" horiz-adv-x="510" d="" />
<glyph glyph-name="uniFB72" unicode="&#xfb72;" horiz-adv-x="510" d="" />
<glyph glyph-name="uniFB73" unicode="&#xfb73;" horiz-adv-x="510" d="" />
<glyph glyph-name="uniFB74" unicode="&#xfb74;" horiz-adv-x="510" d="" />
<glyph glyph-name="uniFB75" unicode="&#xfb75;" horiz-adv-x="510" d="" />
<glyph glyph-name="uniFB76" unicode="&#xfb76;" horiz-adv-x="510" d="" />
<glyph glyph-name="uniFB77" unicode="&#xfb77;" horiz-adv-x="510" d="" />
<glyph glyph-name="uniFB78" unicode="&#xfb78;" horiz-adv-x="510" d="" />
<glyph glyph-name="uniFB79" unicode="&#xfb79;" horiz-adv-x="510" d="" />
<glyph glyph-name="uniFB7A" unicode="&#xfb7a;" horiz-adv-x="510" d="" />
<glyph glyph-name="uniFB7B" unicode="&#xfb7b;" horiz-adv-x="510" d="" />
<glyph glyph-name="uniFB7C" unicode="&#xfb7c;" horiz-adv-x="510" d="" />
<glyph glyph-name="uniFB7D" unicode="&#xfb7d;" horiz-adv-x="510" d="" />
<glyph glyph-name="uniFB7E" unicode="&#xfb7e;" horiz-adv-x="510" d="" />
<glyph glyph-name="uniFB7F" unicode="&#xfb7f;" horiz-adv-x="510" d="" />
<glyph glyph-name="uniFB80" unicode="&#xfb80;" horiz-adv-x="510" d="" />
<glyph glyph-name="uniFB81" unicode="&#xfb81;" horiz-adv-x="510" d="" />
<glyph glyph-name="uniFB82" unicode="&#xfb82;" horiz-adv-x="510" d="" />
<glyph glyph-name="uniFB83" unicode="&#xfb83;" horiz-adv-x="510" d="" />
<glyph glyph-name="uniFB84" unicode="&#xfb84;" horiz-adv-x="510" d="" />
<glyph glyph-name="uniFB85" unicode="&#xfb85;" horiz-adv-x="510" d="" />
<glyph glyph-name="uniFB86" unicode="&#xfb86;" horiz-adv-x="510" d="" />
<glyph glyph-name="uniFB87" unicode="&#xfb87;" horiz-adv-x="510" d="" />
<glyph glyph-name="uniFB88" unicode="&#xfb88;" horiz-adv-x="510" d="" />
</font>
</svg>
