<?xml version="1.0" encoding="UTF-8"?>
<svg xmlns="http://www.w3.org/2000/svg" xmlns:xlink="http://www.w3.org/1999/xlink" version="1.2" >
<font id="BMW Group Regular">
<font-face  font-family="BMW Group" units-per-em="2048" ascent="1544" descent="-395" font-style="normal" font-weight="400" font-stretch="normal" cap-height="1544" x-height="1081" underline-position="-204" underline-thickness="100" />
<missing-glyph  horiz-adv-x="485" d="M49 0 L49 1544 L436 1544 L436 0 L49 0 Z M387 49 L387 1495 L98 1495 L98 49 L387 49 Z " />
<glyph glyph-name="space" unicode="&#x20;" horiz-adv-x="485" d="" />
<glyph glyph-name="exclam" unicode="&#x21;" horiz-adv-x="608" d="M188 0 L188 276 L418 276 L418 0 L188 0 Z M221 518 L193 1241 L193 1544 L416 1544 L416 1241 L387 518 L221 518 Z " />
<glyph glyph-name="quotedbl" unicode="&#x22;" horiz-adv-x="938" d="M197 905 L147 1362 L147 1544 L377 1544 L377 1362 L330 905 L197 905 Z M610 905 L561 1362 L561 1544 L791 1544 L791 1362 L741 905 L610 905 Z " />
<glyph glyph-name="numbersign" unicode="&#x23;" horiz-adv-x="1446" d="M236 0 L330 383 L113 383 L113 537 L367 537 L461 926 L246 926 L246 1079 L498 1079 L592 1460 L745 1460 L653 1079 L963 1079 L1057 1460 L1210 1460 L1118 1079 L1331 1079 L1331 926 L1081 926 L987 537 L1198 537 L1198 383 L950 383 L856 0 L700 0 L795 383 L485 383 L391 0 L236 0 Z M522 537 L831 537 L926 926 L616 926 L522 537 Z " />
<glyph glyph-name="dollar" unicode="&#x24;" horiz-adv-x="1372" d="M629 -190 L629 -33 Q379 -17 244 103 Q134 200 78 408 L262 453 Q299 317 363 248 Q456 146 629 127 L629 707 L526 727 Q320 767 212 887 Q119 989 119 1146 Q119 1356 280 1472 Q411 1566 629 1579 L629 1702 L760 1702 L760 1579 Q995 1556 1118 1436 Q1208 1348 1253 1196 L1079 1135 Q1028 1277 958 1338 Q884 1403 760 1419 L760 864 L885 840 Q1080 802 1171 707 Q1276 597 1276 414 Q1276 201 1126 84 Q997 -17 760 -33 L760 -190 L629 -190 Z M760 127 Q1077 156 1077 398 Q1077 615 817 670 L760 682 L760 127 Z M629 891 L629 1421 Q478 1411 398 1348 Q311 1279 311 1158 Q311 947 584 899 L629 891 Z " />
<glyph glyph-name="percent" unicode="&#x25;" horiz-adv-x="2017" d="M549 -37 L1292 1497 L1464 1497 L721 -37 L549 -37 Z M1579 885 Q1942 885 1942 419 Q1942 -37 1580 -37 Q1219 -37 1219 426 Q1219 885 1579 885 Z M1580 748 Q1389 748 1389 425 Q1389 100 1577 100 Q1772 100 1772 423 Q1772 748 1580 748 Z M433 1497 Q799 1497 799 1030 Q799 812 710 696 Q617 575 438 575 Q74 575 74 1035 Q74 1497 433 1497 Z M435 1360 Q246 1360 246 1036 Q246 713 433 713 Q629 713 629 1033 Q629 1360 435 1360 Z " />
<glyph glyph-name="ampersand" unicode="&#x26;" horiz-adv-x="1415" d="M418 889 Q321 1003 293 1058 Q252 1139 252 1221 Q252 1388 382 1483 Q490 1561 663 1561 Q788 1561 888 1507 Q1057 1416 1057 1230 Q1057 1078 926 972 Q843 904 694 840 L1059 408 Q1138 504 1253 707 L1397 627 Q1301 438 1163 283 L1403 0 L1161 0 L1030 156 Q801 -37 564 -37 Q370 -37 234 68 Q68 196 68 414 Q68 589 171 713 Q255 812 418 889 Z M928 279 L520 764 Q381 698 317 617 Q256 538 256 419 Q256 293 350 207 Q440 125 574 125 Q763 125 928 279 Z M588 952 Q698 996 766 1041 Q883 1120 883 1232 Q883 1321 803 1375 Q740 1417 649 1417 Q550 1417 493 1365 Q436 1314 436 1229 Q436 1156 494 1067 Q518 1031 552 991 Q586 951 588 952 Z " />
<glyph glyph-name="quotesingle" unicode="&#x27;" horiz-adv-x="520" d="M195 905 L145 1362 L145 1544 L375 1544 L375 1362 L326 905 L195 905 Z " />
<glyph glyph-name="parenleft" unicode="&#x28;" horiz-adv-x="604" d="M424 -399 Q80 4 80 578 Q80 1147 424 1554 L557 1473 Q455 1326 387 1143 Q283 863 283 579 Q283 348 355 106 Q425 -129 557 -315 L424 -399 Z " />
<glyph glyph-name="parenright" unicode="&#x29;" horiz-adv-x="604" d="M180 -399 L47 -315 Q159 -153 232 51 Q324 307 324 584 Q324 875 210 1165 Q143 1334 47 1473 L180 1554 Q524 1148 524 580 Q524 12 180 -399 Z " />
<glyph glyph-name="asterisk" unicode="&#x2a;" horiz-adv-x="1008" d="M430 725 L436 1020 L182 866 L111 989 L367 1135 L111 1278 L182 1403 L436 1249 L430 1544 L578 1544 L571 1249 L825 1403 L897 1278 L641 1135 L897 989 L825 866 L571 1020 L578 725 L430 725 Z " />
<glyph glyph-name="plus" unicode="&#x2b;" horiz-adv-x="1227" d="M526 178 L526 649 L66 649 L66 813 L526 813 L526 1284 L700 1284 L700 813 L1161 813 L1161 649 L700 649 L700 178 L526 178 Z " />
<glyph glyph-name="comma" unicode="&#x2c;" horiz-adv-x="520" d="M180 -395 L98 -313 Q168 -240 197 -190 Q244 -112 244 -27 L244 0 L141 0 L141 281 L379 281 L379 14 Q379 -215 180 -395 Z " />
<glyph glyph-name="hyphen" unicode="&#x2d;" horiz-adv-x="838" d="M115 440 L115 643 L721 643 L721 440 L115 440 Z " />
<glyph glyph-name="period" unicode="&#x2e;" horiz-adv-x="520" d="M141 0 L141 281 L379 281 L379 0 L141 0 Z " />
<glyph glyph-name="slash" unicode="&#x2f;" horiz-adv-x="545" d="M0 0 L381 1544 L545 1544 L164 0 L0 0 Z " />
<glyph glyph-name="zero" unicode="0" horiz-adv-x="1227" d="M612 1544 Q1147 1544 1147 753 Q1147 -37 614 -37 Q80 -37 80 753 Q80 1544 612 1544 Z M612 1382 Q285 1382 285 754 Q285 125 610 125 Q773 125 857 272 Q942 420 942 763 Q942 1382 612 1382 Z " />
<glyph glyph-name="one" unicode="1" horiz-adv-x="1227" d="M629 0 L629 1282 Q476 1162 291 1063 L211 1208 Q464 1351 643 1507 L824 1507 L824 0 L629 0 Z " />
<glyph glyph-name="two" unicode="2" horiz-adv-x="1227" d="M99 0 L99 78 Q99 275 284 458 Q345 518 406 562 Q413 567 574 675 Q717 771 780 835 Q900 958 900 1106 Q900 1231 824 1307 Q749 1382 614 1382 Q355 1382 288 1067 L97 1102 Q141 1281 231 1386 Q369 1544 628 1544 Q911 1544 1038 1356 Q1107 1254 1107 1102 Q1107 884 924 718 Q849 649 611 489 Q474 397 411 330 Q340 254 318 172 L1119 172 L1119 0 L99 0 Z " />
<glyph glyph-name="three" unicode="3" horiz-adv-x="1227" d="M85 416 L277 438 Q291 289 363 211 Q442 125 604 125 Q750 125 835 189 Q933 263 933 404 Q933 585 785 650 Q698 688 543 690 L543 854 Q908 870 908 1137 Q908 1244 851 1307 Q776 1389 619 1389 Q355 1389 306 1108 L117 1135 Q193 1544 629 1544 Q880 1544 1006 1421 Q1113 1317 1113 1151 Q1113 884 816 776 Q1139 728 1139 410 Q1139 219 1016 96 Q882 -37 605 -37 Q346 -37 212 98 Q99 212 85 416 Z " />
<glyph glyph-name="four" unicode="4" horiz-adv-x="1227" d="M783 0 L783 334 L84 334 L84 502 L771 1507 L973 1507 L973 489 L1143 489 L1143 334 L973 334 L973 0 L783 0 Z M267 489 L781 489 L781 1251 L267 489 Z " />
<glyph glyph-name="five" unicode="5" horiz-adv-x="1227" d="M97 311 L284 367 Q310 258 370 199 Q447 123 592 123 Q759 123 839 248 Q898 341 898 492 Q898 674 804 770 Q724 852 593 852 Q407 852 304 705 L144 729 L275 1507 L1054 1507 L1054 1339 L419 1339 L345 905 Q463 1006 646 1006 Q826 1006 950 902 Q1103 774 1103 509 Q1103 256 971 112 Q834 -37 591 -37 Q400 -37 279 44 Q200 96 156 171 Q125 224 97 311 Z " />
<glyph glyph-name="six" unicode="6" horiz-adv-x="1227" d="M1105 1264 L925 1198 Q892 1286 836 1331 Q767 1386 653 1386 Q490 1386 400 1248 Q309 1107 292 782 Q411 981 676 981 Q882 981 1005 858 Q1134 729 1134 486 Q1134 250 1001 111 Q860 -37 617 -37 Q298 -37 169 213 Q79 386 79 701 Q79 1148 253 1362 Q401 1544 663 1544 Q891 1544 1007 1427 Q1069 1363 1105 1264 Z M625 825 Q469 825 380 719 Q300 623 300 466 Q300 313 379 217 Q464 113 612 113 Q744 113 829 194 Q931 292 931 474 Q931 638 851 732 Q771 825 625 825 Z " />
<glyph glyph-name="seven" unicode="7" horiz-adv-x="1227" d="M322 0 Q398 381 544 692 Q679 981 940 1331 L138 1331 L138 1507 L1131 1507 L1131 1311 Q891 996 763 719 Q620 413 535 0 L322 0 Z " />
<glyph glyph-name="eight" unicode="8" horiz-adv-x="1227" d="M319 782 Q104 895 104 1127 Q104 1311 228 1422 Q364 1544 612 1544 Q862 1544 998 1422 Q1122 1311 1122 1127 Q1122 895 907 782 Q1171 671 1171 402 Q1171 266 1093 158 Q1018 52 885 7 Q758 -37 611 -37 Q365 -37 218 71 Q55 190 55 408 Q55 673 319 782 Z M607 705 Q442 705 350 621 Q264 543 264 411 Q264 278 349 201 Q440 117 611 117 Q769 117 860 186 Q963 264 963 412 Q963 559 855 639 Q766 705 607 705 Z M608 1393 Q459 1393 378 1315 Q303 1244 303 1120 Q303 995 378 924 Q459 846 609 846 Q759 846 844 918 Q924 987 924 1124 Q924 1257 832 1330 Q752 1393 608 1393 Z " />
<glyph glyph-name="nine" unicode="9" horiz-adv-x="1227" d="M128 227 L302 299 Q370 121 574 121 Q706 121 791 210 Q918 341 935 727 Q881 638 796 587 Q691 524 555 524 Q345 524 222 651 Q93 785 93 1021 Q93 1256 224 1395 Q365 1544 612 1544 Q915 1544 1048 1313 Q1148 1140 1148 802 Q1148 364 978 147 Q834 -37 575 -37 Q222 -37 128 227 Z M611 1395 Q465 1395 379 1296 Q296 1198 296 1033 Q296 868 375 775 Q456 680 598 680 Q748 680 839 780 Q924 874 924 1047 Q924 1220 823 1318 Q743 1395 611 1395 Z " />
<glyph glyph-name="colon" unicode="&#x3a;" horiz-adv-x="520" d="M141 0 L141 281 L379 281 L379 0 L141 0 Z M141 801 L141 1081 L379 1081 L379 801 L141 801 Z " />
<glyph glyph-name="semicolon" unicode="&#x3b;" horiz-adv-x="520" d="M180 -395 L98 -313 Q168 -240 197 -190 Q244 -112 244 -27 L244 0 L141 0 L141 281 L379 281 L379 14 Q379 -215 180 -395 Z M141 801 L141 1081 L379 1081 L379 801 L141 801 Z " />
<glyph glyph-name="less" unicode="&#x3c;" horiz-adv-x="1227" d="M1161 178 L66 647 L66 815 L1161 1284 L1161 1110 L283 731 L1161 352 L1161 178 Z " />
<glyph glyph-name="equal" unicode="&#x3d;" horiz-adv-x="1227" d="M66 412 L66 580 L1161 580 L1161 412 L66 412 Z M66 883 L66 1051 L1161 1051 L1161 883 L66 883 Z " />
<glyph glyph-name="greater" unicode="&#x3e;" horiz-adv-x="1227" d="M66 178 L66 352 L944 731 L66 1110 L66 1284 L1161 815 L1161 647 L66 178 Z " />
<glyph glyph-name="question" unicode="&#x3f;" horiz-adv-x="1116" d="M389 0 L389 276 L618 276 L618 0 L389 0 Z M410 502 L410 645 Q410 714 438 761 Q446 776 450 779 Q452 781 454 783 Q457 787 458 787 Q459 788 460 790 Q470 803 489 816 Q496 821 504 829 Q522 846 620 908 Q721 973 762 1031 Q811 1100 811 1190 Q811 1425 545 1425 Q364 1425 292 1298 Q264 1247 246 1167 L59 1194 Q136 1581 555 1581 Q786 1581 909 1467 Q1016 1367 1016 1197 Q1016 1017 874 886 Q816 833 740 786 Q711 768 676 739 Q650 719 623 687 Q600 660 600 602 L600 502 L410 502 Z " />
<glyph glyph-name="at" unicode="&#x40;" horiz-adv-x="1909" d="M1096 477 Q1044 415 990 382 Q906 330 783 330 Q630 330 546 422 Q467 509 467 657 Q467 789 527 920 Q592 1062 707 1148 Q822 1235 961 1235 Q1140 1235 1214 1102 L1237 1204 L1409 1204 L1280 635 Q1266 573 1266 539 Q1266 459 1365 459 Q1512 459 1596 588 Q1667 697 1667 864 Q1667 1097 1497 1262 Q1288 1464 961 1464 Q644 1464 444 1270 Q244 1076 244 764 Q244 384 524 198 Q698 82 985 82 Q1193 82 1362 141 L1405 12 Q1216 -53 983 -53 Q692 -53 498 50 Q352 128 254 258 Q96 468 96 765 Q96 1079 285 1305 Q529 1597 965 1597 Q1335 1597 1587 1368 Q1717 1249 1775 1089 Q1815 979 1815 858 Q1815 622 1686 477 Q1554 328 1323 328 Q1205 328 1151 377 Q1110 414 1096 477 Z M975 1098 Q844 1098 753 978 Q701 908 674 809 Q651 728 651 664 Q651 467 831 467 Q925 467 998 524 Q1086 593 1130 732 Q1157 817 1157 886 Q1157 995 1104 1049 Q1056 1098 975 1098 Z " />
<glyph glyph-name="A" unicode="A" horiz-adv-x="1427" d="M0 0 L582 1544 L846 1544 L1427 0 L1206 0 L1069 379 L338 379 L199 0 L0 0 Z M406 557 L1004 557 L707 1372 L406 557 Z " />
<glyph glyph-name="B" unicode="B" horiz-adv-x="1442" d="M152 0 L152 1544 L797 1544 Q1055 1544 1177 1436 Q1284 1340 1284 1166 Q1284 939 1087 834 Q1204 794 1267 727 Q1358 628 1358 453 Q1358 0 770 0 L152 0 Z M356 172 L758 172 Q941 172 1033 232 Q1139 301 1139 454 Q1139 630 1008 695 Q932 733 780 733 L356 733 L356 172 Z M356 905 L745 905 Q1067 905 1067 1140 Q1067 1273 976 1328 Q902 1372 760 1372 L356 1372 L356 905 Z " />
<glyph glyph-name="C" unicode="C" horiz-adv-x="1505" d="M1415 1110 L1206 1059 Q1167 1196 1107 1269 Q997 1403 790 1403 Q551 1403 425 1214 Q313 1046 313 752 Q313 470 432 310 Q558 141 787 141 Q953 141 1069 234 Q1190 330 1225 549 L1438 518 Q1386 280 1270 152 Q1097 -37 782 -37 Q500 -37 324 126 Q96 336 96 758 Q96 1145 281 1363 Q466 1581 796 1581 Q1297 1581 1415 1110 Z " />
<glyph glyph-name="D" unicode="D" horiz-adv-x="1499" d="M152 0 L152 1544 L639 1544 Q1022 1544 1212 1355 Q1403 1164 1403 769 Q1403 566 1337 391 Q1270 211 1102 107 Q1010 51 869 22 Q758 0 639 0 L152 0 Z M360 178 L649 178 Q926 178 1063 349 Q1184 499 1184 778 Q1184 1054 1065 1200 Q930 1366 653 1366 L360 1366 L360 178 Z " />
<glyph glyph-name="E" unicode="E" horiz-adv-x="1337" d="M152 0 L152 1544 L1225 1544 L1225 1360 L360 1360 L360 879 L1180 879 L1180 694 L360 694 L360 184 L1260 184 L1260 0 L152 0 Z " />
<glyph glyph-name="F" unicode="F" horiz-adv-x="1274" d="M152 0 L152 1544 L1223 1544 L1223 1360 L360 1360 L360 885 L1135 885 L1135 700 L360 700 L360 0 L152 0 Z " />
<glyph glyph-name="G" unicode="G" horiz-adv-x="1528" d="M1411 1139 L1208 1087 Q1170 1207 1120 1268 Q1009 1403 788 1403 Q555 1403 428 1214 Q313 1045 313 753 Q313 471 432 311 Q557 143 786 143 Q966 143 1082 229 Q1208 321 1208 473 L1208 606 L958 606 L958 778 L1415 778 L1415 0 L1280 0 L1241 162 Q1069 -37 772 -37 Q497 -37 323 124 Q96 334 96 757 Q96 1143 283 1363 Q470 1581 801 1581 Q1291 1581 1411 1139 Z " />
<glyph glyph-name="H" unicode="H" horiz-adv-x="1528" d="M152 0 L152 1544 L360 1544 L360 911 L1167 911 L1167 1544 L1376 1544 L1376 0 L1167 0 L1167 723 L360 723 L360 0 L152 0 Z " />
<glyph glyph-name="I" unicode="I" horiz-adv-x="510" d="M152 0 L152 1544 L360 1544 L360 0 L152 0 Z " />
<glyph glyph-name="J" unicode="J" horiz-adv-x="1178" d="M55 444 L256 467 Q290 135 540 135 Q694 135 763 228 Q829 317 829 489 L829 1544 L1038 1544 L1038 494 Q1038 -37 550 -37 Q100 -37 55 444 Z " />
<glyph glyph-name="K" unicode="K" horiz-adv-x="1407" d="M152 0 L152 1544 L360 1544 L360 829 L1077 1544 L1333 1544 L739 948 L1415 0 L1145 0 L592 799 L360 567 L360 0 L152 0 Z " />
<glyph glyph-name="L" unicode="L" horiz-adv-x="1229" d="M152 0 L152 1544 L360 1544 L360 184 L1190 184 L1190 0 L152 0 Z " />
<glyph glyph-name="M" unicode="M" horiz-adv-x="1855" d="M152 0 L152 1544 L471 1544 L924 223 L1395 1544 L1704 1544 L1704 0 L1505 0 L1505 1341 L1024 0 L811 0 L350 1341 L350 0 L152 0 Z " />
<glyph glyph-name="N" unicode="N" horiz-adv-x="1511" d="M152 0 L152 1544 L393 1544 L1157 283 L1157 1544 L1360 1544 L1360 0 L1118 0 L354 1264 L354 0 L152 0 Z " />
<glyph glyph-name="O" unicode="O" horiz-adv-x="1636" d="M817 1581 Q1155 1581 1347 1368 Q1540 1153 1540 772 Q1540 392 1347 177 Q1154 -37 822 -37 Q516 -37 328 137 Q96 353 96 773 Q96 1153 289 1368 Q481 1581 817 1581 Z M817 1407 Q577 1407 440 1225 Q313 1055 313 772 Q313 490 440 319 Q577 137 812 137 Q1034 137 1168 287 Q1323 460 1323 772 Q1323 1055 1195 1225 Q1057 1407 817 1407 Z " />
<glyph glyph-name="P" unicode="P" horiz-adv-x="1358" d="M152 0 L152 1544 L809 1544 Q1071 1544 1199 1387 Q1296 1268 1296 1072 Q1296 857 1153 729 Q1010 602 768 602 L356 602 L356 0 L152 0 Z M356 774 L770 774 Q908 774 992 850 Q1085 933 1085 1076 Q1085 1235 982 1312 Q903 1372 776 1372 L356 1372 L356 774 Z " />
<glyph glyph-name="Q" unicode="Q" horiz-adv-x="1636" d="M1264 -250 L1100 10 Q967 -37 818 -37 Q482 -37 289 177 Q96 392 96 773 Q96 1153 289 1368 Q481 1581 817 1581 Q1155 1581 1347 1368 Q1540 1153 1540 772 Q1540 312 1253 92 L1411 -156 L1264 -250 Z M999 170 L819 455 L965 551 L1147 264 Q1323 444 1323 771 Q1323 1054 1195 1225 Q1058 1407 817 1407 Q577 1407 440 1225 Q313 1055 313 772 Q313 490 440 319 Q577 137 816 137 Q910 137 999 170 Z " />
<glyph glyph-name="R" unicode="R" horiz-adv-x="1434" d="M152 0 L152 1544 L817 1544 Q1094 1544 1220 1395 Q1270 1335 1295 1242 Q1315 1166 1315 1093 Q1315 940 1234 826 Q1161 721 1032 670 L1366 0 L1126 0 L825 635 Q815 633 802 633 L789 633 L776 633 L356 633 L356 0 L152 0 Z M356 805 L776 805 Q926 805 1007 871 Q1098 944 1098 1092 Q1098 1372 776 1372 L356 1372 L356 805 Z " />
<glyph glyph-name="S" unicode="S" horiz-adv-x="1391" d="M59 420 L264 471 Q301 327 366 257 Q476 139 699 139 Q884 139 983 211 Q1075 280 1075 406 Q1075 529 999 589 Q932 643 793 668 L549 713 Q100 796 100 1145 Q100 1344 252 1462 Q405 1581 675 1581 Q1002 1581 1150 1418 Q1232 1328 1276 1182 L1081 1118 Q1036 1249 965 1314 Q862 1407 669 1407 Q497 1407 405 1339 Q315 1273 315 1155 Q315 1054 381 993 Q450 930 600 903 L879 852 Q1103 811 1204 701 Q1298 597 1298 422 Q1298 212 1153 93 Q995 -37 692 -37 Q415 -37 259 82 Q118 190 59 420 Z " />
<glyph glyph-name="T" unicode="T" horiz-adv-x="1391" d="M590 0 L590 1360 L43 1360 L43 1544 L1346 1544 L1346 1360 L799 1360 L799 0 L590 0 Z " />
<glyph glyph-name="U" unicode="U" horiz-adv-x="1485" d="M139 1544 L348 1544 L348 588 Q348 350 456 240 Q552 143 744 143 Q951 143 1047 262 Q1135 371 1135 588 L1135 1544 L1343 1544 L1343 588 Q1343 302 1214 147 Q1061 -37 745 -37 Q139 -37 139 588 L139 1544 Z " />
<glyph glyph-name="V" unicode="V" horiz-adv-x="1343" d="M541 0 L0 1544 L219 1544 L676 195 L1130 1544 L1343 1544 L799 0 L541 0 Z " />
<glyph glyph-name="W" unicode="W" horiz-adv-x="1946" d="M375 0 L0 1544 L221 1544 L524 209 L858 1544 L1085 1544 L1409 209 L1729 1544 L1946 1544 L1548 0 L1294 0 L969 1278 L629 0 L375 0 Z " />
<glyph glyph-name="X" unicode="X" horiz-adv-x="1300" d="M0 0 L537 795 L39 1544 L272 1544 L653 963 L1040 1544 L1257 1544 L764 807 L1300 0 L1063 0 L645 639 L223 0 L0 0 Z " />
<glyph glyph-name="Y" unicode="Y" horiz-adv-x="1292" d="M541 0 L541 602 L0 1544 L225 1544 L655 786 L1077 1544 L1292 1544 L752 602 L752 0 L541 0 Z " />
<glyph glyph-name="Z" unicode="Z" horiz-adv-x="1296" d="M74 0 L74 180 L975 1360 L104 1360 L104 1544 L1212 1544 L1212 1364 L311 184 L1229 184 L1229 0 L74 0 Z " />
<glyph glyph-name="bracketleft" unicode="&#x5b;" horiz-adv-x="655" d="M152 -393 L152 1544 L592 1544 L592 1399 L342 1399 L342 -248 L592 -248 L592 -393 L152 -393 Z " />
<glyph glyph-name="backslash" unicode="&#x5c;" horiz-adv-x="545" d="M381 0 L0 1544 L164 1544 L545 0 L381 0 Z " />
<glyph glyph-name="bracketright" unicode="&#x5d;" horiz-adv-x="655" d="M66 -393 L66 -248 L313 -248 L313 1399 L66 1399 L66 1544 L504 1544 L504 -393 L66 -393 Z " />
<glyph glyph-name="asciicircum" unicode="&#x5e;" horiz-adv-x="1245" d="M119 797 L537 1544 L709 1544 L1126 797 L936 797 L623 1368 L309 797 L119 797 Z " />
<glyph glyph-name="underscore" unicode="&#x5f;" horiz-adv-x="1024" d="M0 -266 L0 -143 L1024 -143 L1024 -266 L0 -266 Z " />
<glyph glyph-name="grave" unicode="&#x60;" horiz-adv-x="856" d="M455 1272 L221 1544 L442 1544 L631 1272 L455 1272 Z " />
<glyph glyph-name="a" unicode="a" horiz-adv-x="1077" d="M778 690 L778 764 Q778 969 541 969 Q400 969 334 887 Q303 848 281 784 L109 829 Q140 939 214 1007 Q335 1118 550 1118 Q969 1118 969 768 L969 201 Q969 106 1004 0 L819 0 Q798 62 797 139 Q722 45 637 4 Q554 -37 423 -37 Q270 -37 175 41 Q72 126 72 280 Q72 463 195 555 Q278 616 446 641 L778 690 Z M778 549 L487 504 Q358 484 303 420 Q262 373 262 286 Q262 201 317 155 Q368 111 457 111 Q571 111 658 167 Q778 246 778 389 L778 549 Z " />
<glyph glyph-name="b" unicode="b" horiz-adv-x="1214" d="M322 145 L317 0 L131 0 L131 1544 L326 1544 L326 922 Q446 1118 688 1118 Q896 1118 1015 969 Q1135 819 1135 557 Q1135 294 1024 140 Q897 -37 660 -37 Q442 -37 322 145 Z M631 961 Q480 961 395 831 Q319 716 319 530 Q319 351 392 242 Q475 119 623 119 Q742 119 818 188 Q932 292 932 543 Q932 766 838 877 Q766 961 631 961 Z " />
<glyph glyph-name="c" unicode="c" horiz-adv-x="1094" d="M1032 780 L844 731 Q814 843 762 895 Q698 961 578 961 Q433 961 353 842 Q279 733 279 540 Q279 348 350 242 Q428 123 580 123 Q802 123 858 373 L1044 324 Q941 -37 582 -37 Q352 -37 222 100 Q80 249 80 538 Q80 795 202 948 Q336 1118 585 1118 Q947 1118 1032 780 Z " />
<glyph glyph-name="d" unicode="d" horiz-adv-x="1212" d="M887 940 L887 1544 L1081 1544 L1081 0 L897 0 L893 160 Q771 -37 528 -37 Q340 -37 224 83 Q80 231 80 520 Q80 785 189 940 Q314 1118 548 1118 Q760 1118 887 940 Z M587 961 Q442 961 363 856 Q281 745 281 539 Q281 341 353 234 Q430 119 581 119 Q721 119 804 225 Q893 341 893 545 Q893 728 821 837 Q739 961 587 961 Z " />
<glyph glyph-name="e" unicode="e" horiz-adv-x="1151" d="M1079 496 L279 496 Q286 369 319 291 Q392 121 598 121 Q817 121 885 332 L1057 268 Q953 -37 589 -37 Q364 -37 231 98 Q80 251 80 538 Q80 797 205 951 Q341 1118 590 1118 Q856 1118 982 944 Q1036 871 1061 757 Q1079 673 1079 592 L1079 496 Z M281 641 L883 641 Q867 969 590 969 Q429 969 346 844 Q296 768 281 641 Z " />
<glyph glyph-name="f" unicode="f" horiz-adv-x="637" d="M193 0 L193 928 L35 928 L35 1081 L193 1081 L193 1249 Q193 1391 262 1475 Q336 1565 492 1565 Q564 1565 664 1548 L649 1389 Q583 1397 546 1397 Q465 1397 426 1356 Q387 1314 387 1217 L387 1081 L635 1081 L635 928 L387 928 L387 0 L193 0 Z " />
<glyph glyph-name="g" unicode="g" horiz-adv-x="1214" d="M129 -215 L285 -119 Q329 -190 390 -222 Q464 -260 586 -260 Q758 -260 834 -168 Q889 -101 889 68 L889 190 Q766 -4 526 -4 Q316 -4 200 133 Q80 274 80 534 Q80 796 189 946 Q313 1118 550 1118 Q777 1118 891 934 L895 1081 L1083 1081 L1083 43 Q1083 -424 592 -424 Q339 -424 212 -319 Q155 -272 129 -215 Z M582 961 Q425 961 346 841 Q281 741 281 547 Q281 154 578 154 Q729 154 812 259 Q893 362 893 566 Q893 768 799 873 Q719 961 582 961 Z " />
<glyph glyph-name="h" unicode="h" horiz-adv-x="1182" d="M131 0 L131 1544 L326 1544 L326 918 Q449 1118 690 1118 Q868 1118 966 1009 Q1051 913 1051 750 L1051 0 L856 0 L856 698 Q856 958 628 958 Q483 958 400 830 Q326 715 326 545 L326 0 L131 0 Z " />
<glyph glyph-name="i" unicode="i" horiz-adv-x="477" d="M141 0 L141 1081 L336 1081 L336 0 L141 0 Z M141 1315 L141 1544 L336 1544 L336 1315 L141 1315 Z " />
<glyph glyph-name="j" unicode="j" horiz-adv-x="489" d="M-121 -401 L-100 -242 Q-44 -256 18 -256 Q96 -256 126 -218 Q154 -183 154 -111 L154 1081 L348 1081 L348 -150 Q348 -424 84 -424 L68 -424 Q-33 -424 -121 -401 Z M154 1317 L154 1544 L348 1544 L348 1317 L154 1317 Z " />
<glyph glyph-name="k" unicode="k" horiz-adv-x="1071" d="M131 0 L131 1544 L326 1544 L326 649 L782 1081 L1016 1081 L623 711 L1073 0 L846 0 L481 580 L326 434 L326 0 L131 0 Z " />
<glyph glyph-name="l" unicode="l" horiz-adv-x="477" d="M141 0 L141 1544 L336 1544 L336 0 L141 0 Z " />
<glyph glyph-name="m" unicode="m" horiz-adv-x="1796" d="M131 0 L131 1081 L322 1081 L324 909 Q432 1118 662 1118 Q787 1118 871 1051 Q938 997 969 901 Q1078 1118 1323 1118 Q1490 1118 1582 1014 Q1665 919 1665 758 L1665 0 L1470 0 L1470 698 Q1470 833 1411 899 Q1358 958 1268 958 Q1139 958 1063 830 Q995 715 995 545 L995 0 L801 0 L801 698 Q801 830 741 899 Q689 958 598 958 Q470 958 394 830 Q326 715 326 545 L326 0 L131 0 Z " />
<glyph glyph-name="n" unicode="n" horiz-adv-x="1184" d="M131 0 L131 1081 L322 1081 L326 905 Q381 1002 457 1055 Q549 1118 691 1118 Q870 1118 968 1009 Q1053 913 1053 750 L1053 0 L858 0 L858 698 Q858 958 631 958 Q485 958 401 830 Q326 715 326 545 L326 0 L131 0 Z " />
<glyph glyph-name="o" unicode="o" horiz-adv-x="1192" d="M596 1118 Q848 1118 986 952 Q1112 800 1112 541 Q1112 283 986 130 Q848 -37 600 -37 Q367 -37 231 101 Q80 256 80 541 Q80 800 205 952 Q343 1118 596 1118 Z M592 961 Q438 961 354 840 Q279 730 279 541 Q279 349 354 241 Q438 121 593 121 Q744 121 829 229 Q913 335 913 547 Q913 760 812 872 Q732 961 592 961 Z " />
<glyph glyph-name="p" unicode="p" horiz-adv-x="1214" d="M131 -393 L131 1081 L317 1081 L322 920 Q446 1118 689 1118 Q838 1118 949 1034 Q1135 893 1135 554 Q1135 296 1024 141 Q897 -37 664 -37 Q450 -37 326 141 L326 -393 L131 -393 Z M630 961 Q478 961 394 832 Q319 717 319 532 Q319 353 392 243 Q473 121 621 121 Q739 121 816 190 Q932 293 932 546 Q932 961 630 961 Z " />
<glyph glyph-name="q" unicode="q" horiz-adv-x="1214" d="M889 -393 L889 156 Q764 -37 526 -37 Q319 -37 200 111 Q80 260 80 522 Q80 788 189 941 Q315 1118 547 1118 Q769 1118 891 934 L895 1081 L1083 1081 L1083 -393 L889 -393 Z M583 961 Q442 961 363 856 Q281 747 281 540 Q281 341 353 236 Q430 121 579 121 Q721 121 804 227 Q893 342 893 549 Q893 760 798 869 Q718 961 583 961 Z " />
<glyph glyph-name="r" unicode="r" horiz-adv-x="711" d="M131 0 L131 1081 L319 1081 L326 891 Q416 1094 600 1094 Q657 1094 711 1081 L692 915 Q649 928 596 928 Q455 928 387 819 Q326 721 326 547 L326 0 L131 0 Z " />
<glyph glyph-name="s" unicode="s" horiz-adv-x="1053" d="M45 287 L227 336 Q249 237 299 187 Q372 113 517 113 Q638 113 704 158 Q768 202 768 284 Q768 356 724 393 Q677 434 588 451 L412 485 Q84 548 84 800 Q84 955 213 1042 Q326 1118 515 1118 Q864 1118 958 836 L784 780 Q749 881 679 929 Q617 971 502 971 Q380 971 318 916 Q276 878 276 808 Q276 743 319 705 Q362 668 465 647 L680 604 Q969 546 969 289 Q969 144 858 57 Q738 -37 524 -37 Q309 -37 187 57 Q86 134 45 287 Z " />
<glyph glyph-name="t" unicode="t" horiz-adv-x="694" d="M199 928 L55 928 L55 1081 L199 1081 L199 1389 L393 1389 L393 1081 L627 1081 L627 928 L393 928 L393 289 Q393 195 433 164 Q458 145 521 145 Q558 145 635 154 L649 -4 Q558 -20 446 -20 Q199 -20 199 248 L199 928 Z " />
<glyph glyph-name="u" unicode="u" horiz-adv-x="1182" d="M131 1081 L326 1081 L326 371 Q326 125 551 125 Q697 125 780 252 Q856 367 856 535 L856 1081 L1051 1081 L1051 0 L862 0 L856 178 Q800 79 729 27 Q641 -37 498 -37 Q352 -37 257 37 Q131 135 131 334 L131 1081 Z " />
<glyph glyph-name="v" unicode="v" horiz-adv-x="1014" d="M381 0 L0 1081 L205 1081 L510 164 L817 1081 L1014 1081 L631 0 L381 0 Z " />
<glyph glyph-name="w" unicode="w" horiz-adv-x="1559" d="M309 0 L0 1081 L203 1081 L438 154 L676 1081 L893 1081 L1128 154 L1368 1081 L1559 1081 L1249 0 L1001 0 L780 879 L559 0 L309 0 Z " />
<glyph glyph-name="x" unicode="x" horiz-adv-x="969" d="M0 0 L379 555 L25 1081 L240 1081 L487 705 L739 1081 L940 1081 L588 565 L969 0 L752 0 L479 414 L203 0 L0 0 Z " />
<glyph glyph-name="y" unicode="y" horiz-adv-x="1063" d="M74 -395 L106 -238 Q172 -260 234 -260 Q305 -260 346 -226 Q384 -193 410 -127 L459 0 L0 1081 L209 1081 L553 233 L866 1081 L1063 1081 L586 -184 Q546 -290 494 -342 Q412 -424 270 -424 L259 -424 Q174 -424 74 -395 Z " />
<glyph glyph-name="z" unicode="z" horiz-adv-x="975" d="M59 0 L59 145 L670 928 L88 928 L88 1081 L895 1081 L895 936 L281 154 L918 154 L918 0 L59 0 Z " />
<glyph glyph-name="braceleft" unicode="&#x7b;" horiz-adv-x="895" d="M117 500 L117 651 Q216 665 256 689 Q328 732 328 825 L328 1290 Q328 1443 410 1503 Q467 1544 573 1544 L778 1544 L778 1399 L647 1399 Q566 1399 535 1349 Q514 1315 514 1235 L514 791 Q514 650 420 601 Q386 584 328 575 Q514 550 514 358 L514 -84 Q514 -178 545 -213 Q576 -248 647 -248 L778 -248 L778 -393 L573 -393 Q328 -393 328 -139 L328 324 Q328 441 215 479 Q187 489 117 500 Z " />
<glyph glyph-name="bar" unicode="&#x7c;" horiz-adv-x="489" d="M184 0 L184 1544 L346 1544 L346 0 L184 0 Z " />
<glyph glyph-name="braceright" unicode="&#x7d;" horiz-adv-x="895" d="M119 -393 L119 -248 L248 -248 Q337 -248 364 -193 Q381 -159 381 -84 L381 358 Q381 496 471 545 Q510 567 569 575 Q381 603 381 791 L381 1235 Q381 1326 352 1360 Q319 1399 248 1399 L119 1399 L119 1544 L324 1544 Q456 1544 515 1476 Q569 1415 569 1290 L569 825 Q569 720 664 678 Q703 660 780 651 L780 500 Q698 490 657 470 Q569 426 569 324 L569 -139 Q569 -393 324 -393 L119 -393 Z " />
<glyph glyph-name="asciitilde" unicode="&#x7e;" horiz-adv-x="1468" d="M672 584 L672 584 Q668 586 655 600 L649 607 Q646 610 644 612 Q641 616 632 625 Q629 628 628 628 Q622 633 621 635 Q621 635 621 635 Q617 636 610 645 Q596 664 551 695 Q510 723 458 723 Q370 723 323 621 Q295 560 272 440 L123 479 Q154 656 216 748 Q306 881 461 881 Q579 881 692 797 Q761 746 791 714 Q837 665 852 655 Q899 612 926 596 Q963 575 1009 575 Q1106 575 1153 687 Q1179 749 1196 856 L1348 817 Q1317 642 1256 550 Q1167 416 1013 416 Q914 416 827 462 Q754 500 672 584 Z " />
<glyph glyph-name="Adieresis" unicode="&#xc4;" horiz-adv-x="1427" d="M0 0 L582 1544 L846 1544 L1427 0 L1206 0 L1069 379 L338 379 L199 0 L0 0 Z M406 557 L1004 557 L707 1372 L406 557 Z M430 1678 L430 1907 L613 1907 L613 1678 L430 1678 Z M826 1678 L826 1907 L1008 1907 L1008 1678 L826 1678 Z " />
<glyph glyph-name="Aring" unicode="&#xc5;" horiz-adv-x="1427" d="M574 1523 Q460 1581 460 1720 Q460 1829 536 1890 Q602 1942 714 1942 Q846 1942 912 1862 Q960 1804 960 1716 Q960 1583 853 1526 L1427 0 L1206 0 L1069 379 L338 379 L199 0 L0 0 L574 1523 Z M406 557 L1004 557 L707 1372 L406 557 Z M708 1850 Q632 1850 594 1802 Q567 1769 567 1718 Q567 1663 603 1627 Q641 1588 709 1588 Q775 1588 815 1624 Q853 1659 853 1721 Q853 1782 807 1819 Q769 1850 708 1850 Z " />
<glyph glyph-name="Ccedilla" unicode="&#xc7;" horiz-adv-x="1505" d="M1415 1110 L1206 1059 Q1167 1196 1107 1269 Q997 1403 790 1403 Q551 1403 425 1214 Q313 1046 313 752 Q313 470 432 310 Q558 141 787 141 Q953 141 1069 234 Q1190 330 1225 549 L1438 518 Q1386 280 1270 152 Q1097 -37 782 -37 Q500 -37 324 126 Q96 336 96 758 Q96 1145 281 1363 Q466 1581 796 1581 Q1297 1581 1415 1110 Z M492 -393 Q612 -215 694 -121 L860 -121 L701 -393 L492 -393 Z " />
<glyph glyph-name="Eacute" unicode="&#xc9;" horiz-adv-x="1337" d="M152 0 L152 1544 L1225 1544 L1225 1360 L360 1360 L360 879 L1180 879 L1180 694 L360 694 L360 184 L1260 184 L1260 0 L152 0 Z M560 1659 L749 1931 L970 1931 L736 1659 L560 1659 Z " />
<glyph glyph-name="Ntilde" unicode="&#xd1;" horiz-adv-x="1511" d="M152 0 L152 1544 L393 1544 L1157 283 L1157 1544 L1360 1544 L1360 0 L1118 0 L354 1264 L354 0 L152 0 Z M505 1683 L378 1714 Q424 1921 592 1921 Q662 1921 757 1872 L825 1837 Q885 1806 923 1806 Q987 1806 1013 1907 L1142 1876 Q1120 1782 1071 1728 Q1014 1667 931 1667 L924 1667 Q881 1667 839 1681 Q814 1689 755 1720 L696 1751 Q637 1782 601 1782 Q535 1782 505 1683 Z " />
<glyph glyph-name="Odieresis" unicode="&#xd6;" horiz-adv-x="1636" d="M817 1581 Q1155 1581 1347 1368 Q1540 1153 1540 772 Q1540 392 1347 177 Q1154 -37 822 -37 Q516 -37 328 137 Q96 353 96 773 Q96 1153 289 1368 Q481 1581 817 1581 Z M817 1407 Q577 1407 440 1225 Q313 1055 313 772 Q313 490 440 319 Q577 137 812 137 Q1034 137 1168 287 Q1323 460 1323 772 Q1323 1055 1195 1225 Q1057 1407 817 1407 Z M530 1678 L530 1907 L713 1907 L713 1678 L530 1678 Z M926 1678 L926 1907 L1108 1907 L1108 1678 L926 1678 Z " />
<glyph glyph-name="Udieresis" unicode="&#xdc;" horiz-adv-x="1485" d="M139 1544 L348 1544 L348 588 Q348 350 456 240 Q552 143 744 143 Q951 143 1047 262 Q1135 371 1135 588 L1135 1544 L1343 1544 L1343 588 Q1343 302 1214 147 Q1061 -37 745 -37 Q139 -37 139 588 L139 1544 Z M451 1678 L451 1907 L634 1907 L634 1678 L451 1678 Z M847 1678 L847 1907 L1029 1907 L1029 1678 L847 1678 Z " />
<glyph glyph-name="aacute" unicode="&#xe1;" horiz-adv-x="1077" d="M778 690 L778 764 Q778 969 541 969 Q400 969 334 887 Q303 848 281 784 L109 829 Q140 939 214 1007 Q335 1118 550 1118 Q969 1118 969 768 L969 201 Q969 106 1004 0 L819 0 Q798 62 797 139 Q722 45 637 4 Q554 -37 423 -37 Q270 -37 175 41 Q72 126 72 280 Q72 463 195 555 Q278 616 446 641 L778 690 Z M778 549 L487 504 Q358 484 303 420 Q262 373 262 286 Q262 201 317 155 Q368 111 457 111 Q571 111 658 167 Q778 246 778 389 L778 549 Z M430 1272 L619 1544 L840 1544 L606 1272 L430 1272 Z " />
<glyph glyph-name="agrave" unicode="&#xe0;" horiz-adv-x="1077" d="M778 690 L778 764 Q778 969 541 969 Q400 969 334 887 Q303 848 281 784 L109 829 Q140 939 214 1007 Q335 1118 550 1118 Q969 1118 969 768 L969 201 Q969 106 1004 0 L819 0 Q798 62 797 139 Q722 45 637 4 Q554 -37 423 -37 Q270 -37 175 41 Q72 126 72 280 Q72 463 195 555 Q278 616 446 641 L778 690 Z M778 549 L487 504 Q358 484 303 420 Q262 373 262 286 Q262 201 317 155 Q368 111 457 111 Q571 111 658 167 Q778 246 778 389 L778 549 Z M549 1272 L315 1544 L536 1544 L725 1272 L549 1272 Z " />
<glyph glyph-name="acircumflex" unicode="&#xe2;" horiz-adv-x="1077" d="M778 690 L778 764 Q778 969 541 969 Q400 969 334 887 Q303 848 281 784 L109 829 Q140 939 214 1007 Q335 1118 550 1118 Q969 1118 969 768 L969 201 Q969 106 1004 0 L819 0 Q798 62 797 139 Q722 45 637 4 Q554 -37 423 -37 Q270 -37 175 41 Q72 126 72 280 Q72 463 195 555 Q278 616 446 641 L778 690 Z M778 549 L487 504 Q358 484 303 420 Q262 373 262 286 Q262 201 317 155 Q368 111 457 111 Q571 111 658 167 Q778 246 778 389 L778 549 Z M212 1272 L460 1544 L660 1544 L908 1272 L724 1272 L560 1432 L396 1272 L212 1272 Z " />
<glyph glyph-name="adieresis" unicode="&#xe4;" horiz-adv-x="1077" d="M778 690 L778 764 Q778 969 541 969 Q400 969 334 887 Q303 848 281 784 L109 829 Q140 939 214 1007 Q335 1118 550 1118 Q969 1118 969 768 L969 201 Q969 106 1004 0 L819 0 Q798 62 797 139 Q722 45 637 4 Q554 -37 423 -37 Q270 -37 175 41 Q72 126 72 280 Q72 463 195 555 Q278 616 446 641 L778 690 Z M778 549 L487 504 Q358 484 303 420 Q262 373 262 286 Q262 201 317 155 Q368 111 457 111 Q571 111 658 167 Q778 246 778 389 L778 549 Z M261 1295 L261 1524 L444 1524 L444 1295 L261 1295 Z M657 1295 L657 1524 L839 1524 L839 1295 L657 1295 Z " />
<glyph glyph-name="atilde" unicode="&#xe3;" horiz-adv-x="1077" d="M778 690 L778 764 Q778 969 541 969 Q400 969 334 887 Q303 848 281 784 L109 829 Q140 939 214 1007 Q335 1118 550 1118 Q969 1118 969 768 L969 201 Q969 106 1004 0 L819 0 Q798 62 797 139 Q722 45 637 4 Q554 -37 423 -37 Q270 -37 175 41 Q72 126 72 280 Q72 463 195 555 Q278 616 446 641 L778 690 Z M778 549 L487 504 Q358 484 303 420 Q262 373 262 286 Q262 201 317 155 Q368 111 457 111 Q571 111 658 167 Q778 246 778 389 L778 549 Z M296 1300 L169 1331 Q215 1538 382 1538 Q453 1538 548 1489 L616 1454 Q676 1423 714 1423 Q777 1423 804 1524 L933 1493 Q911 1399 861 1345 Q804 1284 723 1284 Q681 1284 642 1294 Q611 1302 546 1337 L487 1368 Q428 1399 392 1399 Q327 1399 296 1300 Z " />
<glyph glyph-name="aring" unicode="&#xe5;" horiz-adv-x="1077" d="M778 690 L778 764 Q778 969 541 969 Q400 969 334 887 Q303 848 281 784 L109 829 Q140 939 214 1007 Q335 1118 550 1118 Q969 1118 969 768 L969 201 Q969 106 1004 0 L819 0 Q798 62 797 139 Q722 45 637 4 Q554 -37 423 -37 Q270 -37 175 41 Q72 126 72 280 Q72 463 195 555 Q278 616 446 641 L778 690 Z M778 549 L487 504 Q358 484 303 420 Q262 373 262 286 Q262 201 317 155 Q368 111 457 111 Q571 111 658 167 Q778 246 778 389 L778 549 Z M558 1621 Q684 1621 747 1545 Q792 1490 792 1408 Q792 1316 733 1258 Q670 1196 556 1196 Q450 1196 388 1248 Q317 1306 317 1410 Q317 1513 390 1571 Q452 1621 558 1621 Z M553 1529 Q484 1529 448 1485 Q424 1455 424 1408 Q424 1358 456 1325 Q492 1290 553 1290 Q614 1290 650 1323 Q685 1355 685 1411 Q685 1467 643 1501 Q608 1529 553 1529 Z " />
<glyph glyph-name="ccedilla" unicode="&#xe7;" horiz-adv-x="1094" d="M1032 780 L844 731 Q814 843 762 895 Q698 961 578 961 Q433 961 353 842 Q279 733 279 540 Q279 348 350 242 Q428 123 580 123 Q802 123 858 373 L1044 324 Q941 -37 582 -37 Q352 -37 222 100 Q80 249 80 538 Q80 795 202 948 Q336 1118 585 1118 Q947 1118 1032 780 Z M318 -393 L322 -387 Q445 -206 520 -121 L686 -121 L527 -393 L318 -393 Z " />
<glyph glyph-name="eacute" unicode="&#xe9;" horiz-adv-x="1151" d="M1079 496 L279 496 Q286 369 319 291 Q392 121 598 121 Q817 121 885 332 L1057 268 Q953 -37 589 -37 Q364 -37 231 98 Q80 251 80 538 Q80 797 205 951 Q341 1118 590 1118 Q856 1118 982 944 Q1036 871 1061 757 Q1079 673 1079 592 L1079 496 Z M281 641 L883 641 Q867 969 590 969 Q429 969 346 844 Q296 768 281 641 Z M475 1272 L664 1544 L885 1544 L651 1272 L475 1272 Z " />
<glyph glyph-name="egrave" unicode="&#xe8;" horiz-adv-x="1151" d="M1079 496 L279 496 Q286 369 319 291 Q392 121 598 121 Q817 121 885 332 L1057 268 Q953 -37 589 -37 Q364 -37 231 98 Q80 251 80 538 Q80 797 205 951 Q341 1118 590 1118 Q856 1118 982 944 Q1036 871 1061 757 Q1079 673 1079 592 L1079 496 Z M281 641 L883 641 Q867 969 590 969 Q429 969 346 844 Q296 768 281 641 Z M587 1272 L353 1544 L574 1544 L763 1272 L587 1272 Z " />
<glyph glyph-name="ecircumflex" unicode="&#xea;" horiz-adv-x="1151" d="M1079 496 L279 496 Q286 369 319 291 Q392 121 598 121 Q817 121 885 332 L1057 268 Q953 -37 589 -37 Q364 -37 231 98 Q80 251 80 538 Q80 797 205 951 Q341 1118 590 1118 Q856 1118 982 944 Q1036 871 1061 757 Q1079 673 1079 592 L1079 496 Z M281 641 L883 641 Q867 969 590 969 Q429 969 346 844 Q296 768 281 641 Z M246 1272 L494 1544 L694 1544 L942 1272 L758 1272 L594 1432 L430 1272 L246 1272 Z " />
<glyph glyph-name="edieresis" unicode="&#xeb;" horiz-adv-x="1151" d="M1079 496 L279 496 Q286 369 319 291 Q392 121 598 121 Q817 121 885 332 L1057 268 Q953 -37 589 -37 Q364 -37 231 98 Q80 251 80 538 Q80 797 205 951 Q341 1118 590 1118 Q856 1118 982 944 Q1036 871 1061 757 Q1079 673 1079 592 L1079 496 Z M281 641 L883 641 Q867 969 590 969 Q429 969 346 844 Q296 768 281 641 Z M291 1295 L291 1524 L474 1524 L474 1295 L291 1295 Z M687 1295 L687 1524 L869 1524 L869 1295 L687 1295 Z " />
<glyph glyph-name="iacute" unicode="&#xed;" horiz-adv-x="477" d="M141 0 L141 1081 L336 1081 L336 0 L141 0 Z M153 1272 L342 1544 L563 1544 L329 1272 L153 1272 Z " />
<glyph glyph-name="igrave" unicode="&#xec;" horiz-adv-x="477" d="M141 0 L141 1081 L336 1081 L336 0 L141 0 Z M161 1272 L-73 1544 L148 1544 L337 1272 L161 1272 Z " />
<glyph glyph-name="icircumflex" unicode="&#xee;" horiz-adv-x="477" d="M141 0 L141 1081 L336 1081 L336 0 L141 0 Z M-112 1272 L136 1544 L336 1544 L584 1272 L400 1272 L236 1432 L72 1272 L-112 1272 Z " />
<glyph glyph-name="idieresis" unicode="&#xef;" horiz-adv-x="477" d="M141 0 L141 1081 L336 1081 L336 0 L141 0 Z M-47 1295 L-47 1524 L136 1524 L136 1295 L-47 1295 Z M349 1295 L349 1524 L531 1524 L531 1295 L349 1295 Z " />
<glyph glyph-name="ntilde" unicode="&#xf1;" horiz-adv-x="1184" d="M131 0 L131 1081 L322 1081 L326 905 Q381 1002 457 1055 Q549 1118 691 1118 Q870 1118 968 1009 Q1053 913 1053 750 L1053 0 L858 0 L858 698 Q858 958 631 958 Q485 958 401 830 Q326 715 326 545 L326 0 L131 0 Z M346 1300 L219 1331 Q265 1538 432 1538 Q503 1538 598 1489 L666 1454 Q726 1423 764 1423 Q827 1423 854 1524 L983 1493 Q961 1399 911 1345 Q854 1284 773 1284 Q731 1284 692 1294 Q661 1302 596 1337 L537 1368 Q478 1399 442 1399 Q377 1399 346 1300 Z " />
<glyph glyph-name="oacute" unicode="&#xf3;" horiz-adv-x="1192" d="M596 1118 Q848 1118 986 952 Q1112 800 1112 541 Q1112 283 986 130 Q848 -37 600 -37 Q367 -37 231 101 Q80 256 80 541 Q80 800 205 952 Q343 1118 596 1118 Z M592 961 Q438 961 354 840 Q279 730 279 541 Q279 349 354 241 Q438 121 593 121 Q744 121 829 229 Q913 335 913 547 Q913 760 812 872 Q732 961 592 961 Z M472 1272 L661 1544 L882 1544 L648 1272 L472 1272 Z " />
<glyph glyph-name="ograve" unicode="&#xf2;" horiz-adv-x="1192" d="M596 1118 Q848 1118 986 952 Q1112 800 1112 541 Q1112 283 986 130 Q848 -37 600 -37 Q367 -37 231 101 Q80 256 80 541 Q80 800 205 952 Q343 1118 596 1118 Z M592 961 Q438 961 354 840 Q279 730 279 541 Q279 349 354 241 Q438 121 593 121 Q744 121 829 229 Q913 335 913 547 Q913 760 812 872 Q732 961 592 961 Z M575 1272 L341 1544 L562 1544 L751 1272 L575 1272 Z " />
<glyph glyph-name="ocircumflex" unicode="&#xf4;" horiz-adv-x="1192" d="M596 1118 Q848 1118 986 952 Q1112 800 1112 541 Q1112 283 986 130 Q848 -37 600 -37 Q367 -37 231 101 Q80 256 80 541 Q80 800 205 952 Q343 1118 596 1118 Z M592 961 Q438 961 354 840 Q279 730 279 541 Q279 349 354 241 Q438 121 593 121 Q744 121 829 229 Q913 335 913 547 Q913 760 812 872 Q732 961 592 961 Z M246 1272 L494 1544 L694 1544 L942 1272 L758 1272 L594 1432 L430 1272 L246 1272 Z " />
<glyph glyph-name="odieresis" unicode="&#xf6;" horiz-adv-x="1192" d="M596 1118 Q848 1118 986 952 Q1112 800 1112 541 Q1112 283 986 130 Q848 -37 600 -37 Q367 -37 231 101 Q80 256 80 541 Q80 800 205 952 Q343 1118 596 1118 Z M592 961 Q438 961 354 840 Q279 730 279 541 Q279 349 354 241 Q438 121 593 121 Q744 121 829 229 Q913 335 913 547 Q913 760 812 872 Q732 961 592 961 Z M311 1295 L311 1524 L494 1524 L494 1295 L311 1295 Z M707 1295 L707 1524 L889 1524 L889 1295 L707 1295 Z " />
<glyph glyph-name="otilde" unicode="&#xf5;" horiz-adv-x="1192" d="M596 1118 Q848 1118 986 952 Q1112 800 1112 541 Q1112 283 986 130 Q848 -37 600 -37 Q367 -37 231 101 Q80 256 80 541 Q80 800 205 952 Q343 1118 596 1118 Z M592 961 Q438 961 354 840 Q279 730 279 541 Q279 349 354 241 Q438 121 593 121 Q744 121 829 229 Q913 335 913 547 Q913 760 812 872 Q732 961 592 961 Z M350 1300 L223 1331 Q269 1538 436 1538 Q507 1538 602 1489 L670 1454 Q730 1423 768 1423 Q831 1423 858 1524 L987 1493 Q965 1399 915 1345 Q858 1284 777 1284 Q735 1284 696 1294 Q665 1302 600 1337 L541 1368 Q482 1399 446 1399 Q381 1399 350 1300 Z " />
<glyph glyph-name="uacute" unicode="&#xfa;" horiz-adv-x="1182" d="M131 1081 L326 1081 L326 371 Q326 125 551 125 Q697 125 780 252 Q856 367 856 535 L856 1081 L1051 1081 L1051 0 L862 0 L856 178 Q800 79 729 27 Q641 -37 498 -37 Q352 -37 257 37 Q131 135 131 334 L131 1081 Z M467 1272 L656 1544 L877 1544 L643 1272 L467 1272 Z " />
<glyph glyph-name="ugrave" unicode="&#xf9;" horiz-adv-x="1182" d="M131 1081 L326 1081 L326 371 Q326 125 551 125 Q697 125 780 252 Q856 367 856 535 L856 1081 L1051 1081 L1051 0 L862 0 L856 178 Q800 79 729 27 Q641 -37 498 -37 Q352 -37 257 37 Q131 135 131 334 L131 1081 Z M562 1272 L328 1544 L549 1544 L738 1272 L562 1272 Z " />
<glyph glyph-name="ucircumflex" unicode="&#xfb;" horiz-adv-x="1182" d="M131 1081 L326 1081 L326 371 Q326 125 551 125 Q697 125 780 252 Q856 367 856 535 L856 1081 L1051 1081 L1051 0 L862 0 L856 178 Q800 79 729 27 Q641 -37 498 -37 Q352 -37 257 37 Q131 135 131 334 L131 1081 Z M241 1272 L489 1544 L689 1544 L937 1272 L753 1272 L589 1432 L425 1272 L241 1272 Z " />
<glyph glyph-name="udieresis" unicode="&#xfc;" horiz-adv-x="1182" d="M131 1081 L326 1081 L326 371 Q326 125 551 125 Q697 125 780 252 Q856 367 856 535 L856 1081 L1051 1081 L1051 0 L862 0 L856 178 Q800 79 729 27 Q641 -37 498 -37 Q352 -37 257 37 Q131 135 131 334 L131 1081 Z M302 1295 L302 1524 L485 1524 L485 1295 L302 1295 Z M698 1295 L698 1524 L880 1524 L880 1295 L698 1295 Z " />
<glyph glyph-name="dagger" unicode="&#x2020;" horiz-adv-x="1143" d="M479 -197 L479 926 L119 926 L119 1098 L477 1098 L477 1544 L664 1544 L664 1098 L1024 1098 L1024 926 L666 926 L666 -197 L479 -197 Z " />
<glyph glyph-name="degree" unicode="&#xb0;" horiz-adv-x="881" d="M441 1565 Q589 1565 694 1460 Q799 1355 799 1206 Q799 1057 694 954 Q588 850 442 850 Q308 850 207 936 Q82 1041 82 1206 Q82 1355 186 1460 Q291 1565 441 1565 Z M438 1434 Q336 1434 272 1349 Q225 1289 225 1204 Q225 1113 289 1045 Q351 979 439 979 Q525 979 589 1040 Q657 1107 657 1209 Q657 1314 576 1383 Q516 1434 438 1434 Z " />
<glyph glyph-name="cent" unicode="&#xa2;" horiz-adv-x="1094" d="M518 -37 L518 156 Q318 175 205 309 Q80 458 80 728 Q80 1008 221 1163 Q332 1285 518 1305 L518 1497 L643 1497 L643 1307 Q809 1289 902 1205 Q993 1124 1032 971 L850 926 Q817 1042 767 1091 Q721 1138 643 1153 L643 311 Q737 329 790 391 Q841 452 864 559 L1044 514 Q952 191 643 156 L643 -37 L518 -37 Z M518 311 L518 1153 Q272 1099 272 726 Q272 528 350 418 Q411 332 518 311 Z " />
<glyph glyph-name="sterling" unicode="&#xa3;" horiz-adv-x="1231" d="M76 0 L76 164 Q229 235 320 333 Q424 446 424 586 L424 606 L154 606 L154 748 L381 748 Q366 774 347 800 Q341 809 326 830 Q317 842 305 859 Q300 866 293 877 Q281 894 256 928 Q166 1050 166 1186 Q166 1348 272 1454 Q399 1581 638 1581 Q882 1581 1011 1466 Q1100 1385 1147 1233 L967 1178 Q934 1286 869 1347 Q788 1423 641 1423 Q515 1423 441 1364 Q362 1299 362 1189 Q362 1076 488 929 Q563 841 596 748 L961 748 L961 606 L614 606 Q609 477 549 375 Q490 274 356 170 L1171 170 L1171 0 L76 0 Z " />
<glyph glyph-name="section" unicode="&#xa7;" horiz-adv-x="1137" d="M74 90 L254 150 Q298 49 361 -1 Q439 -63 576 -63 Q836 -63 836 113 Q836 189 776 237 Q729 274 631 299 L428 350 Q244 396 162 473 Q86 546 86 662 Q86 857 305 954 Q197 994 144 1055 Q86 1122 86 1234 Q86 1401 221 1490 Q335 1565 537 1565 Q775 1565 900 1452 Q970 1389 1010 1274 L836 1210 Q804 1295 753 1343 Q676 1415 532 1415 Q416 1415 349 1372 Q281 1329 281 1241 Q281 1172 335 1134 Q377 1104 477 1079 L733 1014 Q920 967 990 870 Q1034 808 1034 710 Q1034 514 813 418 Q932 370 987 302 Q1042 234 1042 119 Q1042 -49 901 -140 Q781 -217 568 -217 Q183 -217 74 90 Z M618 479 Q702 489 763 532 Q848 591 848 680 Q848 818 651 864 L508 897 Q414 886 347 835 Q274 780 274 691 Q274 619 322 577 Q370 535 473 512 L618 479 Z " />
<glyph glyph-name="bullet" unicode="&#x2022;" horiz-adv-x="928" d="M465 1157 Q628 1157 731 1034 Q811 937 811 808 Q811 669 709 567 Q607 465 467 465 Q336 465 239 549 Q119 652 119 811 Q119 956 219 1056 Q320 1157 465 1157 Z " />
<glyph glyph-name="paragraph" unicode="&#xb6;" horiz-adv-x="1454" d="M678 -393 L678 559 L596 559 Q364 559 221 692 Q74 827 74 1056 Q74 1282 202 1412 Q331 1544 555 1544 L1397 1544 L1397 1399 L1260 1399 L1260 -393 L1110 -393 L1110 1399 L827 1399 L827 -393 L678 -393 Z " />
<glyph glyph-name="germandbls" unicode="&#xdf;" horiz-adv-x="1214" d="M506 -2 L520 160 Q573 147 626 147 Q775 147 854 230 Q932 312 932 460 Q932 627 832 698 Q736 768 532 768 L510 768 L510 936 L532 936 Q713 936 796 1036 Q850 1100 850 1205 Q850 1318 769 1373 Q705 1415 595 1415 Q326 1415 326 1063 L326 0 L131 0 L131 1063 Q131 1354 279 1467 Q406 1565 610 1565 Q818 1565 943 1459 Q1047 1370 1047 1217 Q1047 969 797 868 Q1135 827 1135 455 Q1135 248 1013 116 Q888 -18 678 -18 Q580 -18 506 -2 Z " />
<glyph glyph-name="registered" unicode="&#xae;" horiz-adv-x="1808" d="M586 350 L586 1198 L954 1198 Q1100 1198 1174 1131 Q1247 1064 1247 948 Q1247 778 1092 711 L1280 350 L1110 350 L946 684 L932 684 L733 684 L733 350 L586 350 Z M733 807 L926 807 Q1090 807 1090 943 Q1090 1075 926 1075 L733 1075 L733 807 Z M905 1581 Q1124 1581 1313 1470 Q1495 1364 1603 1180 Q1712 993 1712 772 Q1712 552 1603 364 Q1495 179 1313 73 Q1123 -37 907 -37 Q594 -37 363 171 Q238 285 168 438 Q96 598 96 772 Q96 992 206 1180 Q314 1364 497 1470 Q687 1581 905 1581 Z M905 1442 Q639 1442 449 1246 Q258 1049 258 772 Q258 495 449 298 Q538 206 655 155 Q773 102 902 102 Q1158 102 1345 284 Q1454 390 1504 526 Q1550 649 1550 776 Q1550 953 1461 1111 Q1376 1261 1229 1350 Q1077 1442 905 1442 Z " />
<glyph glyph-name="copyright" unicode="&#xa9;" horiz-adv-x="1808" d="M1237 948 L1085 909 Q1065 982 1030 1022 Q979 1079 885 1079 Q757 1079 696 971 Q653 896 653 763 Q653 631 711 553 Q772 471 882 471 Q1059 471 1094 670 L1251 647 L1251 649 Q1220 511 1153 438 Q1055 332 879 332 Q722 332 622 422 Q494 537 494 768 Q494 978 597 1097 Q702 1217 886 1217 Q1172 1217 1237 948 Z M905 1581 Q1124 1581 1313 1470 Q1495 1364 1603 1180 Q1712 993 1712 772 Q1712 552 1603 364 Q1495 179 1313 73 Q1123 -37 907 -37 Q594 -37 363 171 Q238 285 168 438 Q96 598 96 772 Q96 992 206 1180 Q314 1364 497 1470 Q687 1581 905 1581 Z M905 1442 Q639 1442 449 1246 Q258 1049 258 772 Q258 495 449 298 Q538 206 655 155 Q773 102 902 102 Q1158 102 1345 284 Q1454 390 1504 526 Q1550 649 1550 776 Q1550 953 1461 1111 Q1376 1261 1229 1350 Q1077 1442 905 1442 Z " />
<glyph glyph-name="trademark" unicode="&#x2122;" horiz-adv-x="1923" d="M326 694 L326 1415 L35 1415 L35 1544 L770 1544 L770 1415 L479 1415 L479 694 L326 694 Z M903 694 L903 1544 L1104 1544 L1348 868 L1606 1544 L1794 1544 L1794 694 L1647 694 L1647 1307 L1415 694 L1274 694 L1051 1315 L1051 694 L903 694 Z " />
<glyph glyph-name="acute" unicode="&#xb4;" horiz-adv-x="856" d="M223 1272 L412 1544 L633 1544 L399 1272 L223 1272 Z " />
<glyph glyph-name="dieresis" unicode="&#xa8;" horiz-adv-x="856" d="M139 1295 L139 1524 L322 1524 L322 1295 L139 1295 Z M535 1295 L535 1524 L717 1524 L717 1295 L535 1295 Z " />
<glyph glyph-name="notequal" unicode="&#x2260;" horiz-adv-x="1227" d="M207 147 L352 412 L66 412 L66 578 L440 578 L612 885 L66 885 L66 1051 L700 1051 L846 1315 L1020 1315 L874 1051 L1161 1051 L1161 885 L786 885 L614 578 L1161 578 L1161 412 L526 412 L381 147 L207 147 Z " />
<glyph glyph-name="AE" unicode="&#xc6;" horiz-adv-x="2318" d="M-20 0 L981 1544 L2206 1544 L2206 1360 L1343 1360 L1343 879 L2161 879 L2161 694 L1343 694 L1343 184 L2241 184 L2241 0 L1135 0 L1135 389 L455 389 L203 0 L-20 0 Z M569 565 L1135 565 L1135 1362 L1087 1362 L569 565 Z " />
<glyph glyph-name="Oslash" unicode="&#xd8;" horiz-adv-x="1636" d="M297 -156 L174 -72 L317 147 Q96 370 96 771 Q96 1153 289 1368 Q481 1581 817 1581 Q1033 1581 1202 1487 L1341 1700 L1464 1614 L1321 1395 Q1540 1169 1540 772 Q1540 392 1347 177 Q1154 -37 818 -37 Q609 -37 436 57 L297 -156 Z M1206 1223 L541 215 Q655 133 818 133 Q1036 133 1173 284 Q1331 459 1331 772 Q1331 1042 1206 1223 Z M432 319 L1096 1329 Q976 1411 818 1411 Q574 1411 434 1227 Q305 1057 305 772 Q305 496 432 319 Z " />
<glyph glyph-name="plusminus" unicode="&#xb1;" horiz-adv-x="1227" d="M66 0 L66 164 L526 164 L526 608 L66 608 L66 772 L526 772 L526 1243 L700 1243 L700 772 L1161 772 L1161 608 L700 608 L700 164 L1161 164 L1161 0 L66 0 Z " />
<glyph glyph-name="lessequal" unicode="&#x2264;" horiz-adv-x="1227" d="M66 0 L66 168 L1161 168 L1161 0 L66 0 Z M1161 262 L66 688 L66 856 L1161 1282 L1161 1110 L283 772 L1161 436 L1161 262 Z " />
<glyph glyph-name="greaterequal" unicode="&#x2265;" horiz-adv-x="1227" d="M66 0 L66 168 L1161 168 L1161 0 L66 0 Z M66 262 L66 436 L944 772 L66 1110 L66 1282 L1161 856 L1161 688 L66 262 Z " />
<glyph glyph-name="yen" unicode="&#xa5;" horiz-adv-x="1292" d="M545 0 L545 301 L233 301 L233 426 L545 426 L545 602 L233 602 L233 727 L469 727 L0 1544 L213 1544 L653 768 L1085 1544 L1292 1544 L823 727 L1059 727 L1059 602 L748 602 L748 426 L1059 426 L1059 301 L748 301 L748 0 L545 0 Z " />
<glyph glyph-name="mu" unicode="&#xb5;" horiz-adv-x="1182" d="M131 -393 L131 1081 L326 1081 L326 371 Q326 125 551 125 Q697 125 780 252 Q856 367 856 535 L856 1081 L1051 1081 L1051 0 L862 0 L856 178 Q808 85 748 35 Q662 -37 533 -37 Q454 -37 388 -4 Q348 16 326 47 L326 -393 L131 -393 Z " />
<glyph glyph-name="pi" unicode="&#x3c0;" horiz-adv-x="1243" d="M1212 1081 L1212 910 L1061 910 L1061 0 L866 0 L866 910 L377 910 L377 0 L182 0 L182 910 L32 910 L32 1081 L1212 1081 Z " />
<glyph glyph-name="ordfeminine" unicode="&#xaa;" horiz-adv-x="862" d="M582 1296 L582 1325 Q582 1450 424 1450 Q321 1450 275 1400 Q258 1381 240 1346 L109 1376 Q171 1565 429 1565 Q731 1565 731 1337 L731 979 Q731 895 754 838 L612 838 Q600 860 596 924 Q552 870 492 843 Q431 815 330 815 Q219 815 155 866 Q84 922 84 1023 Q84 1134 150 1192 Q215 1249 346 1266 L582 1296 Z M582 1188 L379 1157 Q310 1146 271 1118 Q231 1091 231 1032 Q231 928 366 928 Q454 928 516 971 Q582 1017 582 1104 L582 1188 Z " />
<glyph glyph-name="ordmasculine" unicode="&#xba;" horiz-adv-x="938" d="M469 1565 Q671 1565 769 1433 Q840 1337 840 1186 Q840 1023 749 924 Q650 815 471 815 Q305 815 206 905 Q98 1004 98 1190 Q98 1359 188 1457 Q288 1565 469 1565 Z M465 1440 Q347 1440 292 1352 Q254 1292 254 1187 Q254 1076 304 1011 Q360 938 467 938 Q572 938 628 1005 Q682 1068 682 1193 Q682 1320 615 1387 Q562 1440 465 1440 Z " />
<glyph glyph-name="ae" unicode="&#xe6;" horiz-adv-x="1837" d="M778 690 L778 764 Q778 969 542 969 Q396 969 332 886 Q304 849 281 784 L109 829 Q193 1118 546 1118 Q700 1118 793 1065 Q869 1022 913 938 Q1031 1118 1281 1118 Q1542 1118 1668 944 Q1722 871 1747 757 Q1765 673 1765 592 L1765 496 L965 496 Q972 368 1005 291 Q1078 121 1284 121 Q1503 121 1571 332 L1743 268 Q1639 -37 1274 -37 Q980 -37 864 178 Q713 -37 426 -37 Q273 -37 178 41 Q72 127 72 281 Q72 463 195 555 Q278 616 446 641 L778 690 Z M778 549 L487 504 Q358 484 303 420 Q262 373 262 286 Q262 201 317 155 Q368 111 457 111 Q571 111 658 167 Q778 246 778 389 L778 549 Z M967 641 L1569 641 Q1553 969 1276 969 Q1115 969 1032 844 Q982 768 967 641 Z " />
<glyph glyph-name="oslash" unicode="&#xf8;" horiz-adv-x="1192" d="M221 -127 L115 -59 L227 106 Q80 264 80 540 Q80 800 205 952 Q343 1118 595 1118 Q754 1118 868 1053 L973 1206 L1079 1139 L967 973 Q1112 813 1112 541 Q1112 283 986 130 Q848 -37 596 -37 Q444 -37 326 29 L221 -127 Z M860 813 L420 166 Q496 117 597 117 Q742 117 825 216 Q920 330 920 541 Q920 705 860 813 Z M334 262 L774 911 Q700 965 596 965 Q435 965 350 843 Q272 732 272 540 Q272 377 334 262 Z " />
<glyph glyph-name="questiondown" unicode="&#xbf;" horiz-adv-x="1116" d="M414 392 Q417 396 422 400 Q425 402 428 407 Q446 420 470 446.5 Q494 473 500 485 Q516 509 516 546 L516 646 L707 646 L707 503 Q707 423 668 370 Q662 366 657 359 L655 358 Q626 324 514 251 Q404 179 363 131 Q303 59 303 -42 Q303 -277 571 -277 Q749 -277 822 -152 Q851 -102 870 -19 L1057 -46 Q980 -433 561 -433 Q351 -433 229 -337 Q100 -236 100 -50 Q100 120 241 251 Q293 300 346 338 Q383 364 397 378 Q406 387 414 392 Z M498 872 L498 1148 L727 1148 L727 872 L498 872 Z " />
<glyph glyph-name="exclamdown" unicode="&#xa1;" horiz-adv-x="608" d="M193 -396 L193 -93 L221 630 L387 630 L416 -93 L416 -396 L193 -396 Z M188 872 L188 1148 L418 1148 L418 872 L188 872 Z " />
<glyph glyph-name="logicalnot" unicode="&#xac;" horiz-adv-x="1227" d="M991 412 L991 883 L66 883 L66 1051 L1161 1051 L1161 412 L991 412 Z " />
<glyph glyph-name="florin" unicode="&#x192;" horiz-adv-x="887" d="M-186 -403 L-158 -248 Q-111 -262 -51 -262 Q101 -262 131 -98 L291 778 L158 778 L158 932 L319 932 L383 1276 Q437 1565 718 1565 Q788 1565 881 1550 L852 1391 Q786 1399 745 1399 Q653 1399 605 1327 Q573 1279 563 1223 L510 932 L731 932 L731 778 L483 778 L317 -129 Q296 -245 251 -307 Q168 -424 -16 -424 L-28 -424 Q-102 -424 -186 -403 Z " />
<glyph glyph-name="guillemotleft" unicode="&#xab;" horiz-adv-x="940" d="M281 174 L35 535 L281 895 L481 895 L238 535 L481 174 L281 174 Z M705 174 L461 535 L705 895 L905 895 L662 535 L905 174 L705 174 Z " />
<glyph glyph-name="guillemotright" unicode="&#xbb;" horiz-adv-x="940" d="M35 174 L279 535 L35 895 L236 895 L481 535 L236 174 L35 174 Z M461 174 L705 535 L461 895 L662 895 L905 535 L662 174 L461 174 Z " />
<glyph glyph-name="ellipsis" unicode="&#x2026;" horiz-adv-x="2048" d="M223 0 L223 281 L459 281 L459 0 L223 0 Z M905 0 L905 281 L1141 281 L1141 0 L905 0 Z M1589 0 L1589 281 L1825 281 L1825 0 L1589 0 Z " />
<glyph glyph-name="Agrave" unicode="&#xc0;" horiz-adv-x="1427" d="M0 0 L582 1544 L846 1544 L1427 0 L1206 0 L1069 379 L338 379 L199 0 L0 0 Z M406 557 L1004 557 L707 1372 L406 557 Z M639 1659 L405 1931 L626 1931 L815 1659 L639 1659 Z " />
<glyph glyph-name="Atilde" unicode="&#xc3;" horiz-adv-x="1427" d="M0 0 L582 1544 L846 1544 L1427 0 L1206 0 L1069 379 L338 379 L199 0 L0 0 Z M406 557 L1004 557 L707 1372 L406 557 Z M446 1683 L319 1714 Q365 1921 533 1921 Q603 1921 698 1872 L766 1837 Q826 1806 864 1806 Q928 1806 954 1907 L1083 1876 Q1061 1782 1012 1728 Q955 1667 872 1667 L865 1667 Q822 1667 780 1681 Q755 1689 696 1720 L637 1751 Q578 1782 542 1782 Q476 1782 446 1683 Z " />
<glyph glyph-name="Otilde" unicode="&#xd5;" horiz-adv-x="1636" d="M817 1581 Q1155 1581 1347 1368 Q1540 1153 1540 772 Q1540 392 1347 177 Q1154 -37 822 -37 Q516 -37 328 137 Q96 353 96 773 Q96 1153 289 1368 Q481 1581 817 1581 Z M817 1407 Q577 1407 440 1225 Q313 1055 313 772 Q313 490 440 319 Q577 137 812 137 Q1034 137 1168 287 Q1323 460 1323 772 Q1323 1055 1195 1225 Q1057 1407 817 1407 Z M562 1683 L435 1714 Q481 1921 649 1921 Q719 1921 814 1872 L882 1837 Q942 1806 980 1806 Q1044 1806 1070 1907 L1199 1876 Q1177 1782 1128 1728 Q1071 1667 988 1667 L981 1667 Q938 1667 896 1681 Q871 1689 812 1720 L753 1751 Q694 1782 658 1782 Q592 1782 562 1683 Z " />
<glyph glyph-name="OE" unicode="&#x152;" horiz-adv-x="2499" d="M1317 1346 L1317 1544 L2386 1544 L2386 1360 L1520 1360 L1520 879 L2341 879 L2341 694 L1520 694 L1520 184 L2419 184 L2419 0 L1317 0 L1317 209 Q1240 108 1148 51 Q1005 -37 800 -37 Q509 -37 325 138 Q96 355 96 770 Q96 1151 288 1368 Q476 1581 804 1581 Q1151 1581 1317 1346 Z M817 1407 Q577 1407 440 1225 Q313 1055 313 772 Q313 490 440 319 Q577 137 812 137 Q1033 137 1169 287 Q1325 460 1325 772 Q1325 1055 1196 1225 Q1057 1407 817 1407 Z " />
<glyph glyph-name="oe" unicode="&#x153;" horiz-adv-x="1976" d="M1008 889 Q1137 1118 1419 1118 Q1654 1118 1782 974 Q1905 837 1905 592 L1905 496 L1104 496 Q1111 370 1145 291 Q1218 121 1424 121 Q1568 121 1647 213 Q1691 264 1710 332 L1882 268 Q1777 -37 1413 -37 Q1130 -37 1006 188 Q873 -37 597 -37 Q367 -37 231 101 Q80 256 80 541 Q80 800 205 952 Q343 1118 593 1118 Q876 1118 1008 889 Z M592 961 Q438 961 354 840 Q279 730 279 541 Q279 349 354 241 Q438 121 593 121 Q744 121 829 229 Q913 335 913 547 Q913 760 812 872 Q732 961 592 961 Z M1106 641 L1708 641 Q1688 969 1416 969 Q1253 969 1171 844 Q1119 765 1106 641 Z " />
<glyph glyph-name="endash" unicode="&#x2013;" horiz-adv-x="1024" d="M0 500 L0 666 L1024 666 L1024 500 L0 500 Z " />
<glyph glyph-name="emdash" unicode="&#x2014;" horiz-adv-x="2048" d="M0 500 L0 666 L2048 666 L2048 500 L0 500 Z " />
<glyph glyph-name="quotedblleft" unicode="&#x201c;" horiz-adv-x="938" d="M141 911 L141 1167 Q141 1308 209 1418 Q248 1482 338 1563 L416 1479 Q349 1415 317 1365 Q276 1300 276 1219 L276 1192 L379 1192 L379 911 L141 911 Z M559 911 L559 1167 Q559 1309 628 1418 Q671 1486 758 1563 L834 1479 Q766 1414 734 1362 Q694 1298 694 1219 L694 1192 L797 1192 L797 911 L559 911 Z " />
<glyph glyph-name="quotedblright" unicode="&#x201d;" horiz-adv-x="938" d="M180 893 L104 977 Q175 1048 202 1094 Q244 1162 244 1237 L244 1264 L141 1264 L141 1544 L379 1544 L379 1288 Q379 1174 338 1088 Q291 990 180 893 Z M600 893 L522 977 Q594 1050 623 1095 Q662 1158 662 1237 L662 1264 L559 1264 L559 1544 L797 1544 L797 1288 Q797 1146 730 1040 Q688 972 600 893 Z " />
<glyph glyph-name="quoteleft" unicode="&#x2018;" horiz-adv-x="520" d="M141 911 L141 1167 Q141 1308 209 1418 Q248 1482 338 1563 L416 1479 Q349 1415 317 1365 Q276 1300 276 1219 L276 1192 L379 1192 L379 911 L141 911 Z " />
<glyph glyph-name="quoteright" unicode="&#x2019;" horiz-adv-x="520" d="M180 893 L104 977 Q175 1048 202 1094 Q244 1162 244 1237 L244 1264 L141 1264 L141 1544 L379 1544 L379 1288 Q379 1174 338 1088 Q291 990 180 893 Z " />
<glyph glyph-name="divide" unicode="&#xf7;" horiz-adv-x="1227" d="M506 209 L506 455 L721 455 L721 209 L506 209 Z M66 647 L66 815 L1161 815 L1161 647 L66 647 Z M506 1008 L506 1253 L721 1253 L721 1008 L506 1008 Z " />
<glyph glyph-name="ydieresis" unicode="&#xff;" horiz-adv-x="1063" d="M74 -395 L106 -238 Q172 -260 234 -260 Q305 -260 346 -226 Q384 -193 410 -127 L459 0 L0 1081 L209 1081 L553 233 L866 1081 L1063 1081 L586 -184 Q546 -290 494 -342 Q412 -424 270 -424 L259 -424 Q174 -424 74 -395 Z M243 1295 L243 1524 L426 1524 L426 1295 L243 1295 Z M639 1295 L639 1524 L821 1524 L821 1295 L639 1295 Z " />
<glyph glyph-name="Ydieresis" unicode="&#x178;" horiz-adv-x="1292" d="M541 0 L541 602 L0 1544 L225 1544 L655 786 L1077 1544 L1292 1544 L752 602 L752 0 L541 0 Z M365 1678 L365 1907 L548 1907 L548 1678 L365 1678 Z M761 1678 L761 1907 L943 1907 L943 1678 L761 1678 Z " />
<glyph glyph-name="fraction" unicode="&#x2044;" horiz-adv-x="268" d="M-324 -37 L426 1497 L590 1497 L-160 -37 L-324 -37 Z " />
<glyph glyph-name="Euro" unicode="&#x20ac;" horiz-adv-x="1291" d="M194 551 L41 551 L94 678 L182 678 Q180 712 180 738 L180 758 Q180 801 184 866 L41 866 L94 993 L199 993 Q243 1249 371 1395 Q536 1581 812 1581 Q1068 1581 1228 1423 L1151 1239 Q1051 1342 993 1374 Q917 1417 812 1417 Q482 1417 405 993 L1049 993 L997 866 L391 866 Q387 801 387 758 Q387 722 389 678 L919 678 L866 551 L401 551 Q477 129 807 129 Q895 129 960 158 Q1027 188 1151 287 L1151 69 Q1060 7 988 -15 Q916 -37 804 -37 Q543 -37 382 129 Q239 277 194 551 Z " />
<glyph glyph-name="guilsinglleft" unicode="&#x2039;" horiz-adv-x="516" d="M281 174 L35 535 L281 895 L481 895 L238 535 L481 174 L281 174 Z " />
<glyph glyph-name="guilsinglright" unicode="&#x203a;" horiz-adv-x="516" d="M35 174 L279 535 L35 895 L236 895 L481 535 L236 174 L35 174 Z " />
<glyph glyph-name="uniF001" unicode="&#xf001;" horiz-adv-x="1114" d="M193 0 L193 928 L35 928 L35 1081 L193 1081 L193 1249 Q193 1391 262 1475 Q336 1565 492 1565 Q564 1565 664 1548 L649 1389 Q583 1397 546 1397 Q465 1397 426 1356 Q387 1314 387 1217 L387 1081 L635 1081 L635 928 L387 928 L387 0 L193 0 Z M778 0 L778 1081 L973 1081 L973 0 L778 0 Z M778 1315 L778 1544 L973 1544 L973 1315 L778 1315 Z " />
<glyph glyph-name="uniF002" unicode="&#xf002;" horiz-adv-x="1114" d="M193 0 L193 928 L35 928 L35 1081 L193 1081 L193 1249 Q193 1391 262 1475 Q336 1565 492 1565 Q564 1565 664 1548 L649 1389 Q583 1397 546 1397 Q465 1397 426 1356 Q387 1314 387 1217 L387 1081 L635 1081 L635 928 L387 928 L387 0 L193 0 Z M778 0 L778 1544 L973 1544 L973 0 L778 0 Z " />
<glyph glyph-name="daggerdbl" unicode="&#x2021;" horiz-adv-x="1163" d="M487 -197 L487 250 L129 250 L129 422 L487 422 L487 926 L129 926 L129 1098 L487 1098 L487 1544 L674 1544 L674 1098 L1034 1098 L1034 926 L676 926 L676 422 L1034 422 L1034 250 L676 250 L676 -197 L487 -197 Z " />
<glyph glyph-name="periodcentered" unicode="&#xb7;" horiz-adv-x="520" d="M141 590 L141 870 L379 870 L379 590 L141 590 Z " />
<glyph glyph-name="quotesinglbase" unicode="&#x201a;" horiz-adv-x="520" d="M180 -371 L104 -287 Q172 -221 200 -173 Q244 -102 244 -27 L244 0 L141 0 L141 281 L379 281 L379 25 Q379 -117 310 -226 Q267 -294 180 -371 Z " />
<glyph glyph-name="quotedblbase" unicode="&#x201e;" horiz-adv-x="938" d="M180 -371 L104 -287 Q172 -221 200 -173 Q244 -102 244 -27 L244 0 L141 0 L141 281 L379 281 L379 25 Q379 -117 310 -226 Q267 -294 180 -371 Z M600 -371 L522 -287 Q593 -216 621 -172 Q662 -106 662 -27 L662 0 L559 0 L559 281 L797 281 L797 25 Q797 -118 729 -226 Q691 -288 600 -371 Z " />
<glyph glyph-name="perthousand" unicode="&#x2030;" horiz-adv-x="2757" d="M496 -37 L1241 1497 L1411 1497 L668 -37 L496 -37 Z M1482 885 Q1674 885 1763 743 Q1835 628 1835 420 Q1835 200 1748 84 Q1657 -37 1478 -37 Q1124 -37 1124 427 Q1124 684 1236 800 Q1319 885 1482 885 Z M1478 752 Q1290 752 1290 427 Q1290 98 1476 98 Q1667 98 1667 424 Q1667 752 1478 752 Z M2327 885 Q2683 885 2683 420 Q2683 199 2597 84 Q2507 -37 2328 -37 Q1974 -37 1974 426 Q1974 885 2327 885 Z M2327 752 Q2140 752 2140 427 Q2140 98 2325 98 Q2517 98 2517 424 Q2517 752 2327 752 Z M427 1497 Q784 1497 784 1028 Q784 776 668 660 Q583 575 430 575 Q74 575 74 1035 Q74 1497 427 1497 Z M426 1364 Q322 1364 279 1267 Q244 1187 244 1032 Q244 879 285 795 Q327 711 426 711 Q521 711 569 787 Q616 861 616 1042 Q616 1227 556 1307 Q513 1364 426 1364 Z " />
<glyph glyph-name="Acircumflex" unicode="&#xc2;" horiz-adv-x="1427" d="M0 0 L582 1544 L846 1544 L1427 0 L1206 0 L1069 379 L338 379 L199 0 L0 0 Z M406 557 L1004 557 L707 1372 L406 557 Z M363 1659 L611 1931 L811 1931 L1059 1659 L875 1659 L711 1819 L547 1659 L363 1659 Z " />
<glyph glyph-name="Ecircumflex" unicode="&#xca;" horiz-adv-x="1337" d="M152 0 L152 1544 L1225 1544 L1225 1360 L360 1360 L360 879 L1180 879 L1180 694 L360 694 L360 184 L1260 184 L1260 0 L152 0 Z M348 1659 L596 1931 L796 1931 L1044 1659 L860 1659 L696 1819 L532 1659 L348 1659 Z " />
<glyph glyph-name="Aacute" unicode="&#xc1;" horiz-adv-x="1427" d="M0 0 L582 1544 L846 1544 L1427 0 L1206 0 L1069 379 L338 379 L199 0 L0 0 Z M406 557 L1004 557 L707 1372 L406 557 Z M620 1659 L809 1931 L1030 1931 L796 1659 L620 1659 Z " />
<glyph glyph-name="Edieresis" unicode="&#xcb;" horiz-adv-x="1337" d="M152 0 L152 1544 L1225 1544 L1225 1360 L360 1360 L360 879 L1180 879 L1180 694 L360 694 L360 184 L1260 184 L1260 0 L152 0 Z M406 1678 L406 1907 L589 1907 L589 1678 L406 1678 Z M802 1678 L802 1907 L984 1907 L984 1678 L802 1678 Z " />
<glyph glyph-name="Egrave" unicode="&#xc8;" horiz-adv-x="1337" d="M152 0 L152 1544 L1225 1544 L1225 1360 L360 1360 L360 879 L1180 879 L1180 694 L360 694 L360 184 L1260 184 L1260 0 L152 0 Z M672 1659 L438 1931 L659 1931 L848 1659 L672 1659 Z " />
<glyph glyph-name="Iacute" unicode="&#xcd;" horiz-adv-x="510" d="M152 0 L152 1544 L360 1544 L360 0 L152 0 Z M168 1659 L357 1931 L578 1931 L344 1659 L168 1659 Z " />
<glyph glyph-name="Icircumflex" unicode="&#xce;" horiz-adv-x="510" d="M152 0 L152 1544 L360 1544 L360 0 L152 0 Z M-91 1659 L157 1931 L357 1931 L605 1659 L421 1659 L257 1819 L93 1659 L-91 1659 Z " />
<glyph glyph-name="Idieresis" unicode="&#xcf;" horiz-adv-x="510" d="M152 0 L152 1544 L360 1544 L360 0 L152 0 Z M-30 1678 L-30 1907 L153 1907 L153 1678 L-30 1678 Z M366 1678 L366 1907 L548 1907 L548 1678 L366 1678 Z " />
<glyph glyph-name="Igrave" unicode="&#xcc;" horiz-adv-x="510" d="M152 0 L152 1544 L360 1544 L360 0 L152 0 Z M178 1659 L-56 1931 L165 1931 L354 1659 L178 1659 Z " />
<glyph glyph-name="Oacute" unicode="&#xd3;" horiz-adv-x="1636" d="M817 1581 Q1155 1581 1347 1368 Q1540 1153 1540 772 Q1540 392 1347 177 Q1154 -37 822 -37 Q516 -37 328 137 Q96 353 96 773 Q96 1153 289 1368 Q481 1581 817 1581 Z M817 1407 Q577 1407 440 1225 Q313 1055 313 772 Q313 490 440 319 Q577 137 812 137 Q1034 137 1168 287 Q1323 460 1323 772 Q1323 1055 1195 1225 Q1057 1407 817 1407 Z M724 1659 L913 1931 L1134 1931 L900 1659 L724 1659 Z " />
<glyph glyph-name="Ocircumflex" unicode="&#xd4;" horiz-adv-x="1636" d="M817 1581 Q1155 1581 1347 1368 Q1540 1153 1540 772 Q1540 392 1347 177 Q1154 -37 822 -37 Q516 -37 328 137 Q96 353 96 773 Q96 1153 289 1368 Q481 1581 817 1581 Z M817 1407 Q577 1407 440 1225 Q313 1055 313 772 Q313 490 440 319 Q577 137 812 137 Q1034 137 1168 287 Q1323 460 1323 772 Q1323 1055 1195 1225 Q1057 1407 817 1407 Z M468 1659 L716 1931 L916 1931 L1164 1659 L980 1659 L816 1819 L652 1659 L468 1659 Z " />
<glyph glyph-name="Ograve" unicode="&#xd2;" horiz-adv-x="1636" d="M817 1581 Q1155 1581 1347 1368 Q1540 1153 1540 772 Q1540 392 1347 177 Q1154 -37 822 -37 Q516 -37 328 137 Q96 353 96 773 Q96 1153 289 1368 Q481 1581 817 1581 Z M817 1407 Q577 1407 440 1225 Q313 1055 313 772 Q313 490 440 319 Q577 137 812 137 Q1034 137 1168 287 Q1323 460 1323 772 Q1323 1055 1195 1225 Q1057 1407 817 1407 Z M780 1659 L546 1931 L767 1931 L956 1659 L780 1659 Z " />
<glyph glyph-name="Uacute" unicode="&#xda;" horiz-adv-x="1485" d="M139 1544 L348 1544 L348 588 Q348 350 456 240 Q552 143 744 143 Q951 143 1047 262 Q1135 371 1135 588 L1135 1544 L1343 1544 L1343 588 Q1343 302 1214 147 Q1061 -37 745 -37 Q139 -37 139 588 L139 1544 Z M619 1659 L808 1931 L1029 1931 L795 1659 L619 1659 Z " />
<glyph glyph-name="Ucircumflex" unicode="&#xdb;" horiz-adv-x="1485" d="M139 1544 L348 1544 L348 588 Q348 350 456 240 Q552 143 744 143 Q951 143 1047 262 Q1135 371 1135 588 L1135 1544 L1343 1544 L1343 588 Q1343 302 1214 147 Q1061 -37 745 -37 Q139 -37 139 588 L139 1544 Z M390 1659 L638 1931 L838 1931 L1086 1659 L902 1659 L738 1819 L574 1659 L390 1659 Z " />
<glyph glyph-name="Ugrave" unicode="&#xd9;" horiz-adv-x="1485" d="M139 1544 L348 1544 L348 588 Q348 350 456 240 Q552 143 744 143 Q951 143 1047 262 Q1135 371 1135 588 L1135 1544 L1343 1544 L1343 588 Q1343 302 1214 147 Q1061 -37 745 -37 Q139 -37 139 588 L139 1544 Z M709 1659 L475 1931 L696 1931 L885 1659 L709 1659 Z " />
<glyph glyph-name="dotlessi" unicode="&#x131;" horiz-adv-x="477" d="M141 0 L141 1081 L336 1081 L336 0 L141 0 Z " />
<glyph glyph-name="circumflex" unicode="&#x2c6;" horiz-adv-x="856" d="M78 1272 L326 1544 L526 1544 L774 1272 L590 1272 L426 1432 L262 1272 L78 1272 Z " />
<glyph glyph-name="tilde" unicode="&#x2dc;" horiz-adv-x="856" d="M174 1300 L47 1331 Q93 1538 260 1538 Q331 1538 426 1489 L494 1454 Q554 1423 592 1423 Q655 1423 682 1524 L811 1493 Q789 1399 739 1345 Q682 1284 601 1284 Q559 1284 520 1294 Q489 1302 424 1337 L365 1368 Q306 1399 270 1399 Q205 1399 174 1300 Z " />
<glyph glyph-name="uni02C9" unicode="&#x2c9;" horiz-adv-x="856" d="M150 1327 L150 1473 L705 1473 L705 1327 L150 1327 Z " />
<glyph glyph-name="breve" unicode="&#x2d8;" horiz-adv-x="856" d="M94 1528 L248 1528 Q293 1419 431 1419 Q574 1419 610 1528 L764 1528 Q720 1288 428 1288 Q279 1288 191 1356 Q110 1419 94 1528 Z " />
<glyph glyph-name="dotaccent" unicode="&#x2d9;" horiz-adv-x="856" d="M336 1293 L336 1528 L518 1528 L518 1293 L336 1293 Z " />
<glyph glyph-name="ring" unicode="&#x2da;" horiz-adv-x="856" d="M428 1621 Q554 1621 617 1545 Q662 1490 662 1408 Q662 1316 603 1258 Q540 1196 426 1196 Q320 1196 258 1248 Q187 1306 187 1410 Q187 1513 260 1571 Q322 1621 428 1621 Z M423 1529 Q354 1529 318 1485 Q294 1455 294 1408 Q294 1358 326 1325 Q362 1290 423 1290 Q484 1290 520 1323 Q555 1355 555 1411 Q555 1467 513 1501 Q478 1529 423 1529 Z " />
<glyph glyph-name="cedilla" unicode="&#xb8;" horiz-adv-x="856" d="M242 -393 L246 -387 Q369 -206 444 -121 L610 -121 L451 -393 L242 -393 Z " />
<glyph glyph-name="hungarumlaut" unicode="&#x2dd;" horiz-adv-x="856" d="M131 1272 L244 1544 L422 1544 L268 1272 L131 1272 Z M428 1272 L543 1544 L721 1544 L567 1272 L428 1272 Z " />
<glyph glyph-name="ogonek" unicode="&#x2db;" horiz-adv-x="856" d="M704 0 L810 0 Q716 -74 716 -156 Q716 -231 795 -231 Q839 -231 896 -188 L896 -314 Q831 -358 761 -358 Q673 -358 619 -304 Q578 -262 578 -195 Q578 -81 704 0 Z " />
<glyph glyph-name="caron" unicode="&#x2c7;" horiz-adv-x="856" d="M328 1272 L80 1544 L264 1544 L428 1384 L592 1544 L776 1544 L528 1272 L328 1272 Z " />
<glyph glyph-name="uni00A0" unicode="&#xa0;" horiz-adv-x="485" d="" />
<glyph glyph-name="currency" unicode="&#xa4;" horiz-adv-x="1286" d="M211 231 L102 340 L219 457 Q113 599 113 774 Q113 950 219 1092 L102 1208 L211 1317 L328 1200 Q470 1305 642 1305 Q816 1305 958 1200 L1073 1317 L1184 1208 L1067 1092 Q1174 949 1174 774 Q1174 600 1067 457 L1184 340 L1075 231 L958 348 Q814 244 643 244 Q472 244 328 348 L211 231 Z M639 1149 Q491 1149 385 1039 Q279 929 279 774 Q279 619 385 509 Q491 399 640 399 Q787 399 894 503 Q954 561 983 646 Q1006 712 1006 778 Q1006 885 947 979 Q891 1068 803 1110 Q721 1149 639 1149 Z " />
<glyph glyph-name="brokenbar" unicode="&#xa6;" horiz-adv-x="489" d="M184 0 L184 514 L346 514 L346 0 L184 0 Z M184 1030 L184 1544 L346 1544 L346 1030 L184 1030 Z " />
<glyph glyph-name="uni00AD" unicode="&#xad;" horiz-adv-x="838" d="M115 440 L115 643 L721 643 L721 440 L115 440 Z " />
<glyph glyph-name="macron" unicode="&#xaf;" horiz-adv-x="856" d="M82 1335 L82 1481 L774 1481 L774 1335 L82 1335 Z " />
<glyph glyph-name="twosuperior" unicode="&#xb2;" horiz-adv-x="877" d="M92 596 L92 649 Q92 837 409 1019 Q482 1061 527 1098 Q598 1158 598 1229 Q598 1364 435 1364 Q343 1364 297 1307 Q267 1270 250 1202 L88 1229 Q118 1339 179 1402 Q271 1497 453 1497 Q637 1497 720 1400 Q774 1336 774 1227 Q774 1113 686 1031 Q644 992 565 944 Q386 835 336 785 Q312 761 297 733 L780 733 L780 596 L92 596 Z " />
<glyph glyph-name="threesuperior" unicode="&#xb3;" horiz-adv-x="877" d="M72 850 L238 870 Q254 711 424 711 Q612 711 612 844 Q612 929 530 961 Q480 980 383 981 L383 1116 Q490 1120 535 1146 Q600 1182 600 1249 Q600 1310 546 1343 Q503 1368 437 1368 Q283 1368 256 1229 L90 1249 Q113 1347 170 1405 Q259 1497 443 1497 Q577 1497 659 1452 Q772 1389 772 1260 Q772 1109 618 1049 Q791 1009 791 840 Q791 710 685 638 Q593 575 435 575 Q86 575 72 850 Z " />
<glyph glyph-name="onesuperior" unicode="&#xb9;" horiz-adv-x="877" d="M406 596 L406 1292 Q323 1239 205 1190 L147 1309 Q315 1386 426 1477 L565 1477 L565 596 L406 596 Z " />
<glyph glyph-name="onequarter" unicode="&#xbc;" horiz-adv-x="2017" d="M549 -37 L1292 1497 L1464 1497 L721 -37 L549 -37 Z M1667 -16 L1667 156 L1192 156 L1192 289 L1645 864 L1819 864 L1819 285 L1909 285 L1909 156 L1819 156 L1819 -16 L1667 -16 Z M1350 285 L1665 285 L1665 690 L1350 285 Z M401 596 L401 1292 Q319 1239 201 1190 L143 1309 Q311 1386 422 1477 L561 1477 L561 596 L401 596 Z " />
<glyph glyph-name="onehalf" unicode="&#xbd;" horiz-adv-x="2017" d="M537 -37 L1280 1497 L1452 1497 L709 -37 L537 -37 Z M1243 -16 L1243 37 Q1243 217 1513 378 Q1631 448 1676 483 Q1749 541 1749 615 Q1749 752 1586 752 Q1522 752 1479 723 Q1427 689 1401 590 L1239 616 Q1270 730 1331 791 Q1423 885 1602 885 Q1788 885 1871 788 Q1925 724 1925 614 Q1925 501 1837 419 Q1793 378 1716 332 Q1628 280 1539 216 Q1476 171 1448 121 L1931 121 L1931 -16 L1243 -16 Z M401 596 L401 1292 Q319 1239 201 1190 L143 1309 Q311 1386 422 1477 L561 1477 L561 596 L401 596 Z " />
<glyph glyph-name="threequarters" unicode="&#xbe;" horiz-adv-x="2017" d="M604 -37 L1352 1497 L1520 1497 L772 -37 L604 -37 Z M1667 -16 L1667 156 L1192 156 L1192 289 L1645 864 L1819 864 L1819 285 L1909 285 L1909 156 L1819 156 L1819 -16 L1667 -16 Z M1350 285 L1665 285 L1665 690 L1350 285 Z M78 850 L244 870 Q260 711 430 711 Q618 711 618 844 Q618 929 536 961 Q486 980 389 981 L389 1116 Q496 1120 541 1146 Q606 1182 606 1249 Q606 1310 552 1343 Q509 1368 443 1368 Q289 1368 262 1229 L96 1249 Q119 1348 176 1406 Q265 1497 449 1497 Q582 1497 665 1452 Q778 1391 778 1260 Q778 1109 625 1049 Q797 1010 797 840 Q797 710 691 638 Q599 575 441 575 Q92 575 78 850 Z " />
<glyph glyph-name="Eth" unicode="&#xd0;" horiz-adv-x="1499" d="M152 0 L152 711 L0 711 L0 860 L152 860 L152 1544 L639 1544 Q1022 1544 1212 1355 Q1403 1164 1403 768 Q1403 392 1212 196 Q1021 0 639 0 L152 0 Z M360 178 L649 178 Q926 178 1063 349 Q1184 499 1184 778 Q1184 1054 1065 1200 Q930 1366 653 1366 L360 1366 L360 860 L711 860 L711 711 L360 711 L360 178 Z " />
<glyph glyph-name="multiply" unicode="&#xd7;" horiz-adv-x="1227" d="M285 246 L162 358 L502 731 L162 1104 L285 1217 L614 854 L946 1217 L1069 1104 L729 731 L1069 358 L946 246 L614 608 L285 246 Z " />
<glyph glyph-name="Yacute" unicode="&#xdd;" horiz-adv-x="1292" d="M541 0 L541 602 L0 1544 L225 1544 L655 786 L1077 1544 L1292 1544 L752 602 L752 0 L541 0 Z M531 1659 L720 1931 L941 1931 L707 1659 L531 1659 Z " />
<glyph glyph-name="Thorn" unicode="&#xde;" horiz-adv-x="1354" d="M152 0 L152 1544 L356 1544 L356 1262 L793 1262 Q1054 1262 1182 1106 Q1280 986 1280 790 Q1280 575 1136 446 Q993 319 752 319 L356 319 L356 0 L152 0 Z M356 492 L754 492 Q892 492 977 568 Q1069 651 1069 793 Q1069 953 966 1030 Q887 1090 760 1090 L356 1090 L356 492 Z " />
<glyph glyph-name="eth" unicode="&#xf0;" horiz-adv-x="1194" d="M850 907 Q787 1100 647 1251 L444 1108 L379 1208 L557 1335 Q458 1420 375 1468 L463 1581 Q589 1520 698 1432 L889 1565 L956 1466 L791 1350 Q1114 1006 1114 570 Q1114 278 987 124 Q854 -37 595 -37 Q366 -37 231 88 Q80 227 80 483 Q80 714 201 856 Q330 1008 557 1008 Q744 1008 850 907 Z M590 850 Q436 850 354 743 Q279 646 279 481 Q279 317 354 224 Q438 121 593 121 Q745 121 830 217 Q913 309 913 490 Q913 674 813 771 Q732 850 590 850 Z " />
<glyph glyph-name="yacute" unicode="&#xfd;" horiz-adv-x="1063" d="M74 -395 L106 -238 Q172 -260 234 -260 Q305 -260 346 -226 Q384 -193 410 -127 L459 0 L0 1081 L209 1081 L553 233 L866 1081 L1063 1081 L586 -184 Q546 -290 494 -342 Q412 -424 270 -424 L259 -424 Q174 -424 74 -395 Z M451 1272 L640 1544 L861 1544 L627 1272 L451 1272 Z " />
<glyph glyph-name="thorn" unicode="&#xfe;" horiz-adv-x="1214" d="M131 -393 L131 1544 L326 1544 L326 926 Q451 1118 689 1118 Q839 1118 949 1034 Q1135 893 1135 554 Q1135 296 1024 141 Q897 -37 664 -37 Q450 -37 326 141 L326 -393 L131 -393 Z M630 961 Q478 961 394 832 Q319 717 319 532 Q319 353 392 243 Q473 121 621 121 Q739 121 816 190 Q932 293 932 546 Q932 961 630 961 Z " />
<glyph glyph-name="Amacron" unicode="&#x100;" horiz-adv-x="1427" d="M0 0 L582 1544 L846 1544 L1427 0 L1206 0 L1069 379 L338 379 L199 0 L0 0 Z M406 557 L1004 557 L707 1372 L406 557 Z M361 1710 L361 1856 L1053 1856 L1053 1710 L361 1710 Z " />
<glyph glyph-name="amacron" unicode="&#x101;" horiz-adv-x="1077" d="M778 690 L778 764 Q778 969 541 969 Q400 969 334 887 Q303 848 281 784 L109 829 Q140 939 214 1007 Q335 1118 550 1118 Q969 1118 969 768 L969 201 Q969 106 1004 0 L819 0 Q798 62 797 139 Q722 45 637 4 Q554 -37 423 -37 Q270 -37 175 41 Q72 126 72 280 Q72 463 195 555 Q278 616 446 641 L778 690 Z M778 549 L487 504 Q358 484 303 420 Q262 373 262 286 Q262 201 317 155 Q368 111 457 111 Q571 111 658 167 Q778 246 778 389 L778 549 Z M280 1327 L280 1473 L835 1473 L835 1327 L280 1327 Z " />
<glyph glyph-name="Abreve" unicode="&#x102;" horiz-adv-x="1427" d="M0 0 L582 1544 L846 1544 L1427 0 L1206 0 L1069 379 L338 379 L199 0 L0 0 Z M406 557 L1004 557 L707 1372 L406 557 Z M381 1911 L535 1911 Q584 1802 718 1802 Q861 1802 897 1911 L1051 1911 Q1007 1671 715 1671 Q565 1671 477 1739 Q397 1802 381 1911 Z " />
<glyph glyph-name="abreve" unicode="&#x103;" horiz-adv-x="1077" d="M778 690 L778 764 Q778 969 541 969 Q400 969 334 887 Q303 848 281 784 L109 829 Q140 939 214 1007 Q335 1118 550 1118 Q969 1118 969 768 L969 201 Q969 106 1004 0 L819 0 Q798 62 797 139 Q722 45 637 4 Q554 -37 423 -37 Q270 -37 175 41 Q72 126 72 280 Q72 463 195 555 Q278 616 446 641 L778 690 Z M778 549 L487 504 Q358 484 303 420 Q262 373 262 286 Q262 201 317 155 Q368 111 457 111 Q571 111 658 167 Q778 246 778 389 L778 549 Z M208 1528 L362 1528 Q407 1419 545 1419 Q688 1419 724 1528 L878 1528 Q834 1288 542 1288 Q393 1288 305 1356 Q224 1419 208 1528 Z " />
<glyph glyph-name="Aogonek" unicode="&#x104;" horiz-adv-x="1427" d="M1362 0 Q1357 -5 1351 -9 Q1269 -72 1269 -156 Q1269 -231 1348 -231 Q1392 -231 1449 -188 L1449 -314 Q1384 -358 1313 -358 Q1226 -358 1172 -304 Q1131 -262 1131 -195 Q1131 -80 1257 0 L1206 0 L1069 379 L338 379 L199 0 L0 0 L582 1544 L846 1544 L1427 0 L1362 0 Z M406 557 L1004 557 L707 1372 L406 557 Z " />
<glyph glyph-name="aogonek" unicode="&#x105;" horiz-adv-x="1077" d="M953 0 Q947 -4 941 -9 Q859 -74 859 -156 Q859 -231 938 -231 Q982 -231 1039 -188 L1039 -314 Q974 -358 903 -358 Q816 -358 762 -304 Q721 -262 721 -195 Q721 -80 847 0 L819 0 Q798 62 797 139 Q722 45 637 4 Q554 -37 423 -37 Q270 -37 175 41 Q72 126 72 280 Q72 463 195 555 Q278 616 446 641 L778 690 L778 764 Q778 969 541 969 Q400 969 334 887 Q303 848 281 784 L109 829 Q140 939 214 1007 Q335 1118 550 1118 Q969 1118 969 768 L969 201 Q969 107 1004 0 L953 0 Z M778 549 L487 504 Q358 484 303 420 Q262 373 262 286 Q262 201 317 155 Q368 111 457 111 Q571 111 658 167 Q778 246 778 389 L778 549 Z " />
<glyph glyph-name="Cacute" unicode="&#x106;" horiz-adv-x="1505" d="M1415 1110 L1206 1059 Q1167 1196 1107 1269 Q997 1403 790 1403 Q551 1403 425 1214 Q313 1046 313 752 Q313 470 432 310 Q558 141 787 141 Q953 141 1069 234 Q1190 330 1225 549 L1438 518 Q1386 280 1270 152 Q1097 -37 782 -37 Q500 -37 324 126 Q96 336 96 758 Q96 1145 281 1363 Q466 1581 796 1581 Q1297 1581 1415 1110 Z M641 1659 L830 1931 L1051 1931 L817 1659 L641 1659 Z " />
<glyph glyph-name="cacute" unicode="&#x107;" horiz-adv-x="1094" d="M1032 780 L844 731 Q814 843 762 895 Q698 961 578 961 Q433 961 353 842 Q279 733 279 540 Q279 348 350 242 Q428 123 580 123 Q802 123 858 373 L1044 324 Q941 -37 582 -37 Q352 -37 222 100 Q80 249 80 538 Q80 795 202 948 Q336 1118 585 1118 Q947 1118 1032 780 Z M430 1272 L619 1544 L840 1544 L606 1272 L430 1272 Z " />
<glyph glyph-name="Ccircumflex" unicode="&#x108;" horiz-adv-x="1505" d="M1415 1110 L1206 1059 Q1167 1196 1107 1269 Q997 1403 790 1403 Q551 1403 425 1214 Q313 1046 313 752 Q313 470 432 310 Q558 141 787 141 Q953 141 1069 234 Q1190 330 1225 549 L1438 518 Q1386 280 1270 152 Q1097 -37 782 -37 Q500 -37 324 126 Q96 336 96 758 Q96 1145 281 1363 Q466 1581 796 1581 Q1297 1581 1415 1110 Z M430 1654 L678 1926 L878 1926 L1126 1654 L942 1654 L778 1814 L614 1654 L430 1654 Z " />
<glyph glyph-name="ccircumflex" unicode="&#x109;" horiz-adv-x="1094" d="M1032 780 L844 731 Q814 843 762 895 Q698 961 578 961 Q433 961 353 842 Q279 733 279 540 Q279 348 350 242 Q428 123 580 123 Q802 123 858 373 L1044 324 Q941 -37 582 -37 Q352 -37 222 100 Q80 249 80 538 Q80 795 202 948 Q336 1118 585 1118 Q947 1118 1032 780 Z M232 1272 L480 1544 L680 1544 L928 1272 L744 1272 L580 1432 L416 1272 L232 1272 Z " />
<glyph glyph-name="Cdotaccent" unicode="&#x10a;" horiz-adv-x="1505" d="M1415 1110 L1206 1059 Q1167 1196 1107 1269 Q997 1403 790 1403 Q551 1403 425 1214 Q313 1046 313 752 Q313 470 432 310 Q558 141 787 141 Q953 141 1069 234 Q1190 330 1225 549 L1438 518 Q1386 280 1270 152 Q1097 -37 782 -37 Q500 -37 324 126 Q96 336 96 758 Q96 1145 281 1363 Q466 1581 796 1581 Q1297 1581 1415 1110 Z M691 1676 L691 1911 L873 1911 L873 1676 L691 1676 Z " />
<glyph glyph-name="cdotaccent" unicode="&#x10b;" horiz-adv-x="1094" d="M1032 780 L844 731 Q814 843 762 895 Q698 961 578 961 Q433 961 353 842 Q279 733 279 540 Q279 348 350 242 Q428 123 580 123 Q802 123 858 373 L1044 324 Q941 -37 582 -37 Q352 -37 222 100 Q80 249 80 538 Q80 795 202 948 Q336 1118 585 1118 Q947 1118 1032 780 Z M486 1292 L486 1527 L668 1527 L668 1292 L486 1292 Z " />
<glyph glyph-name="Ccaron" unicode="&#x10c;" horiz-adv-x="1505" d="M1415 1110 L1206 1059 Q1167 1196 1107 1269 Q997 1403 790 1403 Q551 1403 425 1214 Q313 1046 313 752 Q313 470 432 310 Q558 141 787 141 Q953 141 1069 234 Q1190 330 1225 549 L1438 518 Q1386 280 1270 152 Q1097 -37 782 -37 Q500 -37 324 126 Q96 336 96 758 Q96 1145 281 1363 Q466 1581 796 1581 Q1297 1581 1415 1110 Z M694 1659 L446 1931 L630 1931 L794 1771 L958 1931 L1142 1931 L894 1659 L694 1659 Z " />
<glyph glyph-name="ccaron" unicode="&#x10d;" horiz-adv-x="1094" d="M1032 780 L844 731 Q814 843 762 895 Q698 961 578 961 Q433 961 353 842 Q279 733 279 540 Q279 348 350 242 Q428 123 580 123 Q802 123 858 373 L1044 324 Q941 -37 582 -37 Q352 -37 222 100 Q80 249 80 538 Q80 795 202 948 Q336 1118 585 1118 Q947 1118 1032 780 Z M470 1272 L222 1544 L406 1544 L570 1384 L734 1544 L918 1544 L670 1272 L470 1272 Z " />
<glyph glyph-name="Dcaron" unicode="&#x10e;" horiz-adv-x="1499" d="M152 0 L152 1544 L639 1544 Q1022 1544 1212 1355 Q1403 1164 1403 769 Q1403 566 1337 391 Q1270 211 1102 107 Q1010 51 869 22 Q758 0 639 0 L152 0 Z M360 178 L649 178 Q926 178 1063 349 Q1184 499 1184 778 Q1184 1054 1065 1200 Q930 1366 653 1366 L360 1366 L360 178 Z M587 1659 L339 1931 L523 1931 L687 1771 L851 1931 L1035 1931 L787 1659 L587 1659 Z " />
<glyph glyph-name="dcaron" unicode="&#x10f;" horiz-adv-x="1370" d="M887 940 L887 1544 L1081 1544 L1081 0 L897 0 L893 160 Q771 -37 528 -37 Q340 -37 224 83 Q80 231 80 520 Q80 785 189 940 Q314 1118 548 1118 Q760 1118 887 940 Z M587 961 Q442 961 363 856 Q281 745 281 539 Q281 341 353 234 Q430 119 581 119 Q721 119 804 225 Q893 341 893 545 Q893 728 821 837 Q739 961 587 961 Z M1207 1200 L1207 1544 L1402 1544 L1357 1200 L1207 1200 Z " />
<glyph glyph-name="Dcroat" unicode="&#x110;" horiz-adv-x="1499" d="M152 0 L152 711 L0 711 L0 860 L152 860 L152 1544 L639 1544 Q1022 1544 1212 1355 Q1403 1164 1403 768 Q1403 392 1212 196 Q1021 0 639 0 L152 0 Z M360 178 L649 178 Q926 178 1063 349 Q1184 499 1184 778 Q1184 1054 1065 1200 Q930 1366 653 1366 L360 1366 L360 860 L711 860 L711 711 L360 711 L360 178 Z " />
<glyph glyph-name="dcroat" unicode="&#x111;" horiz-adv-x="1212" d="M520 1247 L520 1393 L887 1393 L887 1544 L1081 1544 L1081 1393 L1212 1393 L1212 1247 L1081 1247 L1081 0 L897 0 L893 160 Q771 -37 528 -37 Q319 -37 200 109 Q80 257 80 520 Q80 785 189 940 Q314 1118 548 1118 Q760 1118 887 940 L887 1247 L520 1247 Z M587 961 Q442 961 363 856 Q281 745 281 539 Q281 341 353 234 Q430 119 581 119 Q721 119 804 225 Q893 341 893 545 Q893 728 821 837 Q739 961 587 961 Z " />
<glyph glyph-name="Emacron" unicode="&#x112;" horiz-adv-x="1337" d="M152 0 L152 1544 L1225 1544 L1225 1360 L360 1360 L360 879 L1180 879 L1180 694 L360 694 L360 184 L1260 184 L1260 0 L152 0 Z M343 1710 L343 1856 L1035 1856 L1035 1710 L343 1710 Z " />
<glyph glyph-name="emacron" unicode="&#x113;" horiz-adv-x="1151" d="M1079 496 L279 496 Q286 369 319 291 Q392 121 598 121 Q817 121 885 332 L1057 268 Q953 -37 589 -37 Q364 -37 231 98 Q80 251 80 538 Q80 797 205 951 Q341 1118 590 1118 Q856 1118 982 944 Q1036 871 1061 757 Q1079 673 1079 592 L1079 496 Z M281 641 L883 641 Q867 969 590 969 Q429 969 346 844 Q296 768 281 641 Z M314 1327 L314 1473 L869 1473 L869 1327 L314 1327 Z " />
<glyph glyph-name="Edotaccent" unicode="&#x116;" horiz-adv-x="1337" d="M152 0 L152 1544 L1225 1544 L1225 1360 L360 1360 L360 879 L1180 879 L1180 694 L360 694 L360 184 L1260 184 L1260 0 L152 0 Z M618 1675 L618 1910 L800 1910 L800 1675 L618 1675 Z " />
<glyph glyph-name="edotaccent" unicode="&#x117;" horiz-adv-x="1151" d="M1079 496 L279 496 Q286 369 319 291 Q392 121 598 121 Q817 121 885 332 L1057 268 Q953 -37 589 -37 Q364 -37 231 98 Q80 251 80 538 Q80 797 205 951 Q341 1118 590 1118 Q856 1118 982 944 Q1036 871 1061 757 Q1079 673 1079 592 L1079 496 Z M281 641 L883 641 Q867 969 590 969 Q429 969 346 844 Q296 768 281 641 Z M500 1291 L500 1526 L682 1526 L682 1291 L500 1291 Z " />
<glyph glyph-name="Eogonek" unicode="&#x118;" horiz-adv-x="1337" d="M1172 0 Q1166 -4 1160 -9 Q1078 -74 1078 -156 Q1078 -231 1157 -231 Q1201 -231 1258 -188 L1258 -314 Q1193 -358 1122 -358 Q1036 -358 981 -304 Q940 -262 940 -195 Q940 -80 1066 0 L152 0 L152 1544 L1225 1544 L1225 1360 L360 1360 L360 879 L1180 879 L1180 694 L360 694 L360 184 L1260 184 L1260 0 L1172 0 Z " />
<glyph glyph-name="eogonek" unicode="&#x119;" horiz-adv-x="1151" d="M679 -31 Q621 -88 621 -156 Q621 -231 700 -231 Q744 -231 801 -188 L801 -314 Q736 -358 665 -358 Q578 -358 524 -304 Q483 -262 483 -196 Q483 -107 561 -36 Q355 -29 231 98 Q80 251 80 538 Q80 797 205 951 Q341 1118 590 1118 Q855 1118 982 944 Q1036 871 1061 757 Q1079 673 1079 592 L1079 496 L279 496 Q286 369 319 291 Q391 121 598 121 Q817 121 885 332 L1057 268 Q966 2 679 -31 Z M281 641 L883 641 Q866 969 590 969 Q428 969 346 844 Q296 768 281 641 Z " />
<glyph glyph-name="Ecaron" unicode="&#x11a;" horiz-adv-x="1337" d="M152 0 L152 1544 L1225 1544 L1225 1360 L360 1360 L360 879 L1180 879 L1180 694 L360 694 L360 184 L1260 184 L1260 0 L152 0 Z M596 1659 L348 1931 L532 1931 L696 1771 L860 1931 L1044 1931 L796 1659 L596 1659 Z " />
<glyph glyph-name="ecaron" unicode="&#x11b;" horiz-adv-x="1151" d="M1079 496 L279 496 Q286 369 319 291 Q392 121 598 121 Q817 121 885 332 L1057 268 Q953 -37 589 -37 Q364 -37 231 98 Q80 251 80 538 Q80 797 205 951 Q341 1118 590 1118 Q856 1118 982 944 Q1036 871 1061 757 Q1079 673 1079 592 L1079 496 Z M281 641 L883 641 Q867 969 590 969 Q429 969 346 844 Q296 768 281 641 Z M484 1272 L236 1544 L420 1544 L584 1384 L748 1544 L932 1544 L684 1272 L484 1272 Z " />
<glyph glyph-name="Gbreve" unicode="&#x11e;" horiz-adv-x="1528" d="M1411 1139 L1208 1087 Q1170 1207 1120 1268 Q1009 1403 788 1403 Q555 1403 428 1214 Q313 1045 313 753 Q313 471 432 311 Q557 143 786 143 Q966 143 1082 229 Q1208 321 1208 473 L1208 606 L958 606 L958 778 L1415 778 L1415 0 L1280 0 L1241 162 Q1069 -37 772 -37 Q497 -37 323 124 Q96 334 96 757 Q96 1143 283 1363 Q470 1581 801 1581 Q1291 1581 1411 1139 Z M455 1911 L609 1911 Q658 1802 792 1802 Q935 1802 971 1911 L1125 1911 Q1081 1671 789 1671 Q639 1671 551 1739 Q471 1802 455 1911 Z " />
<glyph glyph-name="gbreve" unicode="&#x11f;" horiz-adv-x="1214" d="M129 -215 L285 -119 Q329 -190 390 -222 Q464 -260 586 -260 Q758 -260 834 -168 Q889 -101 889 68 L889 190 Q766 -4 526 -4 Q316 -4 200 133 Q80 274 80 534 Q80 796 189 946 Q313 1118 550 1118 Q777 1118 891 934 L895 1081 L1083 1081 L1083 43 Q1083 -424 592 -424 Q339 -424 212 -319 Q155 -272 129 -215 Z M582 961 Q425 961 346 841 Q281 741 281 547 Q281 154 578 154 Q729 154 812 259 Q893 362 893 566 Q893 768 799 873 Q719 961 582 961 Z M248 1528 L402 1528 Q447 1419 585 1419 Q728 1419 764 1528 L918 1528 Q874 1288 582 1288 Q433 1288 345 1356 Q264 1419 248 1528 Z " />
<glyph glyph-name="Gdotaccent" unicode="&#x120;" horiz-adv-x="1528" d="M1411 1139 L1208 1087 Q1170 1207 1120 1268 Q1009 1403 788 1403 Q555 1403 428 1214 Q313 1045 313 753 Q313 471 432 311 Q557 143 786 143 Q966 143 1082 229 Q1208 321 1208 473 L1208 606 L958 606 L958 778 L1415 778 L1415 0 L1280 0 L1241 162 Q1069 -37 772 -37 Q497 -37 323 124 Q96 334 96 757 Q96 1143 283 1363 Q470 1581 801 1581 Q1291 1581 1411 1139 Z M716 1675 L716 1910 L898 1910 L898 1675 L716 1675 Z " />
<glyph glyph-name="gdotaccent" unicode="&#x121;" horiz-adv-x="1214" d="M129 -215 L285 -119 Q329 -190 390 -222 Q464 -260 586 -260 Q758 -260 834 -168 Q889 -101 889 68 L889 190 Q766 -4 526 -4 Q316 -4 200 133 Q80 274 80 534 Q80 796 189 946 Q313 1118 550 1118 Q777 1118 891 934 L895 1081 L1083 1081 L1083 43 Q1083 -424 592 -424 Q339 -424 212 -319 Q155 -272 129 -215 Z M582 961 Q425 961 346 841 Q281 741 281 547 Q281 154 578 154 Q729 154 812 259 Q893 362 893 566 Q893 768 799 873 Q719 961 582 961 Z M510 1293 L510 1528 L692 1528 L692 1293 L510 1293 Z " />
<glyph glyph-name="Gcommaaccent" unicode="&#x122;" horiz-adv-x="1528" d="M1411 1139 L1208 1087 Q1170 1207 1120 1268 Q1009 1403 788 1403 Q555 1403 428 1214 Q313 1045 313 753 Q313 471 432 311 Q557 143 786 143 Q966 143 1082 229 Q1208 321 1208 473 L1208 606 L958 606 L958 778 L1415 778 L1415 0 L1280 0 L1241 162 Q1069 -37 772 -37 Q497 -37 323 124 Q96 334 96 757 Q96 1143 283 1363 Q470 1581 801 1581 Q1291 1581 1411 1139 Z M579 -393 L583 -387 Q701 -212 781 -121 L947 -121 L788 -393 L579 -393 Z " />
<glyph glyph-name="gcommaaccent" unicode="&#x123;" horiz-adv-x="1214" d="M129 -215 L285 -119 Q329 -190 390 -222 Q464 -260 586 -260 Q758 -260 834 -168 Q889 -101 889 68 L889 190 Q766 -4 526 -4 Q316 -4 200 133 Q80 274 80 534 Q80 796 189 946 Q313 1118 550 1118 Q777 1118 891 934 L895 1081 L1083 1081 L1083 43 Q1083 -424 592 -424 Q339 -424 212 -319 Q155 -272 129 -215 Z M582 961 Q425 961 346 841 Q281 741 281 547 Q281 154 578 154 Q729 154 812 259 Q893 362 893 566 Q893 768 799 873 Q719 961 582 961 Z M439 1272 Q546 1436 641 1544 L807 1544 L648 1272 L439 1272 Z " />
<glyph glyph-name="Hbar" unicode="&#x126;" horiz-adv-x="1528" d="M152 1215 L25 1215 L25 1361 L152 1361 L152 1544 L360 1544 L360 1361 L1167 1361 L1167 1544 L1376 1544 L1376 1361 L1510 1361 L1510 1215 L1376 1215 L1376 0 L1167 0 L1167 723 L360 723 L360 0 L152 0 L152 1215 Z M360 1215 L360 911 L1167 911 L1167 1215 L360 1215 Z " />
<glyph glyph-name="hbar" unicode="&#x127;" horiz-adv-x="1182" d="M130 1262 L11 1262 L11 1408 L130 1408 L130 1544 L325 1544 L325 1408 L626 1408 L626 1262 L325 1262 L325 918 Q448 1118 689 1118 Q867 1118 965 1009 Q1050 913 1050 750 L1050 0 L855 0 L855 698 Q855 958 627 958 Q482 958 399 830 Q325 715 325 545 L325 0 L130 0 L130 1262 Z " />
<glyph glyph-name="Imacron" unicode="&#x12a;" horiz-adv-x="510" d="M152 0 L152 1544 L360 1544 L360 0 L152 0 Z M-97 1710 L-97 1856 L595 1856 L595 1710 L-97 1710 Z " />
<glyph glyph-name="imacron" unicode="&#x12b;" horiz-adv-x="477" d="M141 0 L141 1081 L336 1081 L336 0 L141 0 Z M-39 1327 L-39 1473 L516 1473 L516 1327 L-39 1327 Z " />
<glyph glyph-name="Iogonek" unicode="&#x12e;" horiz-adv-x="510" d="M333 0 Q328 -4 322 -9 Q240 -73 240 -156 Q240 -231 319 -231 Q363 -231 420 -188 L420 -314 Q354 -358 284 -358 Q197 -358 143 -304 Q102 -262 102 -195 Q102 -81 227 0 L152 0 L152 1544 L360 1544 L360 0 L333 0 Z " />
<glyph glyph-name="iogonek" unicode="&#x12f;" horiz-adv-x="477" d="M141 0 L141 1081 L336 1081 L336 0 L141 0 Z M141 1315 L141 1544 L336 1544 L336 1315 L141 1315 Z M221 0 L327 0 Q233 -74 233 -156 Q233 -231 312 -231 Q356 -231 413 -188 L413 -314 Q348 -358 278 -358 Q190 -358 136 -304 Q95 -262 95 -195 Q95 -81 221 0 Z " />
<glyph glyph-name="Idotaccent" unicode="&#x130;" horiz-adv-x="510" d="M152 0 L152 1544 L360 1544 L360 0 L152 0 Z M165 1675 L165 1910 L347 1910 L347 1675 L165 1675 Z " />
<glyph glyph-name="Kcommaaccent" unicode="&#x136;" horiz-adv-x="1407" d="M152 0 L152 1544 L360 1544 L360 829 L1077 1544 L1333 1544 L739 948 L1415 0 L1145 0 L592 799 L360 567 L360 0 L152 0 Z M482 -393 L486 -387 Q604 -212 684 -121 L850 -121 L691 -393 L482 -393 Z " />
<glyph glyph-name="kcommaaccent" unicode="&#x137;" horiz-adv-x="1071" d="M131 0 L131 1544 L326 1544 L326 649 L782 1081 L1016 1081 L623 711 L1073 0 L846 0 L481 580 L326 434 L326 0 L131 0 Z M333 -393 L337 -387 Q459 -208 535 -121 L701 -121 L542 -393 L333 -393 Z " />
<glyph glyph-name="Lacute" unicode="&#x139;" horiz-adv-x="1229" d="M152 0 L152 1544 L360 1544 L360 184 L1190 184 L1190 0 L152 0 Z M171 1659 L360 1931 L581 1931 L347 1659 L171 1659 Z " />
<glyph glyph-name="lacute" unicode="&#x13a;" horiz-adv-x="477" d="M141 0 L141 1544 L336 1544 L336 0 L141 0 Z M145 1659 L334 1931 L555 1931 L321 1659 L145 1659 Z " />
<glyph glyph-name="Lcommaaccent" unicode="&#x13b;" horiz-adv-x="1229" d="M152 0 L152 1544 L360 1544 L360 184 L1190 184 L1190 0 L152 0 Z M414 -393 L418 -387 Q536 -212 616 -121 L782 -121 L623 -393 L414 -393 Z " />
<glyph glyph-name="lcommaaccent" unicode="&#x13c;" horiz-adv-x="477" d="M141 0 L141 1544 L336 1544 L336 0 L141 0 Z M-41 -393 L-37 -387 Q85 -208 161 -121 L327 -121 L168 -393 L-41 -393 Z " />
<glyph glyph-name="Lcaron" unicode="&#x13d;" horiz-adv-x="1229" d="M152 0 L152 1544 L360 1544 L360 184 L1190 184 L1190 0 L152 0 Z M720 1200 L720 1544 L915 1544 L870 1200 L720 1200 Z " />
<glyph glyph-name="lcaron" unicode="&#x13e;" horiz-adv-x="659" d="M141 0 L141 1544 L336 1544 L336 0 L141 0 Z M483 1200 L483 1544 L678 1544 L633 1200 L483 1200 Z " />
<glyph glyph-name="Lslash" unicode="&#x141;" horiz-adv-x="1233" d="M152 0 L152 580 L0 469 L0 653 L152 764 L152 1544 L360 1544 L360 918 L690 1159 L690 975 L360 733 L360 184 L1190 184 L1190 0 L152 0 Z " />
<glyph glyph-name="lslash" unicode="&#x142;" horiz-adv-x="477" d="M141 0 L141 639 L0 535 L0 690 L141 795 L141 1544 L336 1544 L336 938 L477 1042 L477 889 L336 784 L336 0 L141 0 Z " />
<glyph glyph-name="Nacute" unicode="&#x143;" horiz-adv-x="1511" d="M152 0 L152 1544 L393 1544 L1157 283 L1157 1544 L1360 1544 L1360 0 L1118 0 L354 1264 L354 0 L152 0 Z M606 1659 L795 1931 L1016 1931 L782 1659 L606 1659 Z " />
<glyph glyph-name="nacute" unicode="&#x144;" horiz-adv-x="1184" d="M131 0 L131 1081 L322 1081 L326 905 Q381 1002 457 1055 Q549 1118 691 1118 Q870 1118 968 1009 Q1053 913 1053 750 L1053 0 L858 0 L858 698 Q858 958 631 958 Q485 958 401 830 Q326 715 326 545 L326 0 L131 0 Z M464 1272 L653 1544 L874 1544 L640 1272 L464 1272 Z " />
<glyph glyph-name="Ncommaaccent" unicode="&#x145;" horiz-adv-x="1511" d="M152 0 L152 1544 L393 1544 L1157 283 L1157 1544 L1360 1544 L1360 0 L1118 0 L354 1264 L354 0 L152 0 Z M523 -393 L527 -387 Q645 -212 725 -121 L891 -121 L732 -393 L523 -393 Z " />
<glyph glyph-name="ncommaaccent" unicode="&#x146;" horiz-adv-x="1184" d="M131 0 L131 1081 L322 1081 L326 905 Q381 1002 457 1055 Q549 1118 691 1118 Q870 1118 968 1009 Q1053 913 1053 750 L1053 0 L858 0 L858 698 Q858 958 631 958 Q485 958 401 830 Q326 715 326 545 L326 0 L131 0 Z M343 -393 L347 -387 Q469 -208 545 -121 L711 -121 L552 -393 L343 -393 Z " />
<glyph glyph-name="Ncaron" unicode="&#x147;" horiz-adv-x="1511" d="M152 0 L152 1544 L393 1544 L1157 283 L1157 1544 L1360 1544 L1360 0 L1118 0 L354 1264 L354 0 L152 0 Z M658 1659 L410 1931 L594 1931 L758 1771 L922 1931 L1106 1931 L858 1659 L658 1659 Z " />
<glyph glyph-name="ncaron" unicode="&#x148;" horiz-adv-x="1184" d="M131 0 L131 1081 L322 1081 L326 905 Q381 1002 457 1055 Q549 1118 691 1118 Q870 1118 968 1009 Q1053 913 1053 750 L1053 0 L858 0 L858 698 Q858 958 631 958 Q485 958 401 830 Q326 715 326 545 L326 0 L131 0 Z M492 1272 L244 1544 L428 1544 L592 1384 L756 1544 L940 1544 L692 1272 L492 1272 Z " />
<glyph glyph-name="Omacron" unicode="&#x14c;" horiz-adv-x="1636" d="M817 1581 Q1155 1581 1347 1368 Q1540 1153 1540 772 Q1540 392 1347 177 Q1154 -37 822 -37 Q516 -37 328 137 Q96 353 96 773 Q96 1153 289 1368 Q481 1581 817 1581 Z M817 1407 Q577 1407 440 1225 Q313 1055 313 772 Q313 490 440 319 Q577 137 812 137 Q1034 137 1168 287 Q1323 460 1323 772 Q1323 1055 1195 1225 Q1057 1407 817 1407 Z M465 1710 L465 1856 L1157 1856 L1157 1710 L465 1710 Z " />
<glyph glyph-name="omacron" unicode="&#x14d;" horiz-adv-x="1192" d="M596 1118 Q848 1118 986 952 Q1112 800 1112 541 Q1112 283 986 130 Q848 -37 600 -37 Q367 -37 231 101 Q80 256 80 541 Q80 800 205 952 Q343 1118 596 1118 Z M592 961 Q438 961 354 840 Q279 730 279 541 Q279 349 354 241 Q438 121 593 121 Q744 121 829 229 Q913 335 913 547 Q913 760 812 872 Q732 961 592 961 Z M318 1327 L318 1473 L873 1473 L873 1327 L318 1327 Z " />
<glyph glyph-name="Ohungarumlaut" unicode="&#x150;" horiz-adv-x="1636" d="M817 1581 Q1155 1581 1347 1368 Q1540 1153 1540 772 Q1540 392 1347 177 Q1154 -37 822 -37 Q516 -37 328 137 Q96 353 96 773 Q96 1153 289 1368 Q481 1581 817 1581 Z M817 1407 Q577 1407 440 1225 Q313 1055 313 772 Q313 490 440 319 Q577 137 812 137 Q1034 137 1168 287 Q1323 460 1323 772 Q1323 1055 1195 1225 Q1057 1407 817 1407 Z M568 1659 L681 1931 L859 1931 L705 1659 L568 1659 Z M865 1659 L980 1931 L1158 1931 L1004 1659 L865 1659 Z " />
<glyph glyph-name="ohungarumlaut" unicode="&#x151;" horiz-adv-x="1192" d="M596 1118 Q848 1118 986 952 Q1112 800 1112 541 Q1112 283 986 130 Q848 -37 600 -37 Q367 -37 231 101 Q80 256 80 541 Q80 800 205 952 Q343 1118 596 1118 Z M592 961 Q438 961 354 840 Q279 730 279 541 Q279 349 354 241 Q438 121 593 121 Q744 121 829 229 Q913 335 913 547 Q913 760 812 872 Q732 961 592 961 Z M367 1272 L480 1544 L658 1544 L504 1272 L367 1272 Z M664 1272 L779 1544 L957 1544 L803 1272 L664 1272 Z " />
<glyph glyph-name="Racute" unicode="&#x154;" horiz-adv-x="1434" d="M152 0 L152 1544 L817 1544 Q1094 1544 1220 1395 Q1270 1335 1295 1242 Q1315 1166 1315 1093 Q1315 940 1234 826 Q1161 721 1032 670 L1366 0 L1126 0 L825 635 Q815 633 802 633 L789 633 L776 633 L356 633 L356 0 L152 0 Z M356 805 L776 805 Q926 805 1007 871 Q1098 944 1098 1092 Q1098 1372 776 1372 L356 1372 L356 805 Z M529 1659 L718 1931 L939 1931 L705 1659 L529 1659 Z " />
<glyph glyph-name="racute" unicode="&#x155;" horiz-adv-x="711" d="M131 0 L131 1081 L319 1081 L326 891 Q416 1094 600 1094 Q657 1094 711 1081 L692 915 Q649 928 596 928 Q455 928 387 819 Q326 721 326 547 L326 0 L131 0 Z M192 1272 L381 1544 L602 1544 L368 1272 L192 1272 Z " />
<glyph glyph-name="Rcommaaccent" unicode="&#x156;" horiz-adv-x="1434" d="M152 0 L152 1544 L817 1544 Q1094 1544 1220 1395 Q1270 1335 1295 1242 Q1315 1166 1315 1093 Q1315 940 1234 826 Q1161 721 1032 670 L1366 0 L1126 0 L825 635 Q815 633 802 633 L789 633 L776 633 L356 633 L356 0 L152 0 Z M356 805 L776 805 Q926 805 1007 871 Q1098 944 1098 1092 Q1098 1372 776 1372 L356 1372 L356 805 Z M478 -393 L482 -387 Q600 -212 680 -121 L846 -121 L687 -393 L478 -393 Z " />
<glyph glyph-name="rcommaaccent" unicode="&#x157;" horiz-adv-x="711" d="M131 0 L131 1081 L319 1081 L326 891 Q416 1094 600 1094 Q657 1094 711 1081 L692 915 Q649 928 596 928 Q455 928 387 819 Q326 721 326 547 L326 0 L131 0 Z M-49 -393 L-45 -387 Q77 -208 153 -121 L319 -121 L160 -393 L-49 -393 Z " />
<glyph glyph-name="Rcaron" unicode="&#x158;" horiz-adv-x="1434" d="M152 0 L152 1544 L817 1544 Q1094 1544 1220 1395 Q1270 1335 1295 1242 Q1315 1166 1315 1093 Q1315 940 1234 826 Q1161 721 1032 670 L1366 0 L1126 0 L825 635 Q815 633 802 633 L789 633 L776 633 L356 633 L356 0 L152 0 Z M356 805 L776 805 Q926 805 1007 871 Q1098 944 1098 1092 Q1098 1372 776 1372 L356 1372 L356 805 Z M577 1659 L329 1931 L513 1931 L677 1771 L841 1931 L1025 1931 L777 1659 L577 1659 Z " />
<glyph glyph-name="rcaron" unicode="&#x159;" horiz-adv-x="711" d="M131 0 L131 1081 L319 1081 L326 891 Q416 1094 600 1094 Q657 1094 711 1081 L692 915 Q649 928 596 928 Q455 928 387 819 Q326 721 326 547 L326 0 L131 0 Z M269 1272 L21 1544 L205 1544 L369 1384 L533 1544 L717 1544 L469 1272 L269 1272 Z " />
<glyph glyph-name="Sacute" unicode="&#x15a;" horiz-adv-x="1391" d="M59 420 L264 471 Q301 327 366 257 Q476 139 699 139 Q884 139 983 211 Q1075 280 1075 406 Q1075 529 999 589 Q932 643 793 668 L549 713 Q100 796 100 1145 Q100 1344 252 1462 Q405 1581 675 1581 Q1002 1581 1150 1418 Q1232 1328 1276 1182 L1081 1118 Q1036 1249 965 1314 Q862 1407 669 1407 Q497 1407 405 1339 Q315 1273 315 1155 Q315 1054 381 993 Q450 930 600 903 L879 852 Q1103 811 1204 701 Q1298 597 1298 422 Q1298 212 1153 93 Q995 -37 692 -37 Q415 -37 259 82 Q118 190 59 420 Z M525 1659 L714 1931 L935 1931 L701 1659 L525 1659 Z " />
<glyph glyph-name="sacute" unicode="&#x15b;" horiz-adv-x="1053" d="M45 287 L227 336 Q249 237 299 187 Q372 113 517 113 Q638 113 704 158 Q768 202 768 284 Q768 356 724 393 Q677 434 588 451 L412 485 Q84 548 84 800 Q84 955 213 1042 Q326 1118 515 1118 Q864 1118 958 836 L784 780 Q749 881 679 929 Q617 971 502 971 Q380 971 318 916 Q276 878 276 808 Q276 743 319 705 Q362 668 465 647 L680 604 Q969 546 969 289 Q969 144 858 57 Q738 -37 524 -37 Q309 -37 187 57 Q86 134 45 287 Z M346 1272 L535 1544 L756 1544 L522 1272 L346 1272 Z " />
<glyph glyph-name="Scedilla" unicode="&#x15e;" horiz-adv-x="1391" d="M59 420 L264 471 Q301 327 366 257 Q476 139 699 139 Q884 139 983 211 Q1075 280 1075 406 Q1075 529 999 589 Q932 643 793 668 L549 713 Q100 796 100 1145 Q100 1344 252 1462 Q405 1581 675 1581 Q1002 1581 1150 1418 Q1232 1328 1276 1182 L1081 1118 Q1036 1249 965 1314 Q862 1407 669 1407 Q497 1407 405 1339 Q315 1273 315 1155 Q315 1054 381 993 Q450 930 600 903 L879 852 Q1103 811 1204 701 Q1298 597 1298 422 Q1298 212 1153 93 Q995 -37 692 -37 Q415 -37 259 82 Q118 190 59 420 Z M458 -393 Q578 -215 660 -121 L826 -121 L667 -393 L458 -393 Z " />
<glyph glyph-name="scedilla" unicode="&#x15f;" horiz-adv-x="1053" d="M45 287 L227 336 Q249 237 299 187 Q372 113 517 113 Q638 113 704 158 Q768 202 768 284 Q768 356 724 393 Q677 434 588 451 L412 485 Q84 548 84 800 Q84 955 213 1042 Q326 1118 515 1118 Q864 1118 958 836 L784 780 Q749 881 679 929 Q617 971 502 971 Q380 971 318 916 Q276 878 276 808 Q276 743 319 705 Q362 668 465 647 L680 604 Q969 546 969 289 Q969 144 858 57 Q738 -37 524 -37 Q309 -37 187 57 Q86 134 45 287 Z M313 -393 L317 -387 Q440 -206 515 -121 L681 -121 L522 -393 L313 -393 Z " />
<glyph glyph-name="Scaron" unicode="&#x160;" horiz-adv-x="1391" d="M59 420 L264 471 Q301 327 366 257 Q476 139 699 139 Q884 139 983 211 Q1075 280 1075 406 Q1075 529 999 589 Q932 643 793 668 L549 713 Q100 796 100 1145 Q100 1344 252 1462 Q405 1581 675 1581 Q1002 1581 1150 1418 Q1232 1328 1276 1182 L1081 1118 Q1036 1249 965 1314 Q862 1407 669 1407 Q497 1407 405 1339 Q315 1273 315 1155 Q315 1054 381 993 Q450 930 600 903 L879 852 Q1103 811 1204 701 Q1298 597 1298 422 Q1298 212 1153 93 Q995 -37 692 -37 Q415 -37 259 82 Q118 190 59 420 Z M593 1659 L345 1931 L529 1931 L693 1771 L857 1931 L1041 1931 L793 1659 L593 1659 Z " />
<glyph glyph-name="scaron" unicode="&#x161;" horiz-adv-x="1053" d="M45 287 L227 336 Q249 237 299 187 Q372 113 517 113 Q638 113 704 158 Q768 202 768 284 Q768 356 724 393 Q677 434 588 451 L412 485 Q84 548 84 800 Q84 955 213 1042 Q326 1118 515 1118 Q864 1118 958 836 L784 780 Q749 881 679 929 Q617 971 502 971 Q380 971 318 916 Q276 878 276 808 Q276 743 319 705 Q362 668 465 647 L680 604 Q969 546 969 289 Q969 144 858 57 Q738 -37 524 -37 Q309 -37 187 57 Q86 134 45 287 Z M419 1272 L171 1544 L355 1544 L519 1384 L683 1544 L867 1544 L619 1272 L419 1272 Z " />
<glyph glyph-name="Tcommaaccent" unicode="&#x162;" horiz-adv-x="1391" d="M590 0 L590 1360 L43 1360 L43 1544 L1346 1544 L1346 1360 L799 1360 L799 0 L590 0 Z M411 -393 L415 -387 Q533 -212 613 -121 L779 -121 L620 -393 L411 -393 Z " />
<glyph glyph-name="tcommaaccent" unicode="&#x163;" horiz-adv-x="694" d="M199 928 L55 928 L55 1081 L199 1081 L199 1389 L393 1389 L393 1081 L627 1081 L627 928 L393 928 L393 289 Q393 195 433 164 Q458 145 521 145 Q558 145 635 154 L649 -4 Q558 -20 446 -20 Q199 -20 199 248 L199 928 Z M96 -393 L100 -387 Q222 -208 298 -121 L464 -121 L305 -393 L96 -393 Z " />
<glyph glyph-name="Tcaron" unicode="&#x164;" horiz-adv-x="1391" d="M590 0 L590 1360 L43 1360 L43 1544 L1346 1544 L1346 1360 L799 1360 L799 0 L590 0 Z M601 1659 L353 1931 L537 1931 L701 1771 L865 1931 L1049 1931 L801 1659 L601 1659 Z " />
<glyph glyph-name="tcaron" unicode="&#x165;" horiz-adv-x="694" d="M199 928 L55 928 L55 1081 L199 1081 L199 1389 L393 1389 L393 1081 L627 1081 L627 928 L393 928 L393 289 Q393 195 433 164 Q458 145 521 145 Q558 145 635 154 L649 -4 Q558 -20 446 -20 Q199 -20 199 248 L199 928 Z M532 1200 L532 1544 L727 1544 L682 1200 L532 1200 Z " />
<glyph glyph-name="Umacron" unicode="&#x16a;" horiz-adv-x="1485" d="M139 1544 L348 1544 L348 588 Q348 350 456 240 Q552 143 744 143 Q951 143 1047 262 Q1135 371 1135 588 L1135 1544 L1343 1544 L1343 588 Q1343 302 1214 147 Q1061 -37 745 -37 Q139 -37 139 588 L139 1544 Z M391 1710 L391 1856 L1083 1856 L1083 1710 L391 1710 Z " />
<glyph glyph-name="umacron" unicode="&#x16b;" horiz-adv-x="1182" d="M131 1081 L326 1081 L326 371 Q326 125 551 125 Q697 125 780 252 Q856 367 856 535 L856 1081 L1051 1081 L1051 0 L862 0 L856 178 Q800 79 729 27 Q641 -37 498 -37 Q352 -37 257 37 Q131 135 131 334 L131 1081 Z M313 1327 L313 1473 L868 1473 L868 1327 L313 1327 Z " />
<glyph glyph-name="Uring" unicode="&#x16e;" horiz-adv-x="1485" d="M139 1544 L348 1544 L348 588 Q348 350 456 240 Q552 143 744 143 Q951 143 1047 262 Q1135 371 1135 588 L1135 1544 L1343 1544 L1343 588 Q1343 302 1214 147 Q1061 -37 745 -37 Q139 -37 139 588 L139 1544 Z M743 1942 Q875 1942 941 1862 Q989 1804 989 1716 Q989 1620 927 1559 Q860 1494 741 1494 Q629 1494 563 1548 Q489 1610 489 1720 Q489 1829 565 1890 Q631 1942 743 1942 Z M737 1850 Q661 1850 623 1802 Q596 1769 596 1718 Q596 1663 632 1627 Q670 1588 738 1588 Q804 1588 843 1624 Q882 1659 882 1721 Q882 1782 836 1819 Q798 1850 737 1850 Z " />
<glyph glyph-name="uring" unicode="&#x16f;" horiz-adv-x="1182" d="M131 1081 L326 1081 L326 371 Q326 125 551 125 Q697 125 780 252 Q856 367 856 535 L856 1081 L1051 1081 L1051 0 L862 0 L856 178 Q800 79 729 27 Q641 -37 498 -37 Q352 -37 257 37 Q131 135 131 334 L131 1081 Z M593 1621 Q719 1621 782 1545 Q827 1490 827 1408 Q827 1316 768 1258 Q705 1196 591 1196 Q485 1196 423 1248 Q352 1306 352 1410 Q352 1513 425 1571 Q487 1621 593 1621 Z M588 1529 Q519 1529 483 1485 Q459 1455 459 1408 Q459 1358 491 1325 Q527 1290 588 1290 Q649 1290 685 1323 Q720 1355 720 1411 Q720 1467 678 1501 Q643 1529 588 1529 Z " />
<glyph glyph-name="Uhungarumlaut" unicode="&#x170;" horiz-adv-x="1485" d="M139 1544 L348 1544 L348 588 Q348 350 456 240 Q552 143 744 143 Q951 143 1047 262 Q1135 371 1135 588 L1135 1544 L1343 1544 L1343 588 Q1343 302 1214 147 Q1061 -37 745 -37 Q139 -37 139 588 L139 1544 Z M471 1659 L584 1931 L762 1931 L608 1659 L471 1659 Z M768 1659 L883 1931 L1061 1931 L907 1659 L768 1659 Z " />
<glyph glyph-name="uhungarumlaut" unicode="&#x171;" horiz-adv-x="1182" d="M131 1081 L326 1081 L326 371 Q326 125 551 125 Q697 125 780 252 Q856 367 856 535 L856 1081 L1051 1081 L1051 0 L862 0 L856 178 Q800 79 729 27 Q641 -37 498 -37 Q352 -37 257 37 Q131 135 131 334 L131 1081 Z M334 1272 L447 1544 L625 1544 L471 1272 L334 1272 Z M631 1272 L746 1544 L924 1544 L770 1272 L631 1272 Z " />
<glyph glyph-name="Uogonek" unicode="&#x172;" horiz-adv-x="1485" d="M883 -28 Q822 -87 822 -156 Q822 -231 901 -231 Q946 -231 1002 -188 L1002 -314 Q937 -358 866 -358 Q779 -358 725 -304 Q684 -262 684 -196 Q684 -109 761 -37 L754 -37 L743 -37 Q139 -37 139 588 L139 1544 L348 1544 L348 588 Q348 350 456 240 Q552 143 744 143 Q951 143 1047 262 Q1135 371 1135 588 L1135 1544 L1343 1544 L1343 588 Q1343 47 883 -28 Z " />
<glyph glyph-name="uogonek" unicode="&#x173;" horiz-adv-x="1182" d="M1009 0 Q1004 -4 998 -9 Q916 -74 916 -156 Q916 -231 995 -231 Q1039 -231 1096 -188 L1096 -314 Q1031 -358 960 -358 Q873 -358 819 -304 Q778 -262 778 -195 Q778 -80 904 0 L862 0 L856 178 Q800 79 729 27 Q641 -37 498 -37 Q352 -37 257 37 Q131 135 131 334 L131 1081 L326 1081 L326 371 Q326 125 551 125 Q697 125 780 252 Q856 367 856 535 L856 1081 L1051 1081 L1051 0 L1009 0 Z " />
<glyph glyph-name="Zacute" unicode="&#x179;" horiz-adv-x="1296" d="M74 0 L74 180 L975 1360 L104 1360 L104 1544 L1212 1544 L1212 1364 L311 184 L1229 184 L1229 0 L74 0 Z M496 1659 L685 1931 L906 1931 L672 1659 L496 1659 Z " />
<glyph glyph-name="zacute" unicode="&#x17a;" horiz-adv-x="975" d="M59 0 L59 145 L670 928 L88 928 L88 1081 L895 1081 L895 936 L281 154 L918 154 L918 0 L59 0 Z M352 1272 L541 1544 L762 1544 L528 1272 L352 1272 Z " />
<glyph glyph-name="Zdotaccent" unicode="&#x17b;" horiz-adv-x="1296" d="M74 0 L74 180 L975 1360 L104 1360 L104 1544 L1212 1544 L1212 1364 L311 184 L1229 184 L1229 0 L74 0 Z M576 1675 L576 1910 L758 1910 L758 1675 L576 1675 Z " />
<glyph glyph-name="zdotaccent" unicode="&#x17c;" horiz-adv-x="975" d="M59 0 L59 145 L670 928 L88 928 L88 1081 L895 1081 L895 936 L281 154 L918 154 L918 0 L59 0 Z M405 1292 L405 1527 L587 1527 L587 1292 L405 1292 Z " />
<glyph glyph-name="Zcaron" unicode="&#x17d;" horiz-adv-x="1296" d="M74 0 L74 180 L975 1360 L104 1360 L104 1544 L1212 1544 L1212 1364 L311 184 L1229 184 L1229 0 L74 0 Z M570 1659 L322 1931 L506 1931 L670 1771 L834 1931 L1018 1931 L770 1659 L570 1659 Z " />
<glyph glyph-name="zcaron" unicode="&#x17e;" horiz-adv-x="975" d="M59 0 L59 145 L670 928 L88 928 L88 1081 L895 1081 L895 936 L281 154 L918 154 L918 0 L59 0 Z M401 1272 L153 1544 L337 1544 L501 1384 L665 1544 L849 1544 L601 1272 L401 1272 Z " />
<glyph glyph-name="uni018F" unicode="&#x18f;" horiz-adv-x="1636" d="M354 1070 L145 1121 Q195 1304 307 1414 Q396 1501 535 1545 Q661 1585 798 1585 Q1027 1585 1195 1490 Q1366 1393 1454 1203 Q1540 1020 1540 772 Q1540 392 1347 177 Q1154 -37 818 -37 Q516 -37 328 137 Q216 242 157 401 Q96 563 96 752 Q96 788 101 864 L317 864 L1319 864 Q1304 1054 1218 1192 Q1081 1407 817 1407 Q588 1407 464 1275 Q409 1217 381 1146 Q368 1114 354 1070 Z M317 679 Q332 489 417 353 Q553 137 815 137 Q1058 137 1195 319 Q1297 456 1319 679 L317 679 Z " />
<glyph glyph-name="uni0259" unicode="&#x259;" horiz-adv-x="1159" d="M80 585 L880 585 Q873 712 840 790 Q768 960 561 960 Q341 960 274 749 L102 813 Q206 1118 570 1118 Q795 1118 928 983 Q1079 830 1079 543 Q1079 284 954 130 Q818 -37 569 -37 Q303 -37 177 137 Q123 210 98 324 Q80 408 80 489 L80 585 Z M878 440 L276 440 Q292 112 569 112 Q731 112 813 237 Q863 313 878 440 Z " />
<glyph glyph-name="uni037E" unicode="&#x37e;" horiz-adv-x="520" d="M180 -395 L98 -313 Q168 -240 197 -190 Q244 -112 244 -27 L244 0 L141 0 L141 281 L379 281 L379 14 Q379 -215 180 -395 Z M141 801 L141 1081 L379 1081 L379 801 L141 801 Z " />
<glyph glyph-name="tonos" unicode="&#x384;" horiz-adv-x="894" d="M382 1020 L332 1477 L332 1659 L562 1659 L562 1477 L513 1020 L382 1020 Z " />
<glyph glyph-name="dieresistonos" unicode="&#x385;" horiz-adv-x="977" d="M201 1271 L201 1500 L384 1500 L384 1271 L201 1271 Z M597 1271 L597 1500 L779 1500 L779 1271 L597 1271 Z M389 1819 L593 1819 L593 1620 L535 1397 L447 1397 L389 1620 L389 1819 Z " />
<glyph glyph-name="Alphatonos" unicode="&#x386;" horiz-adv-x="1427" d="M0 0 L582 1544 L846 1544 L1427 0 L1206 0 L1069 379 L338 379 L199 0 L0 0 Z M406 557 L1004 557 L707 1372 L406 557 Z M109 905 L59 1362 L59 1544 L289 1544 L289 1362 L240 905 L109 905 Z " />
<glyph glyph-name="anoteleia" unicode="&#x387;" horiz-adv-x="520" d="M141 590 L141 870 L379 870 L379 590 L141 590 Z " />
<glyph glyph-name="Epsilontonos" unicode="&#x388;" horiz-adv-x="1512" d="M327 0 L327 1544 L1400 1544 L1400 1360 L535 1360 L535 879 L1355 879 L1355 694 L535 694 L535 184 L1435 184 L1435 0 L327 0 Z M38 905 L-12 1362 L-12 1544 L218 1544 L218 1362 L169 905 L38 905 Z " />
<glyph glyph-name="Etatonos" unicode="&#x389;" horiz-adv-x="1704" d="M328 0 L328 1544 L536 1544 L536 911 L1343 911 L1343 1544 L1552 1544 L1552 0 L1343 0 L1343 723 L536 723 L536 0 L328 0 Z M38 905 L-12 1362 L-12 1544 L218 1544 L218 1362 L169 905 L38 905 Z " />
<glyph glyph-name="Iotatonos" unicode="&#x38a;" horiz-adv-x="687" d="M327 0 L327 1544 L535 1544 L535 0 L327 0 Z M38 905 L-12 1362 L-12 1544 L218 1544 L218 1362 L169 905 L38 905 Z " />
<glyph glyph-name="Omicrontonos" unicode="&#x38c;" horiz-adv-x="1789" d="M970 1581 Q1308 1581 1500 1368 Q1693 1153 1693 772 Q1693 392 1500 177 Q1307 -37 975 -37 Q669 -37 481 137 Q249 353 249 773 Q249 1153 442 1368 Q634 1581 970 1581 Z M970 1407 Q730 1407 593 1225 Q466 1055 466 772 Q466 490 593 319 Q730 137 965 137 Q1187 137 1321 287 Q1476 460 1476 772 Q1476 1055 1348 1225 Q1210 1407 970 1407 Z M38 905 L-12 1362 L-12 1544 L218 1544 L218 1362 L169 905 L38 905 Z " />
<glyph glyph-name="Upsilontonos" unicode="&#x38e;" horiz-adv-x="1618" d="M867 0 L867 602 L326 1544 L551 1544 L981 786 L1403 1544 L1618 1544 L1078 602 L1078 0 L867 0 Z M38 905 L-12 1362 L-12 1544 L218 1544 L218 1362 L169 905 L38 905 Z " />
<glyph glyph-name="Omegatonos" unicode="&#x38f;" horiz-adv-x="1786" d="M217 0 L217 185 L618 185 Q518 245 468 289 Q249 485 249 843 Q249 1182 442 1373 Q554 1485 714 1539 Q837 1581 970 1581 Q1195 1581 1381 1465 Q1690 1272 1690 842 Q1690 569 1561 390 Q1495 298 1399 234 Q1366 212 1321 185 L1722 185 L1722 0 L1096 0 L1096 175 Q1266 278 1343 386 Q1473 567 1473 840 Q1473 1092 1349 1242 Q1212 1407 970 1407 Q796 1407 669 1315 Q466 1168 466 840 Q466 566 596 386 Q673 278 843 175 L843 0 L217 0 Z M38 905 L-12 1362 L-12 1544 L218 1544 L218 1362 L169 905 L38 905 Z " />
<glyph glyph-name="iotadieresistonos" unicode="&#x390;" horiz-adv-x="387" d="M92 1907 L296 1907 L296 1698 L238 1464 L150 1464 L92 1698 L92 1907 Z M96 0 L96 1081 L291 1081 L291 0 L96 0 Z M-96 1285 L-96 1514 L87 1514 L87 1285 L-96 1285 Z M300 1285 L300 1514 L482 1514 L482 1285 L300 1285 Z " />
<glyph glyph-name="Alpha" unicode="&#x391;" horiz-adv-x="1427" d="M0 0 L582 1544 L846 1544 L1427 0 L1206 0 L1069 379 L338 379 L199 0 L0 0 Z M406 557 L1004 557 L707 1372 L406 557 Z " />
<glyph glyph-name="Beta" unicode="&#x392;" horiz-adv-x="1442" d="M152 0 L152 1544 L797 1544 Q1055 1544 1177 1436 Q1284 1340 1284 1166 Q1284 939 1087 834 Q1204 794 1267 727 Q1358 628 1358 453 Q1358 0 770 0 L152 0 Z M356 172 L758 172 Q941 172 1033 232 Q1139 301 1139 454 Q1139 630 1008 695 Q932 733 780 733 L356 733 L356 172 Z M356 905 L745 905 Q1067 905 1067 1140 Q1067 1273 976 1328 Q902 1372 760 1372 L356 1372 L356 905 Z " />
<glyph glyph-name="Gamma" unicode="&#x393;" horiz-adv-x="1229" d="M152 1544 L1190 1544 L1190 1360 L360 1360 L360 0 L152 0 L152 1544 Z " />
<glyph glyph-name="uni0394" unicode="&#x394;" horiz-adv-x="1427" d="M0 0 L582 1544 L846 1544 L1427 0 L0 0 Z M268 184 L1140 184 L707 1372 L268 184 Z " />
<glyph glyph-name="Epsilon" unicode="&#x395;" horiz-adv-x="1337" d="M152 0 L152 1544 L1225 1544 L1225 1360 L360 1360 L360 879 L1180 879 L1180 694 L360 694 L360 184 L1260 184 L1260 0 L152 0 Z " />
<glyph glyph-name="Zeta" unicode="&#x396;" horiz-adv-x="1296" d="M74 0 L74 180 L975 1360 L104 1360 L104 1544 L1212 1544 L1212 1364 L311 184 L1229 184 L1229 0 L74 0 Z " />
<glyph glyph-name="Eta" unicode="&#x397;" horiz-adv-x="1528" d="M152 0 L152 1544 L360 1544 L360 911 L1167 911 L1167 1544 L1376 1544 L1376 0 L1167 0 L1167 723 L360 723 L360 0 L152 0 Z " />
<glyph glyph-name="Theta" unicode="&#x398;" horiz-adv-x="1636" d="M472 679 L472 864 L1164 864 L1164 679 L472 679 Z M817 1581 Q1155 1581 1347 1368 Q1540 1153 1540 772 Q1540 392 1347 177 Q1154 -37 822 -37 Q516 -37 328 137 Q96 353 96 773 Q96 1153 289 1368 Q481 1581 817 1581 Z M817 1407 Q577 1407 440 1225 Q313 1055 313 772 Q313 490 440 319 Q577 137 812 137 Q1034 137 1168 287 Q1323 460 1323 772 Q1323 1055 1195 1225 Q1057 1407 817 1407 Z " />
<glyph glyph-name="Iota" unicode="&#x399;" horiz-adv-x="510" d="M152 0 L152 1544 L360 1544 L360 0 L152 0 Z " />
<glyph glyph-name="Kappa" unicode="&#x39a;" horiz-adv-x="1407" d="M152 0 L152 1544 L360 1544 L360 829 L1077 1544 L1333 1544 L739 948 L1415 0 L1145 0 L592 799 L360 567 L360 0 L152 0 Z " />
<glyph glyph-name="Lambda" unicode="&#x39b;" horiz-adv-x="1427" d="M707 1372 L199 0 L0 0 L582 1544 L846 1544 L1427 0 L1206 0 L707 1372 Z " />
<glyph glyph-name="Mu" unicode="&#x39c;" horiz-adv-x="1855" d="M152 0 L152 1544 L471 1544 L924 223 L1395 1544 L1704 1544 L1704 0 L1505 0 L1505 1341 L1024 0 L811 0 L350 1341 L350 0 L152 0 Z " />
<glyph glyph-name="Nu" unicode="&#x39d;" horiz-adv-x="1511" d="M152 0 L152 1544 L393 1544 L1157 283 L1157 1544 L1360 1544 L1360 0 L1118 0 L354 1264 L354 0 L152 0 Z " />
<glyph glyph-name="Xi" unicode="&#x39e;" horiz-adv-x="1398" d="M1180 879 L1180 694 L218 694 L218 879 L1180 879 Z M152 184 L1246 184 L1246 0 L152 0 L152 184 Z M152 1544 L1246 1544 L1246 1360 L152 1360 L152 1544 Z " />
<glyph glyph-name="Omicron" unicode="&#x39f;" horiz-adv-x="1636" d="M817 1581 Q1155 1581 1347 1368 Q1540 1153 1540 772 Q1540 392 1347 177 Q1154 -37 822 -37 Q516 -37 328 137 Q96 353 96 773 Q96 1153 289 1368 Q481 1581 817 1581 Z M817 1407 Q577 1407 440 1225 Q313 1055 313 772 Q313 490 440 319 Q577 137 812 137 Q1034 137 1168 287 Q1323 460 1323 772 Q1323 1055 1195 1225 Q1057 1407 817 1407 Z " />
<glyph glyph-name="Pi" unicode="&#x3a0;" horiz-adv-x="1512" d="M1360 1544 L1360 0 L1152 0 L1152 1360 L360 1360 L360 0 L152 0 L152 1544 L1360 1544 Z " />
<glyph glyph-name="Rho" unicode="&#x3a1;" horiz-adv-x="1358" d="M152 0 L152 1544 L809 1544 Q1071 1544 1199 1387 Q1296 1268 1296 1072 Q1296 857 1153 729 Q1010 602 768 602 L356 602 L356 0 L152 0 Z M356 774 L770 774 Q908 774 992 850 Q1085 933 1085 1076 Q1085 1235 982 1312 Q903 1372 776 1372 L356 1372 L356 774 Z " />
<glyph glyph-name="Sigma" unicode="&#x3a3;" horiz-adv-x="1337" d="M152 0 L152 184 L645 789 L152 1360 L152 1544 L1225 1544 L1225 1360 L360 1360 L889 789 L360 184 L1260 184 L1260 0 L152 0 Z " />
<glyph glyph-name="Tau" unicode="&#x3a4;" horiz-adv-x="1391" d="M590 0 L590 1360 L43 1360 L43 1544 L1346 1544 L1346 1360 L799 1360 L799 0 L590 0 Z " />
<glyph glyph-name="Upsilon" unicode="&#x3a5;" horiz-adv-x="1292" d="M541 0 L541 602 L0 1544 L225 1544 L655 786 L1077 1544 L1292 1544 L752 602 L752 0 L541 0 Z " />
<glyph glyph-name="Phi" unicode="&#x3a6;" horiz-adv-x="1651" d="M721 188 Q599 196 512 223 Q313 286 202 438 Q96 583 96 772 Q96 999 245 1160 Q382 1306 619 1346 Q646 1351 714 1358 L721 1358 L721 1544 L929 1544 L929 1358 Q1049 1350 1159 1316 Q1363 1252 1463 1099 Q1554 962 1554 772 Q1554 504 1377 347 Q1211 201 929 188 L929 0 L721 0 L721 188 Z M929 1185 L929 362 Q1015 368 1081 394 Q1337 495 1337 772 Q1337 965 1217 1072 Q1106 1173 929 1185 Z M721 362 L721 1185 Q631 1179 567 1154 Q313 1056 313 772 Q313 581 436 475 Q552 373 721 362 Z " />
<glyph glyph-name="Chi" unicode="&#x3a7;" horiz-adv-x="1300" d="M0 0 L537 795 L39 1544 L272 1544 L653 963 L1040 1544 L1257 1544 L764 807 L1300 0 L1063 0 L645 639 L223 0 L0 0 Z " />
<glyph glyph-name="Psi" unicode="&#x3a8;" horiz-adv-x="1653" d="M723 467 L723 1544 L931 1544 L931 467 Q1065 475 1158 522 Q1258 573 1298 655 Q1341 742 1346 880 Q1349 969 1349 1084 L1349 1544 L1557 1544 L1557 1084 Q1557 806 1517 673 Q1452 456 1224 355 Q1097 299 931 292 L931 0 L723 0 L723 292 Q556 299 430 355 Q179 466 121 730 Q96 847 96 1084 L96 1544 L304 1544 L304 1084 Q304 833 324 742 Q381 487 723 467 Z " />
<glyph glyph-name="uni03A9" unicode="&#x3a9;" horiz-adv-x="1633" d="M64 0 L64 185 L465 185 Q365 245 315 289 Q96 485 96 843 Q96 1182 289 1373 Q401 1485 561 1539 Q684 1581 817 1581 Q1042 1581 1228 1465 Q1537 1272 1537 842 Q1537 569 1408 390 Q1342 298 1246 234 Q1213 212 1168 185 L1569 185 L1569 0 L943 0 L943 175 Q1113 278 1190 386 Q1320 567 1320 840 Q1320 1092 1196 1242 Q1059 1407 817 1407 Q643 1407 516 1315 Q313 1168 313 840 Q313 566 443 386 Q520 278 690 175 L690 0 L64 0 Z " />
<glyph glyph-name="Iotadieresis" unicode="&#x3aa;" horiz-adv-x="512" d="M152 0 L152 1544 L360 1544 L360 0 L152 0 Z M-30 1678 L-30 1907 L153 1907 L153 1678 L-30 1678 Z M366 1678 L366 1907 L548 1907 L548 1678 L366 1678 Z " />
<glyph glyph-name="Upsilondieresis" unicode="&#x3ab;" horiz-adv-x="1292" d="M541 0 L541 602 L0 1544 L225 1544 L655 786 L1077 1544 L1292 1544 L752 602 L752 0 L541 0 Z M365 1678 L365 1907 L548 1907 L548 1678 L365 1678 Z M761 1678 L761 1907 L943 1907 L943 1678 L761 1678 Z " />
<glyph glyph-name="alphatonos" unicode="&#x3ac;" horiz-adv-x="1360" d="M494 1678 L698 1678 L698 1469 L640 1235 L552 1235 L494 1469 L494 1678 Z M1307 1081 L1104 567 L1328 0 L1133 0 L1010 347 Q954 215 896 135 Q770 -37 560 -37 Q341 -37 206 136 Q80 298 80 538 Q80 700 146 840 Q209 972 333 1049 Q444 1118 571 1118 Q702 1118 810 1044 Q917 971 1008 777 L1115 1081 L1307 1081 Z M925 567 Q844 778 778 859 Q694 963 582 963 Q437 963 349 823 Q279 712 279 541 Q279 329 382 215 Q466 120 574 120 Q693 120 788 257 Q836 327 882 443 Q928 560 925 567 Z " />
<glyph glyph-name="epsilontonos" unicode="&#x3ad;" horiz-adv-x="1036" d="M427 1678 L631 1678 L631 1469 L573 1235 L485 1235 L427 1469 L427 1678 Z M643 636 L643 491 Q610 492 600 492 Q499 492 427 476 Q279 442 279 315 Q279 219 360 163 Q422 120 519 120 Q744 120 800 370 L986 321 Q883 -40 520 -40 Q320 -40 198 63 Q80 162 80 306 Q80 417 157 498 Q203 547 281 573 Q213 609 175 654 Q109 733 109 827 Q109 919 171 988 Q286 1118 521 1118 Q879 1118 964 780 L776 731 Q746 842 694 895 Q629 961 515 961 Q429 961 367 914 Q308 869 308 801 Q308 753 339 719 Q411 636 599 636 Q626 636 643 636 Z " />
<glyph glyph-name="etatonos" unicode="&#x3ae;" horiz-adv-x="1114" d="M532 1678 L736 1678 L736 1469 L678 1235 L590 1235 L532 1469 L532 1678 Z M96 0 L96 1081 L287 1081 L291 905 Q346 1002 422 1055 Q514 1118 656 1118 Q835 1118 933 1009 Q1018 913 1018 750 L1018 -393 L823 -393 L823 698 Q823 958 596 958 Q450 958 366 830 Q291 715 291 545 L291 0 L96 0 Z " />
<glyph glyph-name="iotatonos" unicode="&#x3af;" horiz-adv-x="477" d="M137 1678 L341 1678 L341 1469 L283 1235 L195 1235 L137 1469 L137 1678 Z M141 0 L141 1081 L336 1081 L336 0 L141 0 Z " />
<glyph glyph-name="upsilondieresistonos" unicode="&#x3b0;" horiz-adv-x="1064" d="M773 1081 L968 1081 L968 334 Q968 126 810 29 Q703 -37 532 -37 Q350 -37 241 37 Q96 135 96 334 L96 1081 L291 1081 L291 371 Q291 121 532 121 Q773 121 773 371 L773 1081 Z M241 1331 L241 1560 L424 1560 L424 1331 L241 1331 Z M637 1331 L637 1560 L819 1560 L819 1331 L637 1331 Z M429 1879 L633 1879 L633 1680 L575 1457 L487 1457 L429 1680 L429 1879 Z " />
<glyph glyph-name="alpha" unicode="&#x3b1;" horiz-adv-x="1360" d="M1307 1081 L1104 567 L1328 0 L1133 0 L1010 347 Q954 215 896 135 Q770 -37 560 -37 Q341 -37 206 136 Q80 298 80 538 Q80 700 146 840 Q209 972 333 1049 Q444 1118 571 1118 Q702 1118 810 1044 Q917 971 1008 777 L1115 1081 L1307 1081 Z M925 567 Q844 778 778 859 Q694 963 582 963 Q437 963 349 823 Q279 712 279 541 Q279 329 382 215 Q466 120 574 120 Q693 120 788 257 Q836 327 882 443 Q928 560 925 567 Z " />
<glyph glyph-name="beta" unicode="&#x3b2;" horiz-adv-x="1214" d="M797 868 Q1135 827 1135 455 Q1135 248 1013 116 Q888 -18 679 -18 Q554 -18 467 17 Q396 45 326 101 L326 -393 L131 -393 L131 1063 Q131 1354 279 1467 Q406 1565 610 1565 Q818 1565 943 1459 Q1047 1370 1047 1217 Q1047 969 797 868 Z M326 302 Q477 147 641 147 Q773 147 854 230 Q932 310 932 460 Q932 627 832 698 Q736 768 532 768 L510 768 L510 936 L532 936 Q713 936 796 1036 Q850 1100 850 1205 Q850 1318 769 1373 Q705 1415 595 1415 Q326 1415 326 1063 L326 302 Z " />
<glyph glyph-name="gamma" unicode="&#x3b3;" horiz-adv-x="1063" d="M1063 1081 L655 0 L655 -393 L460 -393 L460 0 L0 1081 L209 1081 L553 233 L866 1081 L1063 1081 Z " />
<glyph glyph-name="delta" unicode="&#x3b4;" horiz-adv-x="1192" d="M569 1117 L540 1127 L200 1386 L200 1544 L1003 1544 L1003 1380 L461 1380 L775 1144 Q897 1053 944 1006 Q961 990 986 951 Q1050 856 1059 832 Q1112 699 1112 541 Q1112 282 986 130 Q848 -37 597 -37 Q367 -37 231 101 Q80 255 80 541 Q80 840 245 993 Q366 1105 569 1117 Z M592 961 Q438 961 354 840 Q279 730 279 541 Q279 349 354 241 Q438 121 593 121 Q744 121 829 229 Q913 335 913 547 Q913 760 812 872 Q732 961 592 961 Z " />
<glyph glyph-name="epsilon" unicode="&#x3b5;" horiz-adv-x="1036" d="M643 636 L643 491 Q610 492 600 492 Q499 492 427 476 Q279 442 279 315 Q279 219 360 163 Q422 120 519 120 Q744 120 800 370 L986 321 Q883 -40 520 -40 Q320 -40 198 63 Q80 162 80 306 Q80 417 157 498 Q203 547 281 573 Q213 609 175 654 Q109 733 109 827 Q109 919 171 988 Q286 1118 521 1118 Q879 1118 964 780 L776 731 Q746 842 694 895 Q629 961 515 961 Q429 961 367 914 Q308 869 308 801 Q308 753 339 719 Q411 636 599 636 Q626 636 643 636 Z " />
<glyph glyph-name="zeta" unicode="&#x3b6;" horiz-adv-x="1000" d="M164 1380 L164 1544 L903 1544 L903 1380 Q669 1249 528 1084 Q277 791 277 509 Q277 326 383 271 Q445 239 586 225 L684 215 Q797 204 858 173 Q954 122 954 -14 Q954 -114 899 -266 Q888 -295 851 -393 L655 -393 Q707 -256 720 -218 Q755 -118 755 -56 Q755 8 717 29 Q688 44 610 51 L517 59 Q367 72 281 110 Q178 156 130 257 Q80 361 80 493 Q80 849 359 1168 Q471 1297 599 1380 L164 1380 Z " />
<glyph glyph-name="eta" unicode="&#x3b7;" horiz-adv-x="1183" d="M131 0 L131 1081 L322 1081 L326 905 Q381 1002 457 1055 Q549 1118 691 1118 Q870 1118 968 1009 Q1053 913 1053 750 L1053 -393 L858 -393 L858 698 Q858 958 631 958 Q485 958 401 830 Q326 715 326 545 L326 0 L131 0 Z " />
<glyph glyph-name="theta" unicode="&#x3b8;" horiz-adv-x="1259" d="M628 1544 Q1163 1544 1163 753 Q1163 -37 630 -37 Q96 -37 96 753 Q96 1544 628 1544 Z M956 842 Q935 1382 628 1382 Q324 1382 303 842 L956 842 Z M302 674 Q306 463 361 326 Q440 125 629 125 Q789 125 873 272 Q939 387 956 667 L956 674 L302 674 Z " />
<glyph glyph-name="iota" unicode="&#x3b9;" horiz-adv-x="477" d="M141 0 L141 1081 L336 1081 L336 0 L141 0 Z " />
<glyph glyph-name="kappa" unicode="&#x3ba;" horiz-adv-x="1096" d="M141 0 L141 1081 L336 1081 L336 638 L780 1081 L1021 1081 L597 655 L1064 0 L823 0 L463 520 L336 393 L336 0 L141 0 Z " />
<glyph glyph-name="lambda" unicode="&#x3bb;" horiz-adv-x="1063" d="M0 0 L408 1080 L217 1544 L406 1544 L1063 0 L854 0 L510 847 L197 0 L0 0 Z " />
<glyph glyph-name="uni03BC" unicode="&#x3bc;" horiz-adv-x="1181" d="M131 -393 L131 1081 L326 1081 L326 371 Q326 125 551 125 Q697 125 780 252 Q856 367 856 535 L856 1081 L1051 1081 L1051 0 L862 0 L856 178 Q808 85 748 35 Q662 -37 533 -37 Q454 -37 388 -4 Q348 16 326 47 L326 -393 L131 -393 Z " />
<glyph glyph-name="nu" unicode="&#x3bd;" horiz-adv-x="1014" d="M381 0 L0 1081 L205 1081 L510 164 L817 1081 L1014 1081 L631 0 L381 0 Z " />
<glyph glyph-name="xi" unicode="&#x3be;" horiz-adv-x="999" d="M114 1380 L114 1544 L901 1544 L901 1380 L710 1380 Q559 1380 483 1338 Q429 1309 395 1251 Q366 1200 366 1145 Q366 1057 435 993 Q522 911 744 911 L773 911 L773 757 L737 757 Q549 757 443 713 Q362 680 315 602 Q278 542 278 469 Q278 383 330 317 Q372 263 465 243 Q513 232 585 225 L683 215 Q796 204 857 173 Q953 122 953 -14 Q953 -115 898 -266 Q887 -295 850 -393 L654 -393 Q706 -255 718 -218 Q753 -118 753 -56 Q753 8 715 29 Q686 44 609 51 L516 59 Q364 72 280 110 Q182 155 129 257 Q80 352 80 461 Q80 645 208 745 Q281 802 407 838 Q315 864 265 909 Q167 996 167 1129 Q167 1290 315 1380 L114 1380 Z " />
<glyph glyph-name="omicron" unicode="&#x3bf;" horiz-adv-x="1192" d="M596 1118 Q848 1118 986 952 Q1112 800 1112 541 Q1112 283 986 130 Q848 -37 600 -37 Q367 -37 231 101 Q80 256 80 541 Q80 800 205 952 Q343 1118 596 1118 Z M592 961 Q438 961 354 840 Q279 730 279 541 Q279 349 354 241 Q438 121 593 121 Q744 121 829 229 Q913 335 913 547 Q913 760 812 872 Q732 961 592 961 Z " />
<glyph glyph-name="rho" unicode="&#x3c1;" horiz-adv-x="1208" d="M289 63 L289 -393 L94 -393 L96 537 Q96 800 221 952 Q359 1118 611 1118 Q863 1118 1002 952 Q1128 800 1128 541 Q1128 283 1002 130 Q864 -37 613 -37 Q419 -37 289 63 Z M608 961 Q454 961 370 840 Q295 730 295 541 Q295 349 370 241 Q454 121 609 121 Q759 121 845 229 Q929 335 929 547 Q929 760 828 872 Q748 961 608 961 Z " />
<glyph glyph-name="sigma1" unicode="&#x3c2;" horiz-adv-x="1085" d="M718 -393 Q818 -143 818 -87 Q818 -27 729 3 L488 83 Q361 125 299 165 Q195 233 137 352 Q80 471 80 597 Q80 743 156 877 Q228 1002 361 1064 Q475 1118 604 1118 Q827 1118 945 973 Q1006 898 1035 780 L848 731 Q817 842 766 895 Q702 961 586 961 Q443 961 355 843 Q279 741 279 606 Q279 493 335 400 Q385 317 490 269 Q536 247 633 214 L729 182 Q861 137 893 122 Q925 107 963 73 Q1016 26 1016 -51 Q1016 -135 914 -393 L718 -393 Z " />
<glyph glyph-name="sigma" unicode="&#x3c3;" horiz-adv-x="1192" d="M990 947 Q1112 799 1112 541 Q1112 283 986 130 Q848 -37 597 -37 Q367 -37 231 101 Q80 256 80 541 Q80 799 205 951 Q343 1118 600 1118 L1197 1118 L1197 947 L990 947 Z M592 961 Q438 961 354 839 Q279 730 279 541 Q279 349 354 241 Q438 121 593 121 Q744 121 829 229 Q913 335 913 547 Q913 760 812 872 Q732 961 592 961 Z " />
<glyph glyph-name="tau" unicode="&#x3c4;" horiz-adv-x="976" d="M390 0 L390 910 L32 910 L32 1081 L944 1081 L944 910 L585 910 L585 0 L390 0 Z " />
<glyph glyph-name="upsilon" unicode="&#x3c5;" horiz-adv-x="1064" d="M773 1081 L968 1081 L968 334 Q968 126 810 29 Q703 -37 532 -37 Q350 -37 241 37 Q96 135 96 334 L96 1081 L291 1081 L291 371 Q291 121 532 121 Q773 121 773 371 L773 1081 Z " />
<glyph glyph-name="phi" unicode="&#x3c6;" horiz-adv-x="1393" d="M597 -393 L597 -40 Q488 -29 420 -6 Q352 17 289 65 Q186 143 136 266 Q80 401 80 554 Q80 764 201 915 Q275 1006 370 1056 Q397 1070 455 1094 L455 923 Q375 879 339 813 Q279 703 279 545 Q279 312 398 199 Q465 134 597 119 L597 1116 Q643 1118 675 1118 Q862 1118 994 1061 Q1158 990 1241 831 Q1313 694 1313 532 Q1313 334 1214 188 Q1104 27 915 -22 Q870 -34 792 -40 L792 -393 L597 -393 Z M792 117 Q933 131 1004 211 Q1114 337 1114 564 Q1114 785 993 896 Q916 967 792 976 L792 117 Z " />
<glyph glyph-name="chi" unicode="&#x3c7;" horiz-adv-x="992" d="M12 -393 L391 364 L37 1081 L252 1081 L499 568 L751 1081 L952 1081 L600 377 L981 -393 L764 -393 L491 171 L215 -393 L12 -393 Z " />
<glyph glyph-name="psi" unicode="&#x3c8;" horiz-adv-x="1353" d="M774 1081 L774 126 Q860 134 904 153 Q1015 200 1047 312 Q1062 365 1062 490 L1062 1081 L1257 1081 L1257 486 Q1257 315 1224 242 Q1162 103 1000 26 Q911 -17 774 -32 L774 -393 L579 -393 L579 -32 Q319 -3 190 147 Q130 215 111 293 Q96 351 96 486 L96 1081 L291 1081 L291 490 Q291 341 317 281 Q362 177 478 143 Q512 132 579 126 L579 1081 L774 1081 Z " />
<glyph glyph-name="omega" unicode="&#x3c9;" horiz-adv-x="1457" d="M631 822 L826 822 L826 413 Q826 283 847 224 Q864 178 901 150 Q939 121 990 121 Q1045 121 1079 153 Q1127 197 1149 270 Q1178 367 1178 476 Q1178 828 929 1081 L1149 1081 Q1218 1010 1268 921 Q1377 724 1377 485 Q1377 219 1249 71 Q1156 -37 1008 -37 Q833 -37 728 119 Q687 61 649 31 Q565 -37 447 -37 Q299 -37 206 71 Q80 220 80 485 Q80 724 189 921 Q239 1011 307 1081 L528 1081 Q279 826 279 475 Q279 237 380 149 Q413 121 464 121 Q536 121 581 176 Q618 220 627 299 Q631 334 631 413 L631 822 Z " />
<glyph glyph-name="iotadieresis" unicode="&#x3ca;" horiz-adv-x="477" d="M141 0 L141 1081 L336 1081 L336 0 L141 0 Z M-51 1295 L-51 1524 L132 1524 L132 1295 L-51 1295 Z M345 1295 L345 1524 L527 1524 L527 1295 L345 1295 Z " />
<glyph glyph-name="upsilondieresis" unicode="&#x3cb;" horiz-adv-x="1064" d="M773 1081 L968 1081 L968 334 Q968 126 810 29 Q703 -37 532 -37 Q350 -37 241 37 Q96 135 96 334 L96 1081 L291 1081 L291 371 Q291 121 532 121 Q773 121 773 371 L773 1081 Z M245 1295 L245 1524 L428 1524 L428 1295 L245 1295 Z M641 1295 L641 1524 L823 1524 L823 1295 L641 1295 Z " />
<glyph glyph-name="omicrontonos" unicode="&#x3cc;" horiz-adv-x="1192" d="M490 1678 L694 1678 L694 1469 L636 1235 L548 1235 L490 1469 L490 1678 Z M596 1118 Q848 1118 986 952 Q1112 800 1112 541 Q1112 283 986 130 Q848 -37 600 -37 Q367 -37 231 101 Q80 256 80 541 Q80 800 205 952 Q343 1118 596 1118 Z M592 961 Q438 961 354 840 Q279 730 279 541 Q279 349 354 241 Q438 121 593 121 Q744 121 829 229 Q913 335 913 547 Q913 760 812 872 Q732 961 592 961 Z " />
<glyph glyph-name="upsilontonos" unicode="&#x3cd;" horiz-adv-x="1064" d="M430 1678 L634 1678 L634 1469 L576 1235 L488 1235 L430 1469 L430 1678 Z M773 1081 L968 1081 L968 334 Q968 126 810 29 Q703 -37 532 -37 Q350 -37 241 37 Q96 135 96 334 L96 1081 L291 1081 L291 371 Q291 121 532 121 Q773 121 773 371 L773 1081 Z " />
<glyph glyph-name="omegatonos" unicode="&#x3ce;" horiz-adv-x="1457" d="M627 1678 L831 1678 L831 1469 L773 1235 L685 1235 L627 1469 L627 1678 Z M631 822 L826 822 L826 413 Q826 283 847 224 Q864 178 901 150 Q939 121 990 121 Q1045 121 1079 153 Q1127 197 1149 270 Q1178 367 1178 476 Q1178 828 929 1081 L1149 1081 Q1218 1010 1268 921 Q1377 724 1377 485 Q1377 219 1249 71 Q1156 -37 1008 -37 Q833 -37 728 119 Q687 61 649 31 Q565 -37 447 -37 Q299 -37 206 71 Q80 220 80 485 Q80 724 189 921 Q239 1011 307 1081 L528 1081 Q279 826 279 475 Q279 237 380 149 Q413 121 464 121 Q536 121 581 176 Q618 220 627 299 Q631 334 631 413 L631 822 Z " />
<glyph glyph-name="theta1" unicode="&#x3d1;" horiz-adv-x="1121" d="M7 643 L276 643 L277 629 Q284 404 310 326 Q370 148 542 148 Q749 148 804 399 Q825 492 826 698 Q545 698 372 810 Q156 949 156 1187 Q156 1372 285 1480 Q387 1565 535 1565 Q693 1565 811 1472 Q928 1381 978 1231 Q1017 1116 1025 871 Q1058 872 1117 878 L1117 708 Q1064 702 1025 701 Q1024 407 962 253 Q845 -37 538 -37 Q269 -37 159 192 Q101 314 95 477 L7 477 L7 643 Z M827 868 L827 893 L827 915 Q827 1092 788 1192 Q744 1307 658 1355 Q600 1387 534 1387 Q462 1387 412 1342 Q350 1285 350 1189 Q350 1021 527 930 Q647 868 827 868 Z " />
<glyph glyph-name="phi1" unicode="&#x3d5;" horiz-adv-x="1410" d="M608 -393 L608 -41 Q439 -30 328 37 Q206 110 145 239 Q80 377 80 537 Q80 774 204 928 Q316 1067 503 1103 Q541 1110 608 1115 L608 1369 L803 1369 L803 1115 Q971 1104 1081 1037 Q1204 963 1265 835 Q1330 698 1330 537 Q1330 300 1206 146 Q1094 7 907 -29 Q869 -36 803 -41 L803 -393 L608 -393 Z M607 957 Q499 947 431 899 Q278 788 278 536 Q278 287 431 175 Q499 127 607 117 L607 957 Z M802 957 L802 117 Q910 127 978 175 Q1131 287 1131 536 Q1131 787 977 899 Q910 947 802 957 Z " />
<glyph glyph-name="afii10023" unicode="&#x401;" horiz-adv-x="1337" d="M152 0 L152 1544 L1225 1544 L1225 1360 L360 1360 L360 879 L1180 879 L1180 694 L360 694 L360 184 L1260 184 L1260 0 L152 0 Z M402 1678 L402 1907 L585 1907 L585 1678 L402 1678 Z M798 1678 L798 1907 L980 1907 L980 1678 L798 1678 Z " />
<glyph glyph-name="afii10051" unicode="&#x402;" horiz-adv-x="1442" d="M336 0 L336 1360 L6 1360 L6 1544 L897 1544 L897 1360 L544 1360 L544 875 Q675 1041 880 1041 Q1065 1041 1191 918 Q1290 822 1290 681 L1290 329 Q1290 191 1185 92 Q1088 0 969 0 L663 0 L663 174 L967 174 Q1019 174 1052 214 Q1082 251 1082 314 L1082 672 Q1082 745 1046 790 Q982 868 850 868 Q705 868 609 775 Q544 713 544 616 L544 0 L336 0 Z " />
<glyph glyph-name="afii10052" unicode="&#x403;" horiz-adv-x="1337" d="M152 1544 L1225 1544 L1225 1360 L360 1360 L360 0 L152 0 L152 1544 Z M407 1659 L596 1931 L817 1931 L583 1659 L407 1659 Z " />
<glyph glyph-name="afii10053" unicode="&#x404;" horiz-adv-x="1529" d="M323 879 L929 879 L929 694 L318 694 Q331 476 416 342 Q543 141 799 141 Q968 141 1086 234 Q1208 329 1245 549 L1462 518 Q1409 280 1290 152 Q1114 -37 794 -37 Q507 -37 328 126 Q96 336 96 758 Q96 1145 284 1363 Q473 1581 808 1581 Q1318 1581 1438 1110 L1226 1059 Q1186 1196 1125 1269 Q1013 1403 802 1403 Q559 1403 431 1214 Q345 1088 323 879 Z " />
<glyph glyph-name="afii10054" unicode="&#x405;" horiz-adv-x="1391" d="M59 420 L264 471 Q301 327 366 257 Q476 139 699 139 Q884 139 983 211 Q1075 280 1075 406 Q1075 529 999 589 Q932 643 793 668 L549 713 Q100 796 100 1145 Q100 1344 252 1462 Q405 1581 675 1581 Q1002 1581 1150 1418 Q1232 1328 1276 1182 L1081 1118 Q1036 1249 965 1314 Q862 1407 669 1407 Q497 1407 405 1339 Q315 1273 315 1155 Q315 1054 381 993 Q450 930 600 903 L879 852 Q1103 811 1204 701 Q1298 597 1298 422 Q1298 212 1153 93 Q995 -37 692 -37 Q415 -37 259 82 Q118 190 59 420 Z " />
<glyph glyph-name="afii10055" unicode="&#x406;" horiz-adv-x="510" d="M152 0 L152 1544 L360 1544 L360 0 L152 0 Z " />
<glyph glyph-name="afii10056" unicode="&#x407;" horiz-adv-x="510" d="M152 0 L152 1544 L360 1544 L360 0 L152 0 Z M-34 1678 L-34 1907 L149 1907 L149 1678 L-34 1678 Z M362 1678 L362 1907 L544 1907 L544 1678 L362 1678 Z " />
<glyph glyph-name="afii10057" unicode="&#x408;" horiz-adv-x="1178" d="M55 444 L256 467 Q290 135 540 135 Q694 135 763 228 Q829 317 829 489 L829 1544 L1038 1544 L1038 494 Q1038 -37 550 -37 Q100 -37 55 444 Z " />
<glyph glyph-name="afii10058" unicode="&#x409;" horiz-adv-x="2486" d="M586 1360 L586 853 Q586 550 505 340 Q433 150 315 63 Q251 15 165 6 Q117 1 69 0 L69 174 Q163 186 220 243 Q316 340 350 508 Q378 643 378 848 L378 1544 L1400 1544 L1400 905 L1789 905 Q1980 905 2044 890 Q2217 849 2321 718 Q2402 615 2402 452 Q2402 0 1814 0 L1192 0 L1192 1360 L586 1360 Z M1400 172 L1802 172 Q1985 172 2076 232 Q2183 301 2183 454 Q2183 630 2052 695 Q1976 733 1824 733 L1400 733 L1400 172 Z " />
<glyph glyph-name="afii10059" unicode="&#x40a;" horiz-adv-x="2462" d="M1167 1544 L1376 1544 L1376 905 L1765 905 Q1956 905 2020 890 Q2193 849 2297 718 Q2378 615 2378 453 Q2378 0 1790 0 L1167 0 L1167 733 L360 733 L360 0 L152 0 L152 1544 L360 1544 L360 905 L1167 905 L1167 1544 Z M1376 172 L1778 172 Q1961 172 2053 232 Q2159 301 2159 454 Q2159 630 2028 695 Q1952 733 1800 733 L1376 733 L1376 172 Z " />
<glyph glyph-name="afii10060" unicode="&#x40b;" horiz-adv-x="1442" d="M336 0 L336 1360 L6 1360 L6 1544 L897 1544 L897 1360 L544 1360 L544 875 Q673 1041 881 1041 Q1065 1041 1191 918 Q1290 822 1290 680 L1290 0 L1082 0 L1082 672 Q1082 745 1046 790 Q982 868 850 868 Q705 868 609 775 Q544 713 544 616 L544 0 L336 0 Z " />
<glyph glyph-name="afii10061" unicode="&#x40c;" horiz-adv-x="1343" d="M152 0 L152 1544 L360 1544 L360 905 L606 905 L1003 1544 L1232 1544 L780 814 L1336 0 L1110 0 L613 731 L360 731 L360 0 L152 0 Z M517 1659 L706 1931 L927 1931 L693 1659 L517 1659 Z " />
<glyph glyph-name="afii10062" unicode="&#x40e;" horiz-adv-x="1092" d="M76 28 L109 190 Q176 167 239 167 Q313 167 355 202 Q395 236 421 304 L471 434 L0 1544 L215 1544 L568 673 L890 1544 L1092 1544 L602 245 Q561 136 507 83 Q423 -2 277 -2 L266 -2 Q181 -2 76 28 Z M217 1911 L371 1911 Q420 1802 554 1802 Q697 1802 733 1911 L887 1911 Q843 1671 551 1671 Q401 1671 313 1739 Q233 1802 217 1911 Z " />
<glyph glyph-name="afii10145" unicode="&#x40f;" horiz-adv-x="1519" d="M655 0 L152 0 L152 1544 L360 1544 L360 184 L1158 184 L1158 1544 L1366 1544 L1366 0 L863 0 L863 -352 L655 -352 L655 0 Z " />
<glyph glyph-name="afii10017" unicode="&#x410;" horiz-adv-x="1427" d="M0 0 L582 1544 L846 1544 L1427 0 L1206 0 L1069 379 L338 379 L199 0 L0 0 Z M406 557 L1004 557 L707 1372 L406 557 Z " />
<glyph glyph-name="afii10018" unicode="&#x411;" horiz-adv-x="1442" d="M356 1360 L356 905 L745 905 Q936 905 1000 890 Q1173 849 1277 718 Q1358 615 1358 453 Q1358 0 770 0 L152 0 L152 1544 L154 1543 L154 1544 L1221 1544 L1221 1360 L356 1360 Z M356 172 L758 172 Q941 172 1033 232 Q1139 301 1139 454 Q1139 630 1008 695 Q932 733 780 733 L356 733 L356 172 Z " />
<glyph glyph-name="afii10019" unicode="&#x412;" horiz-adv-x="1442" d="M152 0 L152 1544 L797 1544 Q1055 1544 1177 1436 Q1284 1340 1284 1166 Q1284 939 1087 834 Q1204 794 1267 727 Q1358 628 1358 453 Q1358 0 770 0 L152 0 Z M356 172 L758 172 Q941 172 1033 232 Q1139 301 1139 454 Q1139 630 1008 695 Q932 733 780 733 L356 733 L356 172 Z M356 905 L745 905 Q1067 905 1067 1140 Q1067 1273 976 1328 Q902 1372 760 1372 L356 1372 L356 905 Z " />
<glyph glyph-name="afii10020" unicode="&#x413;" horiz-adv-x="1273" d="M152 0 L152 1544 L1161 1544 L1161 1360 L360 1360 L360 0 L152 0 Z " />
<glyph glyph-name="afii10021" unicode="&#x414;" horiz-adv-x="1565" d="M1311 0 L255 0 L255 -352 L47 -352 L47 174 Q159 191 227 274 Q343 417 384 658 Q418 855 418 1152 L418 1544 L1406 1544 L1406 174 L1519 174 L1519 -352 L1311 -352 L1311 0 Z M1198 184 L1198 1360 L626 1360 L626 1157 Q626 766 557 504 Q501 293 409 184 L1198 184 Z " />
<glyph glyph-name="afii10022" unicode="&#x415;" horiz-adv-x="1337" d="M152 0 L152 1544 L1225 1544 L1225 1360 L360 1360 L360 879 L1180 879 L1180 694 L360 694 L360 184 L1260 184 L1260 0 L152 0 Z " />
<glyph glyph-name="afii10024" unicode="&#x416;" horiz-adv-x="2170" d="M979 0 L979 731 L734 731 L240 0 L7 0 L562 814 L105 1544 L337 1544 L735 905 L979 905 L979 1544 L1187 1544 L1187 905 L1433 905 L1830 1544 L2059 1544 L1607 814 L2164 0 L1937 0 L1440 731 L1187 731 L1187 0 L979 0 Z " />
<glyph glyph-name="afii10025" unicode="&#x417;" horiz-adv-x="1271" d="M59 416 L263 438 Q278 295 355 219 Q438 137 611 137 Q766 137 856 198 Q961 269 961 404 Q961 581 803 644 Q710 682 546 683 L546 861 Q722 867 826 932 Q935 1001 935 1136 Q935 1237 874 1294 Q795 1370 627 1370 Q345 1370 294 1108 L93 1135 Q173 1544 638 1544 Q904 1544 1039 1421 Q1153 1317 1153 1150 Q1153 884 867 776 Q1180 728 1180 411 Q1180 218 1049 96 Q906 -37 612 -37 Q336 -37 194 98 Q70 216 59 416 Z " />
<glyph glyph-name="afii10026" unicode="&#x418;" horiz-adv-x="1511" d="M1360 0 L1158 0 L1158 1264 L394 0 L152 0 L152 1544 L355 1544 L355 283 L1119 1544 L1360 1544 L1360 0 Z " />
<glyph glyph-name="afii10027" unicode="&#x419;" horiz-adv-x="1511" d="M1360 0 L1158 0 L1158 1264 L394 0 L152 0 L152 1544 L355 1544 L355 283 L1119 1544 L1360 1544 L1360 0 Z M423 1911 L577 1911 Q626 1802 760 1802 Q903 1802 939 1911 L1093 1911 Q1049 1671 757 1671 Q607 1671 519 1739 Q439 1802 423 1911 Z " />
<glyph glyph-name="afii10028" unicode="&#x41a;" horiz-adv-x="1343" d="M152 0 L152 1544 L360 1544 L360 905 L606 905 L1003 1544 L1232 1544 L780 814 L1336 0 L1110 0 L613 731 L360 731 L360 0 L152 0 Z " />
<glyph glyph-name="afii10029" unicode="&#x41b;" horiz-adv-x="1586" d="M1192 1360 L586 1360 L586 853 Q586 550 505 340 Q433 150 315 63 Q251 15 165 6 Q117 1 69 0 L69 174 Q163 186 220 243 Q316 340 350 508 Q378 643 378 848 L378 1544 L1400 1544 L1400 0 L1192 0 L1192 1360 Z " />
<glyph glyph-name="afii10030" unicode="&#x41c;" horiz-adv-x="1855" d="M152 0 L152 1544 L471 1544 L924 223 L1395 1544 L1704 1544 L1704 0 L1505 0 L1505 1341 L1024 0 L811 0 L350 1341 L350 0 L152 0 Z " />
<glyph glyph-name="afii10031" unicode="&#x41d;" horiz-adv-x="1528" d="M152 0 L152 1544 L360 1544 L360 911 L1167 911 L1167 1544 L1376 1544 L1376 0 L1167 0 L1167 723 L360 723 L360 0 L152 0 Z " />
<glyph glyph-name="afii10032" unicode="&#x41e;" horiz-adv-x="1636" d="M817 1581 Q1155 1581 1347 1368 Q1540 1153 1540 772 Q1540 392 1347 177 Q1154 -37 822 -37 Q516 -37 328 137 Q96 353 96 773 Q96 1153 289 1368 Q481 1581 817 1581 Z M817 1407 Q577 1407 440 1225 Q313 1055 313 772 Q313 490 440 319 Q577 137 812 137 Q1034 137 1168 287 Q1323 460 1323 772 Q1323 1055 1195 1225 Q1057 1407 817 1407 Z " />
<glyph glyph-name="afii10033" unicode="&#x41f;" horiz-adv-x="1518" d="M152 0 L152 1544 L1366 1544 L1366 0 L1158 0 L1158 1360 L360 1360 L360 0 L152 0 Z " />
<glyph glyph-name="afii10034" unicode="&#x420;" horiz-adv-x="1358" d="M152 0 L152 1544 L809 1544 Q1071 1544 1199 1387 Q1296 1268 1296 1072 Q1296 857 1153 729 Q1010 602 768 602 L356 602 L356 0 L152 0 Z M356 774 L770 774 Q908 774 992 850 Q1085 933 1085 1076 Q1085 1235 982 1312 Q903 1372 776 1372 L356 1372 L356 774 Z " />
<glyph glyph-name="afii10035" unicode="&#x421;" horiz-adv-x="1505" d="M1415 1110 L1206 1059 Q1167 1196 1107 1269 Q997 1403 790 1403 Q551 1403 425 1214 Q313 1046 313 752 Q313 470 432 310 Q558 141 787 141 Q953 141 1069 234 Q1190 330 1225 549 L1438 518 Q1386 280 1270 152 Q1097 -37 782 -37 Q500 -37 324 126 Q96 336 96 758 Q96 1145 281 1363 Q466 1581 796 1581 Q1297 1581 1415 1110 Z " />
<glyph glyph-name="afii10036" unicode="&#x422;" horiz-adv-x="1391" d="M590 0 L590 1360 L43 1360 L43 1544 L1346 1544 L1346 1360 L799 1360 L799 0 L590 0 Z " />
<glyph glyph-name="afii10037" unicode="&#x423;" horiz-adv-x="1092" d="M76 28 L109 190 Q176 167 239 167 Q313 167 355 202 Q395 236 421 304 L471 434 L0 1544 L215 1544 L568 673 L890 1544 L1092 1544 L602 245 Q561 136 507 83 Q423 -2 277 -2 L266 -2 Q181 -2 76 28 Z " />
<glyph glyph-name="afii10038" unicode="&#x424;" horiz-adv-x="1619" d="M705 0 L705 188 Q519 199 383 264 Q217 343 130 495 Q59 620 59 772 Q59 1001 214 1160 Q389 1339 705 1356 L705 1544 L913 1544 L913 1356 Q1118 1346 1265 1271 Q1421 1192 1499 1043 Q1559 927 1559 772 Q1559 543 1423 393 Q1252 205 913 188 L913 0 L705 0 Z M705 1188 Q571 1178 480 1128 Q277 1016 277 772 Q277 601 372 502 Q496 373 705 357 L705 1188 Z M913 1188 L913 357 Q1044 367 1135 418 Q1251 483 1301 577 Q1342 656 1342 772 Q1342 1016 1138 1128 Q1047 1178 913 1188 Z " />
<glyph glyph-name="afii10039" unicode="&#x425;" horiz-adv-x="1300" d="M0 0 L537 795 L39 1544 L272 1544 L653 963 L1040 1544 L1257 1544 L764 807 L1300 0 L1063 0 L645 639 L223 0 L0 0 Z " />
<glyph glyph-name="afii10040" unicode="&#x426;" horiz-adv-x="1519" d="M1366 173 L1366 174 L1479 174 L1479 -352 L1271 -352 L1271 0 L152 0 L152 1544 L360 1544 L360 184 L1158 184 L1158 1544 L1366 1544 L1366 173 Z " />
<glyph glyph-name="afii10041" unicode="&#x427;" horiz-adv-x="1421" d="M1061 0 L1061 581 Q839 528 639 528 Q351 528 204 664 Q96 763 96 919 L96 1544 L304 1544 L304 929 Q304 702 679 702 Q848 702 1061 768 L1061 1544 L1269 1544 L1269 0 L1061 0 Z " />
<glyph glyph-name="afii10042" unicode="&#x428;" horiz-adv-x="2297" d="M152 0 L152 1544 L360 1544 L360 184 L1045 184 L1045 1544 L1253 1544 L1253 184 L1938 184 L1938 1544 L2146 1544 L2146 0 L152 0 Z " />
<glyph glyph-name="afii10043" unicode="&#x429;" horiz-adv-x="2302" d="M2146 174 L2261 174 L2261 -352 L2053 -352 L2053 0 L152 0 L152 1544 L360 1544 L360 184 L1045 184 L1045 1544 L1253 1544 L1253 184 L1938 184 L1938 1544 L2146 1544 L2146 174 Z " />
<glyph glyph-name="afii10044" unicode="&#x42a;" horiz-adv-x="1821" d="M735 1544 L735 905 L1124 905 Q1315 905 1379 890 Q1552 849 1656 718 Q1737 615 1737 453 Q1737 0 1149 0 L531 0 L531 1360 L0 1360 L0 1544 L532 1543 L532 1544 L735 1544 Z M735 172 L1137 172 Q1320 172 1411 232 Q1518 301 1518 454 Q1518 630 1387 695 Q1311 733 1159 733 L735 733 L735 172 Z " />
<glyph glyph-name="afii10045" unicode="&#x42b;" horiz-adv-x="1854" d="M359 1544 L359 905 L748 905 Q939 905 1003 890 Q1176 849 1280 718 Q1361 615 1361 453 Q1361 0 773 0 L152 0 L152 1544 L359 1544 Z M359 172 L761 172 Q944 172 1036 232 Q1142 301 1142 454 Q1142 630 1011 695 Q935 733 783 733 L359 733 L359 172 Z M1494 0 L1494 1544 L1702 1544 L1702 0 L1494 0 Z " />
<glyph glyph-name="afii10046" unicode="&#x42c;" horiz-adv-x="1442" d="M356 1544 L356 905 L745 905 Q936 905 1000 890 Q1173 849 1277 718 Q1358 615 1358 453 Q1358 0 770 0 L152 0 L152 1544 L356 1544 Z M356 172 L758 172 Q941 172 1033 232 Q1139 301 1139 454 Q1139 630 1008 695 Q932 733 780 733 L356 733 L356 172 Z " />
<glyph glyph-name="afii10047" unicode="&#x42d;" horiz-adv-x="1529" d="M1205 879 Q1184 1088 1098 1214 Q970 1403 726 1403 Q516 1403 403 1269 Q343 1196 303 1059 L90 1110 Q211 1581 721 1581 Q1056 1581 1244 1363 Q1433 1145 1433 758 Q1433 317 1181 108 Q1005 -37 735 -37 Q390 -37 213 181 Q115 303 67 518 L284 549 Q308 402 367 315 Q422 232 521 185 Q612 141 730 141 Q997 141 1123 358 Q1198 489 1210 694 L600 694 L600 879 L1205 879 Z " />
<glyph glyph-name="afii10048" unicode="&#x42e;" horiz-adv-x="2276" d="M741 879 Q762 1149 896 1327 Q1088 1581 1458 1581 Q1796 1581 1987 1368 Q2181 1153 2181 772 Q2181 392 1987 177 Q1795 -37 1458 -37 Q1122 -37 930 177 Q758 368 739 694 L360 694 L360 0 L152 0 L152 1544 L360 1544 L360 879 L741 879 Z M1458 1407 Q1218 1407 1082 1225 Q954 1055 954 772 Q954 490 1082 319 Q1218 137 1453 137 Q1675 137 1809 287 Q1964 460 1964 772 Q1964 1055 1836 1225 Q1698 1407 1458 1407 Z " />
<glyph glyph-name="afii10049" unicode="&#x42f;" horiz-adv-x="1434" d="M1366 0 L1162 0 L1162 633 L742 633 L729 633 L716 633 Q703 633 693 635 L392 0 L152 0 L486 670 Q351 724 276 836 Q203 947 203 1093 Q203 1204 244 1306 Q288 1416 402 1478 Q522 1544 701 1544 L1366 1544 L1366 0 Z M1162 805 L1162 1372 L742 1372 Q420 1372 420 1092 Q420 944 511 871 Q592 805 742 805 L1162 805 Z " />
<glyph glyph-name="afii10065" unicode="&#x430;" horiz-adv-x="1077" d="M778 690 L778 764 Q778 969 541 969 Q400 969 334 887 Q303 848 281 784 L109 829 Q140 939 214 1007 Q335 1118 550 1118 Q969 1118 969 768 L969 201 Q969 106 1004 0 L819 0 Q798 62 797 139 Q722 45 637 4 Q554 -37 423 -37 Q270 -37 175 41 Q72 126 72 280 Q72 463 195 555 Q278 616 446 641 L778 690 Z M778 549 L487 504 Q358 484 303 420 Q262 373 262 286 Q262 201 317 155 Q368 111 457 111 Q571 111 658 167 Q778 246 778 389 L778 549 Z " />
<glyph glyph-name="afii10066" unicode="&#x431;" horiz-adv-x="1192" d="M274 907 Q278 913 288 929 Q320 981 335 997 Q448 1118 626 1118 Q863 1118 1001 951 Q1127 800 1127 541 Q1127 283 1001 130 Q863 -37 612 -37 Q382 -37 247 101 Q172 178 133 292 Q95 405 95 586 Q95 966 245 1169 Q320 1270 434 1313 Q492 1334 604 1351 Q721 1368 756 1380 Q821 1402 831 1440 Q838 1467 840 1544 L1046 1544 Q1045 1454 1034.5 1410.5 Q1024 1367 993 1328 Q937 1257 821 1224 Q762 1207 633 1189 Q514 1172 459 1143 Q349 1085 303 982 Q290 952 274 907 Z M607 961 Q453 961 369 840 Q294 730 294 541 Q294 349 369 241 Q453 121 608 121 Q758 121 844 229 Q928 335 928 547 Q928 760 827 872 Q747 961 607 961 Z " />
<glyph glyph-name="afii10067" unicode="&#x432;" horiz-adv-x="1107" d="M131 0 L131 1081 L635 1081 Q976 1081 976 816 Q976 658 838 584 Q920 556 963 509 Q1027 440 1027 317 Q1027 0 616 0 L131 0 Z M326 145 L607 145 Q828 145 828 320 Q828 434 753 476 Q710 501 623 501 L326 501 L326 145 Z M326 646 L598 646 Q777 646 777 796 Q777 876 727 910 Q688 936 609 936 L326 936 L326 646 Z " />
<glyph glyph-name="afii10068" unicode="&#x433;" horiz-adv-x="888" d="M131 1081 L882 1081 L882 936 L326 936 L326 0 L131 0 L131 1081 Z " />
<glyph glyph-name="afii10069" unicode="&#x434;" horiz-adv-x="1148" d="M935 0 L213 0 L213 -352 L18 -352 L18 122 Q171 193 230 329 Q279 442 279 732 L279 1081 L1064 1081 L1064 122 L1130 122 L1130 -352 L935 -352 L935 0 Z M869 145 L869 936 L474 936 L474 735 Q474 290 332 145 L869 145 Z " />
<glyph glyph-name="afii10070" unicode="&#x435;" horiz-adv-x="1151" d="M1079 496 L279 496 Q286 369 319 291 Q392 121 598 121 Q817 121 885 332 L1057 268 Q953 -37 589 -37 Q364 -37 231 98 Q80 251 80 538 Q80 797 205 951 Q341 1118 590 1118 Q856 1118 982 944 Q1036 871 1061 757 Q1079 673 1079 592 L1079 496 Z M281 641 L883 641 Q867 969 590 969 Q429 969 346 844 Q296 768 281 641 Z " />
<glyph glyph-name="afii10072" unicode="&#x436;" horiz-adv-x="1559" d="M682 1081 L877 1081 L877 659 L982 659 L1296 1081 L1509 1081 L1139 589 L1559 0 L1340 0 L991 514 L877 514 L877 0 L682 0 L682 514 L568 514 L219 0 L0 0 L420 589 L50 1081 L263 1081 L577 659 L682 659 L682 1081 Z " />
<glyph glyph-name="afii10073" unicode="&#x437;" horiz-adv-x="1036" d="M393 636 Q410 636 437 636 Q624 636 697 719 Q728 753 728 801 Q728 878 653 925 Q594 961 520 961 Q398 961 333 886 Q288 834 260 731 L72 780 Q157 1118 515 1118 Q750 1118 865 988 Q927 919 927 827 Q927 733 860 654 Q822 609 755 573 Q833 547 879 498 Q956 417 956 306 Q956 136 799 34 Q685 -40 516 -40 Q153 -40 50 321 L236 370 Q292 120 516 120 Q628 120 693 177 Q757 233 757 315 Q757 442 608 476 Q537 492 436 492 Q426 492 393 491 L393 636 Z " />
<glyph glyph-name="afii10074" unicode="&#x438;" horiz-adv-x="1114" d="M983 0 L788 0 L788 822 L344 0 L131 0 L131 1081 L326 1081 L326 261 L770 1081 L983 1081 L983 0 Z " />
<glyph glyph-name="afii10075" unicode="&#x439;" horiz-adv-x="1114" d="M983 0 L788 0 L788 822 L344 0 L131 0 L131 1081 L326 1081 L326 261 L770 1081 L983 1081 L983 0 Z M223 1528 L377 1528 Q422 1419 560 1419 Q703 1419 739 1528 L893 1528 Q849 1288 557 1288 Q408 1288 320 1356 Q239 1419 223 1528 Z " />
<glyph glyph-name="afii10076" unicode="&#x43a;" horiz-adv-x="1008" d="M131 1081 L326 1081 L326 659 L431 659 L745 1081 L958 1081 L588 589 L1008 0 L789 0 L440 514 L326 514 L326 0 L131 0 L131 1081 Z " />
<glyph glyph-name="afii10077" unicode="&#x43b;" horiz-adv-x="1208" d="M32 0 L32 151 Q119 156 174 204 Q253 274 277 416 Q293 511 293 640 L293 1081 L1078 1081 L1078 0 L883 0 L883 936 L488 936 L488 644 Q488 322 379 162 Q275 11 111 2 Q82 0 32 0 Z " />
<glyph glyph-name="afii10078" unicode="&#x43c;" horiz-adv-x="1360" d="M131 0 L131 1081 L399 1081 L678 212 L968 1081 L1229 1081 L1229 0 L1034 0 L1034 843 L751 0 L596 0 L326 839 L326 0 L131 0 Z " />
<glyph glyph-name="afii10079" unicode="&#x43d;" horiz-adv-x="1119" d="M131 0 L131 1081 L326 1081 L326 644 L793 644 L793 1081 L988 1081 L988 0 L793 0 L793 499 L326 499 L326 0 L131 0 Z " />
<glyph glyph-name="afii10080" unicode="&#x43e;" horiz-adv-x="1192" d="M596 1118 Q848 1118 986 952 Q1112 800 1112 541 Q1112 283 986 130 Q848 -37 600 -37 Q367 -37 231 101 Q80 256 80 541 Q80 800 205 952 Q343 1118 596 1118 Z M592 961 Q438 961 354 840 Q279 730 279 541 Q279 349 354 241 Q438 121 593 121 Q744 121 829 229 Q913 335 913 547 Q913 760 812 872 Q732 961 592 961 Z " />
<glyph glyph-name="afii10081" unicode="&#x43f;" horiz-adv-x="1112" d="M786 0 L786 936 L326 936 L326 0 L131 0 L131 1081 L981 1081 L981 0 L786 0 Z " />
<glyph glyph-name="afii10082" unicode="&#x440;" horiz-adv-x="1214" d="M131 -393 L131 1081 L317 1081 L322 920 Q446 1118 689 1118 Q838 1118 949 1034 Q1135 893 1135 554 Q1135 296 1024 141 Q897 -37 664 -37 Q450 -37 326 141 L326 -393 L131 -393 Z M630 961 Q478 961 394 832 Q319 717 319 532 Q319 353 392 243 Q473 121 621 121 Q739 121 816 190 Q932 293 932 546 Q932 961 630 961 Z " />
<glyph glyph-name="afii10083" unicode="&#x441;" horiz-adv-x="1094" d="M1032 780 L844 731 Q814 843 762 895 Q698 961 578 961 Q433 961 353 842 Q279 733 279 540 Q279 348 350 242 Q428 123 580 123 Q802 123 858 373 L1044 324 Q941 -37 582 -37 Q352 -37 222 100 Q80 249 80 538 Q80 795 202 948 Q336 1118 585 1118 Q947 1118 1032 780 Z " />
<glyph glyph-name="afii10084" unicode="&#x442;" horiz-adv-x="923" d="M365 0 L365 936 L6 936 L6 1081 L918 1081 L918 936 L560 936 L560 0 L365 0 Z " />
<glyph glyph-name="afii10085" unicode="&#x443;" horiz-adv-x="1063" d="M74 -395 L106 -238 Q172 -260 234 -260 Q305 -260 346 -226 Q384 -193 410 -127 L459 0 L0 1081 L209 1081 L553 233 L866 1081 L1063 1081 L586 -184 Q546 -290 494 -342 Q412 -424 270 -424 L259 -424 Q174 -424 74 -395 Z " />
<glyph glyph-name="afii10086" unicode="&#x444;" horiz-adv-x="1466" d="M830 962 L830 119 Q944 130 1019 178 Q1186 287 1186 540 Q1186 794 1019 903 Q944 952 830 962 Z M635 962 Q520 952 445 903 Q278 794 278 540 Q278 287 445 178 Q520 130 635 119 L635 962 Z M635 -393 L635 -37 Q458 -26 343 40 Q215 113 149 243 Q80 379 80 541 Q80 779 212 933 Q329 1070 527 1107 Q566 1114 635 1119 L635 1361 L830 1361 L830 1119 Q1007 1106 1122 1041 Q1250 969 1316 839 Q1385 703 1385 541 Q1385 303 1253 148 Q1135 10 938 -26 Q899 -33 830 -37 L830 -393 L635 -393 Z " />
<glyph glyph-name="afii10087" unicode="&#x445;" horiz-adv-x="969" d="M0 0 L379 555 L25 1081 L240 1081 L487 705 L739 1081 L940 1081 L588 565 L969 0 L752 0 L479 414 L203 0 L0 0 Z " />
<glyph glyph-name="afii10088" unicode="&#x446;" horiz-adv-x="1112" d="M786 145 L786 1081 L981 1081 L981 120 L1090 120 L1090 -352 L895 -352 L895 0 L131 0 L131 1081 L326 1081 L326 145 L786 145 Z " />
<glyph glyph-name="afii10089" unicode="&#x447;" horiz-adv-x="1032" d="M901 0 L706 0 L706 390 Q542 351 451 351 Q247 351 157 447 Q115 492 93 566 Q80 611 80 643 L80 1081 L275 1081 L275 650 Q275 525 477 525 Q567 525 706 555 L706 1081 L901 1081 L901 0 Z " />
<glyph glyph-name="afii10090" unicode="&#x448;" horiz-adv-x="1787" d="M1656 0 L131 0 L131 1081 L326 1081 L326 134 L787 134 L787 1081 L982 1081 L982 134 L1461 134 L1461 1081 L1656 1081 L1656 0 Z " />
<glyph glyph-name="afii10091" unicode="&#x449;" horiz-adv-x="1787" d="M1656 122 L1766 122 L1766 -352 L1571 -352 L1571 0 L131 0 L131 1081 L326 1081 L326 134 L787 134 L787 1081 L982 1081 L982 134 L1461 134 L1461 1081 L1656 1081 L1656 122 Z " />
<glyph glyph-name="afii10092" unicode="&#x44a;" horiz-adv-x="1328" d="M547 1081 L547 646 L819 646 Q968 646 1024 630 Q1117 604 1179 526 Q1248 440 1248 326 Q1248 220 1183 138 Q1114 51 1012 22 Q937 0 837 0 L352 0 L352 936 L6 936 L6 1081 L547 1081 Z M547 145 L828 145 Q1049 145 1049 324 Q1049 436 974 477 Q931 501 844 501 L547 501 L547 145 Z " />
<glyph glyph-name="afii10093" unicode="&#x44b;" horiz-adv-x="1458" d="M326 1081 L326 646 L598 646 Q747 646 803 630 Q896 604 958 526 Q1027 440 1027 326 Q1027 220 962 138 Q893 51 791 22 Q716 0 616 0 L131 0 L131 1081 L326 1081 Z M326 145 L607 145 Q828 145 828 324 Q828 436 753 477 Q710 501 623 501 L326 501 L326 145 Z M1132 0 L1132 1081 L1327 1081 L1327 0 L1132 0 Z " />
<glyph glyph-name="afii10094" unicode="&#x44c;" horiz-adv-x="1107" d="M326 1081 L326 646 L598 646 Q747 646 803 630 Q896 604 958 526 Q1027 440 1027 326 Q1027 220 962 138 Q893 51 791 22 Q716 0 616 0 L131 0 L131 1081 L326 1081 Z M326 145 L607 145 Q828 145 828 324 Q828 436 753 477 Q710 501 623 501 L326 501 L326 145 Z " />
<glyph glyph-name="afii10095" unicode="&#x44d;" horiz-adv-x="1107" d="M428 496 L428 641 L826 641 Q810 775 754 854 Q672 969 521 969 Q391 969 326 894 Q281 841 253 739 L65 788 Q99 921 173 1001 Q290 1126 492 1126 Q625 1126 743 1073 Q880 1012 954 871 Q1027 733 1027 538 Q1027 238 862 85 Q731 -37 518 -37 Q154 -37 50 268 L222 332 Q290 121 509 121 Q723 121 793 304 Q821 379 828 496 L428 496 Z " />
<glyph glyph-name="afii10096" unicode="&#x44e;" horiz-adv-x="1681" d="M575 641 Q595 810 672 921 Q808 1118 1085 1118 Q1337 1118 1475 952 Q1601 800 1601 541 Q1601 283 1475 130 Q1337 -37 1086 -37 Q832 -37 695 130 Q584 265 570 496 L326 496 L326 0 L131 0 L131 1081 L326 1081 L326 641 L575 641 Z M1081 961 Q927 961 843 840 Q768 730 768 541 Q768 349 843 241 Q927 121 1082 121 Q1233 121 1318 229 Q1402 335 1402 547 Q1402 760 1301 872 Q1221 961 1081 961 Z " />
<glyph glyph-name="afii10097" unicode="&#x44f;" horiz-adv-x="1064" d="M739 588 L739 936 L497 936 Q272 936 272 764 Q272 588 497 588 L739 588 Z M934 0 L739 0 L739 443 L470 443 L461 443 L452 443 Q444 443 436 445 L225 0 L32 0 L266 469 Q175 506 124 585 Q74 662 74 766 Q74 898 139 977 Q226 1081 416 1081 L934 1081 L934 0 Z " />
<glyph glyph-name="afii10071" unicode="&#x451;" horiz-adv-x="1151" d="M1079 496 L279 496 Q286 369 319 291 Q392 121 598 121 Q817 121 885 332 L1057 268 Q953 -37 589 -37 Q364 -37 231 98 Q80 251 80 538 Q80 797 205 951 Q341 1118 590 1118 Q856 1118 982 944 Q1036 871 1061 757 Q1079 673 1079 592 L1079 496 Z M281 641 L883 641 Q867 969 590 969 Q429 969 346 844 Q296 768 281 641 Z M298 1295 L298 1524 L481 1524 L481 1295 L298 1295 Z M694 1295 L694 1524 L876 1524 L876 1295 L694 1295 Z " />
<glyph glyph-name="afii10099" unicode="&#x452;" horiz-adv-x="1192" d="M336 0 L141 0 L141 1246 L-32 1246 L-32 1392 L141 1392 L141 1544 L336 1544 L336 1394 L510 1394 L510 1248 L336 1248 L336 918 Q459 1118 701 1118 Q878 1118 976 1009 Q1061 913 1061 750 L1061 -66 Q1061 -170 1010 -246 Q955 -328 871 -369 Q818 -395 759 -395 L467 -395 L467 -221 L757 -221 Q807 -221 837 -181 Q866 -141 866 -81 L866 698 Q866 958 639 958 Q493 958 410 830 Q336 715 336 545 L336 0 Z " />
<glyph glyph-name="afii10100" unicode="&#x453;" horiz-adv-x="888" d="M131 1081 L882 1081 L882 936 L326 936 L326 0 L131 0 L131 1081 Z M306 1272 L495 1544 L716 1544 L482 1272 L306 1272 Z " />
<glyph glyph-name="afii10101" unicode="&#x454;" horiz-adv-x="1107" d="M679 496 L279 496 Q286 369 319 291 Q391 121 598 121 Q817 121 885 332 L1057 268 Q952 -37 589 -37 Q364 -37 231 98 Q80 251 80 538 Q80 797 205 951 Q271 1032 363 1073 Q481 1126 615 1126 Q833 1126 951 981 Q1012 906 1042 788 L854 739 Q823 851 772 903 Q707 969 586 969 Q428 969 346 844 Q296 768 281 641 L679 641 L679 496 Z " />
<glyph glyph-name="afii10102" unicode="&#x455;" horiz-adv-x="1053" d="M45 287 L227 336 Q249 237 299 187 Q372 113 517 113 Q638 113 704 158 Q768 202 768 284 Q768 356 724 393 Q677 434 588 451 L412 485 Q84 548 84 800 Q84 955 213 1042 Q326 1118 515 1118 Q864 1118 958 836 L784 780 Q749 881 679 929 Q617 971 502 971 Q380 971 318 916 Q276 878 276 808 Q276 743 319 705 Q362 668 465 647 L680 604 Q969 546 969 289 Q969 144 858 57 Q738 -37 524 -37 Q309 -37 187 57 Q86 134 45 287 Z " />
<glyph glyph-name="afii10103" unicode="&#x456;" horiz-adv-x="477" d="M141 0 L141 1081 L336 1081 L336 0 L141 0 Z M141 1315 L141 1544 L336 1544 L336 1315 L141 1315 Z " />
<glyph glyph-name="afii10104" unicode="&#x457;" horiz-adv-x="477" d="M141 0 L141 1081 L336 1081 L336 0 L141 0 Z M-51 1295 L-51 1524 L132 1524 L132 1295 L-51 1295 Z M345 1295 L345 1524 L527 1524 L527 1295 L345 1295 Z " />
<glyph glyph-name="afii10105" unicode="&#x458;" horiz-adv-x="489" d="M-121 -401 L-100 -242 Q-44 -256 18 -256 Q96 -256 126 -218 Q154 -183 154 -111 L154 1081 L348 1081 L348 -150 Q348 -424 84 -424 L68 -424 Q-33 -424 -121 -401 Z M154 1317 L154 1544 L348 1544 L348 1317 L154 1317 Z " />
<glyph glyph-name="afii10106" unicode="&#x459;" horiz-adv-x="1859" d="M293 1081 L1078 1081 L1078 646 L1350 646 Q1499 646 1555 630 Q1648 604 1710 526 Q1779 440 1779 326 Q1779 161 1637 65 Q1541 0 1368 0 L883 0 L883 936 L488 936 L488 546 Q488 291 368 147 Q255 11 114 2 Q86 0 32 0 L32 151 Q186 196 244 284 Q293 358 293 542 L293 1081 Z M1078 145 L1359 145 Q1580 145 1580 324 Q1580 436 1505 477 Q1461 501 1375 501 L1078 501 L1078 145 Z " />
<glyph glyph-name="afii10107" unicode="&#x45a;" horiz-adv-x="1769" d="M793 646 L793 1081 L988 1081 L988 646 L1261 646 Q1410 646 1465 630 Q1559 604 1621 526 Q1690 440 1690 326 Q1690 220 1625 138 Q1556 51 1454 22 Q1378 0 1278 0 L793 0 L793 501 L326 501 L326 0 L131 0 L131 1081 L326 1081 L326 646 L793 646 Z M989 145 L1270 145 Q1492 145 1492 324 Q1492 436 1417 477 Q1373 501 1286 501 L989 501 L989 145 Z " />
<glyph glyph-name="afii10108" unicode="&#x45b;" horiz-adv-x="1192" d="M866 0 L866 698 Q866 958 639 958 Q493 958 410 830 Q336 715 336 545 L336 0 L141 0 L141 1246 L-32 1246 L-32 1392 L141 1392 L141 1544 L336 1544 L336 1394 L510 1394 L510 1248 L336 1248 L336 918 Q461 1118 701 1118 Q878 1118 976 1009 Q1061 913 1061 750 L1061 0 L866 0 Z " />
<glyph glyph-name="afii10109" unicode="&#x45c;" horiz-adv-x="1008" d="M131 1081 L326 1081 L326 659 L431 659 L745 1081 L958 1081 L588 589 L1008 0 L789 0 L440 514 L326 514 L326 0 L131 0 L131 1081 Z M340 1272 L529 1544 L750 1544 L516 1272 L340 1272 Z " />
<glyph glyph-name="afii10110" unicode="&#x45e;" horiz-adv-x="1063" d="M74 -395 L106 -238 Q172 -260 234 -260 Q305 -260 346 -226 Q384 -193 410 -127 L459 0 L0 1081 L209 1081 L553 233 L866 1081 L1063 1081 L586 -184 Q546 -290 494 -342 Q412 -424 270 -424 L259 -424 Q174 -424 74 -395 Z M204 1528 L358 1528 Q403 1419 541 1419 Q684 1419 720 1528 L874 1528 Q830 1288 538 1288 Q389 1288 301 1356 Q220 1419 204 1528 Z " />
<glyph glyph-name="afii10193" unicode="&#x45f;" horiz-adv-x="1112" d="M458 0 L131 0 L131 1081 L326 1081 L326 145 L786 145 L786 1081 L981 1081 L981 0 L653 0 L653 -352 L458 -352 L458 0 Z " />
<glyph glyph-name="afii10050" unicode="&#x490;" horiz-adv-x="1337" d="M1173 1544 L1225 1544 L1225 1360 L360 1360 L360 0 L152 0 L152 1544 L997 1544 L1186 1816 L1407 1816 L1173 1544 Z " />
<glyph glyph-name="afii10098" unicode="&#x491;" horiz-adv-x="958" d="M842 1081 L882 1081 L882 936 L326 936 L326 0 L131 0 L131 1081 L666 1081 L854 1351 L1075 1351 L842 1081 Z " />
<glyph glyph-name="uni0492" unicode="&#x492;" horiz-adv-x="1337" d="M360 879 L936 879 L936 694 L360 694 L360 0 L152 0 L152 694 L48 694 L48 879 L152 879 L152 1544 L1225 1544 L1225 1360 L360 1360 L360 879 Z " />
<glyph glyph-name="uni0493" unicode="&#x493;" horiz-adv-x="888" d="M131 496 L56 496 L56 641 L131 641 L131 1081 L882 1081 L882 936 L326 936 L326 641 L660 641 L660 496 L326 496 L326 0 L131 0 L131 496 Z " />
<glyph glyph-name="uni0496" unicode="&#x496;" horiz-adv-x="2172" d="M2046 174 L2209 174 L2209 -352 L2001 -352 L2001 0 L1938 0 L1441 731 L1188 731 L1188 0 L980 0 L980 731 L735 731 L241 0 L8 0 L563 814 L106 1544 L338 1544 L736 905 L980 905 L980 1544 L1188 1544 L1188 905 L1434 905 L1831 1544 L2061 1544 L1608 814 L2046 174 Z " />
<glyph glyph-name="uni0497" unicode="&#x497;" horiz-adv-x="1645" d="M1450 0 L1341 0 L991 514 L877 514 L877 0 L682 0 L682 514 L568 514 L219 0 L0 0 L420 589 L50 1081 L263 1081 L577 659 L682 659 L682 1081 L877 1081 L877 659 L982 659 L1296 1081 L1510 1081 L1139 589 L1482 122 L1645 122 L1645 -352 L1450 -352 L1450 0 Z " />
<glyph glyph-name="uni049A" unicode="&#x49a;" horiz-adv-x="1344" d="M1218 174 L1381 174 L1381 -352 L1173 -352 L1173 0 L1110 0 L613 731 L360 731 L360 0 L152 0 L152 1544 L360 1544 L360 905 L606 905 L1003 1544 L1233 1544 L780 814 L1218 174 Z " />
<glyph glyph-name="uni049B" unicode="&#x49b;" horiz-adv-x="1094" d="M899 0 L789 0 L440 514 L326 514 L326 0 L131 0 L131 1081 L326 1081 L326 659 L431 659 L745 1081 L958 1081 L588 589 L930 122 L1094 122 L1094 -352 L899 -352 L899 0 Z " />
<glyph glyph-name="uni049C" unicode="&#x49c;" horiz-adv-x="1343" d="M468 905 L468 1294 L595 1294 L595 905 L606 905 L1003 1544 L1232 1544 L780 814 L1336 0 L1109 0 L612 731 L595 731 L595 343 L468 343 L468 731 L360 731 L360 0 L152 0 L152 1544 L360 1544 L360 905 L468 905 Z " />
<glyph glyph-name="uni049D" unicode="&#x49d;" horiz-adv-x="1066" d="M381 514 L326 514 L326 0 L131 0 L131 1081 L326 1081 L326 659 L381 659 L381 979 L495 979 L495 667 L802 1081 L1015 1081 L645 589 L1065 0 L846 0 L497 514 L495 514 L495 280 L381 280 L381 514 Z " />
<glyph glyph-name="uni04A2" unicode="&#x4a2;" horiz-adv-x="1528" d="M1280 0 L1167 0 L1167 723 L360 723 L360 0 L152 0 L152 1544 L360 1544 L360 911 L1167 911 L1167 1544 L1376 1544 L1376 174 L1488 174 L1488 -352 L1280 -352 L1280 0 Z " />
<glyph glyph-name="uni04A3" unicode="&#x4a3;" horiz-adv-x="1119" d="M902 0 L793 0 L793 499 L326 499 L326 0 L131 0 L131 1081 L326 1081 L326 644 L793 644 L793 1081 L988 1081 L988 122 L1097 122 L1097 -352 L902 -352 L902 0 Z " />
<glyph glyph-name="uni04AE" unicode="&#x4ae;" horiz-adv-x="1292" d="M541 0 L541 602 L0 1544 L225 1544 L655 786 L1077 1544 L1292 1544 L752 602 L752 0 L541 0 Z " />
<glyph glyph-name="uni04AF" unicode="&#x4af;" horiz-adv-x="1063" d="M655 0 L655 -393 L459 -393 L459 0 L0 1081 L209 1081 L553 233 L866 1081 L1063 1081 L655 0 Z " />
<glyph glyph-name="uni04B0" unicode="&#x4b0;" horiz-adv-x="1292" d="M752 301 L752 0 L541 0 L541 301 L261 301 L261 485 L541 485 L541 602 L0 1544 L225 1544 L655 786 L1077 1544 L1292 1544 L752 602 L752 485 L1032 485 L1032 301 L752 301 Z " />
<glyph glyph-name="uni04B1" unicode="&#x4b1;" horiz-adv-x="1063" d="M459 -6 L459 0 L0 1081 L209 1081 L553 233 L866 1081 L1063 1081 L655 0 L655 -6 L835 -6 L835 -152 L655 -152 L655 -393 L459 -393 L459 -152 L279 -152 L279 -6 L459 -6 Z " />
<glyph glyph-name="uni04B2" unicode="&#x4b2;" horiz-adv-x="1377" d="M1163 0 L1063 0 L645 639 L223 0 L0 0 L537 795 L39 1544 L272 1544 L653 963 L1040 1544 L1257 1544 L764 807 L1185 174 L1371 174 L1371 -352 L1163 -352 L1163 0 Z " />
<glyph glyph-name="uni04B3" unicode="&#x4b3;" horiz-adv-x="1050" d="M855 0 L752 0 L479 414 L203 0 L0 0 L379 555 L25 1081 L240 1081 L487 705 L739 1081 L940 1081 L588 565 L887 122 L1050 122 L1050 -352 L855 -352 L855 0 Z " />
<glyph glyph-name="uni04B8" unicode="&#x4b8;" horiz-adv-x="1421" d="M753 532 L753 238 L626 238 L626 527 Q416 531 282 607 Q96 712 96 919 L96 1544 L304 1544 L304 929 Q304 785 457 732 Q522 709 626 703 L626 1180 L753 1180 L753 704 Q894 715 1061 768 L1061 1544 L1269 1544 L1269 0 L1061 0 L1061 581 Q909 544 753 532 Z " />
<glyph glyph-name="uni04B9" unicode="&#x4b9;" horiz-adv-x="1032" d="M549 358 L549 145 L435 145 L435 351 Q303 356 219 399 Q135 443 99 546 Q80 602 80 643 L80 1081 L275 1081 L275 650 Q275 538 435 526 L435 759 L549 759 L549 528 Q602 532 706 554 L706 1081 L901 1081 L901 0 L706 0 L706 390 Q609 366 549 358 Z " />
<glyph glyph-name="uni04BA" unicode="&#x4ba;" horiz-adv-x="1421" d="M304 1544 L304 963 Q528 1016 726 1016 Q1014 1016 1161 880 Q1269 781 1269 625 L1269 0 L1061 0 L1061 615 Q1061 842 686 842 Q516 842 304 776 L304 0 L96 0 L96 1544 L304 1544 Z " />
<glyph glyph-name="uni04BB" unicode="&#x4bb;" horiz-adv-x="1181" d="M856 0 L856 698 Q856 958 628 958 Q483 958 400 830 Q326 715 326 545 L326 0 L131 0 L131 1544 L326 1544 L326 918 Q449 1118 690 1118 Q868 1118 966 1009 Q1051 913 1051 750 L1051 0 L856 0 Z " />
<glyph glyph-name="uni04C0" unicode="&#x4c0;" horiz-adv-x="510" d="M152 0 L152 1544 L360 1544 L360 0 L152 0 Z " />
<glyph glyph-name="uni04D8" unicode="&#x4d8;" horiz-adv-x="1636" d="M354 1070 L145 1121 Q195 1304 307 1414 Q396 1501 535 1545 Q661 1585 798 1585 Q1027 1585 1195 1490 Q1366 1393 1454 1203 Q1540 1020 1540 772 Q1540 392 1347 177 Q1154 -37 818 -37 Q516 -37 328 137 Q216 242 157 401 Q96 563 96 752 Q96 788 101 864 L317 864 L1319 864 Q1304 1054 1218 1192 Q1081 1407 817 1407 Q588 1407 464 1275 Q409 1217 381 1146 Q368 1114 354 1070 Z M317 679 Q332 489 417 353 Q553 137 815 137 Q1058 137 1195 319 Q1297 456 1319 679 L317 679 Z " />
<glyph glyph-name="afii10846" unicode="&#x4d9;" horiz-adv-x="1159" d="M80 585 L880 585 Q873 712 840 790 Q768 960 561 960 Q341 960 274 749 L102 813 Q206 1118 570 1118 Q795 1118 928 983 Q1079 830 1079 543 Q1079 284 954 130 Q818 -37 569 -37 Q303 -37 177 137 Q123 210 98 324 Q80 408 80 489 L80 585 Z M878 440 L276 440 Q292 112 569 112 Q731 112 813 237 Q863 313 878 440 Z " />
<glyph glyph-name="uni04E8" unicode="&#x4e8;" horiz-adv-x="1636" d="M817 1581 Q1155 1581 1347 1368 Q1540 1153 1540 772 Q1540 392 1347 177 Q1154 -37 822 -37 Q516 -37 328 137 Q96 353 96 773 Q96 1153 289 1368 Q481 1581 817 1581 Z M317 679 Q332 489 417 353 Q553 137 815 137 Q1058 137 1195 319 Q1297 456 1319 679 L317 679 Z M1319 864 Q1304 1054 1218 1192 Q1081 1407 817 1407 Q542 1407 407 1174 Q336 1051 317 864 L1319 864 Z " />
<glyph glyph-name="uni04E9" unicode="&#x4e9;" horiz-adv-x="1192" d="M596 1118 Q848 1118 986 952 Q1112 800 1112 541 Q1112 283 986 130 Q848 -37 600 -37 Q366 -37 231 101 Q80 256 80 541 Q80 800 205 952 Q343 1118 596 1118 Z M910 614 Q899 748 840 837 Q758 961 592 961 Q416 961 334 806 Q294 729 282 614 L910 614 Z M282 469 Q295 342 340 263 Q422 121 596 121 Q768 121 851 261 Q896 337 909 469 L282 469 Z " />
<glyph glyph-name="uni060C" unicode="&#x60c;" horiz-adv-x="485" d="" />
<glyph glyph-name="uni061B" unicode="&#x61b;" horiz-adv-x="485" d="" />
<glyph glyph-name="uni061F" unicode="&#x61f;" horiz-adv-x="485" d="" />
<glyph glyph-name="uni0621" unicode="&#x621;" horiz-adv-x="485" d="" />
<glyph glyph-name="uni0622" unicode="&#x622;" horiz-adv-x="485" d="" />
<glyph glyph-name="uni0623" unicode="&#x623;" horiz-adv-x="485" d="" />
<glyph glyph-name="uni0624" unicode="&#x624;" horiz-adv-x="485" d="" />
<glyph glyph-name="uni0625" unicode="&#x625;" horiz-adv-x="485" d="" />
<glyph glyph-name="uni0626" unicode="&#x626;" horiz-adv-x="485" d="" />
<glyph glyph-name="uni0627" unicode="&#x627;" horiz-adv-x="485" d="" />
<glyph glyph-name="uni0628" unicode="&#x628;" horiz-adv-x="485" d="" />
<glyph glyph-name="uni0629" unicode="&#x629;" horiz-adv-x="485" d="" />
<glyph glyph-name="uni062A" unicode="&#x62a;" horiz-adv-x="485" d="" />
<glyph glyph-name="uni062B" unicode="&#x62b;" horiz-adv-x="485" d="" />
<glyph glyph-name="uni062C" unicode="&#x62c;" horiz-adv-x="485" d="" />
<glyph glyph-name="uni062D" unicode="&#x62d;" horiz-adv-x="485" d="" />
<glyph glyph-name="uni062E" unicode="&#x62e;" horiz-adv-x="485" d="" />
<glyph glyph-name="uni062F" unicode="&#x62f;" horiz-adv-x="485" d="" />
<glyph glyph-name="uni0630" unicode="&#x630;" horiz-adv-x="485" d="" />
<glyph glyph-name="uni0631" unicode="&#x631;" horiz-adv-x="485" d="" />
<glyph glyph-name="uni0632" unicode="&#x632;" horiz-adv-x="485" d="" />
<glyph glyph-name="uni0633" unicode="&#x633;" horiz-adv-x="485" d="" />
<glyph glyph-name="uni0634" unicode="&#x634;" horiz-adv-x="485" d="" />
<glyph glyph-name="uni0635" unicode="&#x635;" horiz-adv-x="485" d="" />
<glyph glyph-name="uni0636" unicode="&#x636;" horiz-adv-x="485" d="" />
<glyph glyph-name="uni0637" unicode="&#x637;" horiz-adv-x="485" d="" />
<glyph glyph-name="uni0638" unicode="&#x638;" horiz-adv-x="485" d="" />
<glyph glyph-name="uni0639" unicode="&#x639;" horiz-adv-x="485" d="" />
<glyph glyph-name="uni063A" unicode="&#x63a;" horiz-adv-x="485" d="" />
<glyph glyph-name="uni0640" unicode="&#x640;" horiz-adv-x="485" d="" />
<glyph glyph-name="uni0641" unicode="&#x641;" horiz-adv-x="485" d="" />
<glyph glyph-name="uni0642" unicode="&#x642;" horiz-adv-x="485" d="" />
<glyph glyph-name="uni0643" unicode="&#x643;" horiz-adv-x="485" d="" />
<glyph glyph-name="uni0644" unicode="&#x644;" horiz-adv-x="485" d="" />
<glyph glyph-name="uni0645" unicode="&#x645;" horiz-adv-x="485" d="" />
<glyph glyph-name="uni0646" unicode="&#x646;" horiz-adv-x="485" d="" />
<glyph glyph-name="uni0647" unicode="&#x647;" horiz-adv-x="485" d="" />
<glyph glyph-name="uni0648" unicode="&#x648;" horiz-adv-x="485" d="" />
<glyph glyph-name="uni0649" unicode="&#x649;" horiz-adv-x="485" d="" />
<glyph glyph-name="uni064A" unicode="&#x64a;" horiz-adv-x="485" d="" />
<glyph glyph-name="uni064B" unicode="&#x64b;" horiz-adv-x="485" d="" />
<glyph glyph-name="uni064C" unicode="&#x64c;" horiz-adv-x="485" d="" />
<glyph glyph-name="uni064D" unicode="&#x64d;" horiz-adv-x="485" d="" />
<glyph glyph-name="uni064E" unicode="&#x64e;" horiz-adv-x="485" d="" />
<glyph glyph-name="uni064F" unicode="&#x64f;" horiz-adv-x="485" d="" />
<glyph glyph-name="uni0650" unicode="&#x650;" horiz-adv-x="485" d="" />
<glyph glyph-name="uni0651" unicode="&#x651;" horiz-adv-x="485" d="" />
<glyph glyph-name="uni0652" unicode="&#x652;" horiz-adv-x="485" d="" />
<glyph glyph-name="uni0653" unicode="&#x653;" horiz-adv-x="485" d="" />
<glyph glyph-name="uni0654" unicode="&#x654;" horiz-adv-x="485" d="" />
<glyph glyph-name="uni0655" unicode="&#x655;" horiz-adv-x="485" d="" />
<glyph glyph-name="uni0660" unicode="&#x660;" horiz-adv-x="485" d="" />
<glyph glyph-name="uni0661" unicode="&#x661;" horiz-adv-x="485" d="" />
<glyph glyph-name="uni0662" unicode="&#x662;" horiz-adv-x="485" d="" />
<glyph glyph-name="uni0663" unicode="&#x663;" horiz-adv-x="485" d="" />
<glyph glyph-name="uni0664" unicode="&#x664;" horiz-adv-x="485" d="" />
<glyph glyph-name="uni0665" unicode="&#x665;" horiz-adv-x="485" d="" />
<glyph glyph-name="uni0666" unicode="&#x666;" horiz-adv-x="485" d="" />
<glyph glyph-name="uni0667" unicode="&#x667;" horiz-adv-x="485" d="" />
<glyph glyph-name="uni0668" unicode="&#x668;" horiz-adv-x="485" d="" />
<glyph glyph-name="uni0669" unicode="&#x669;" horiz-adv-x="485" d="" />
<glyph glyph-name="uni066A" unicode="&#x66a;" horiz-adv-x="485" d="" />
<glyph glyph-name="uni066B" unicode="&#x66b;" horiz-adv-x="485" d="" />
<glyph glyph-name="uni066C" unicode="&#x66c;" horiz-adv-x="485" d="" />
<glyph glyph-name="uni066D" unicode="&#x66d;" horiz-adv-x="485" d="" />
<glyph glyph-name="uni0670" unicode="&#x670;" horiz-adv-x="485" d="" />
<glyph glyph-name="uni0671" unicode="&#x671;" horiz-adv-x="485" d="" />
<glyph glyph-name="uni0672" unicode="&#x672;" horiz-adv-x="485" d="" />
<glyph glyph-name="uni0673" unicode="&#x673;" horiz-adv-x="485" d="" />
<glyph glyph-name="uni0674" unicode="&#x674;" horiz-adv-x="485" d="" />
<glyph glyph-name="uni0675" unicode="&#x675;" horiz-adv-x="485" d="" />
<glyph glyph-name="uni0676" unicode="&#x676;" horiz-adv-x="485" d="" />
<glyph glyph-name="uni0677" unicode="&#x677;" horiz-adv-x="485" d="" />
<glyph glyph-name="uni0678" unicode="&#x678;" horiz-adv-x="485" d="" />
<glyph glyph-name="uni0679" unicode="&#x679;" horiz-adv-x="485" d="" />
<glyph glyph-name="uni067A" unicode="&#x67a;" horiz-adv-x="485" d="" />
<glyph glyph-name="uni067B" unicode="&#x67b;" horiz-adv-x="485" d="" />
<glyph glyph-name="uni067C" unicode="&#x67c;" horiz-adv-x="485" d="" />
<glyph glyph-name="uni067D" unicode="&#x67d;" horiz-adv-x="485" d="" />
<glyph glyph-name="uni067E" unicode="&#x67e;" horiz-adv-x="485" d="" />
<glyph glyph-name="uni067F" unicode="&#x67f;" horiz-adv-x="485" d="" />
<glyph glyph-name="uni0680" unicode="&#x680;" horiz-adv-x="485" d="" />
<glyph glyph-name="uni0681" unicode="&#x681;" horiz-adv-x="485" d="" />
<glyph glyph-name="uni0682" unicode="&#x682;" horiz-adv-x="485" d="" />
<glyph glyph-name="uni0683" unicode="&#x683;" horiz-adv-x="485" d="" />
<glyph glyph-name="uni0684" unicode="&#x684;" horiz-adv-x="485" d="" />
<glyph glyph-name="uni0685" unicode="&#x685;" horiz-adv-x="485" d="" />
<glyph glyph-name="uni0686" unicode="&#x686;" horiz-adv-x="485" d="" />
<glyph glyph-name="uni0687" unicode="&#x687;" horiz-adv-x="485" d="" />
<glyph glyph-name="uni0688" unicode="&#x688;" horiz-adv-x="485" d="" />
<glyph glyph-name="uni0689" unicode="&#x689;" horiz-adv-x="485" d="" />
<glyph glyph-name="uni068A" unicode="&#x68a;" horiz-adv-x="485" d="" />
<glyph glyph-name="uni068B" unicode="&#x68b;" horiz-adv-x="485" d="" />
<glyph glyph-name="uni068C" unicode="&#x68c;" horiz-adv-x="485" d="" />
<glyph glyph-name="uni068D" unicode="&#x68d;" horiz-adv-x="485" d="" />
<glyph glyph-name="uni068E" unicode="&#x68e;" horiz-adv-x="485" d="" />
<glyph glyph-name="uni068F" unicode="&#x68f;" horiz-adv-x="485" d="" />
<glyph glyph-name="uni0690" unicode="&#x690;" horiz-adv-x="485" d="" />
<glyph glyph-name="uni0691" unicode="&#x691;" horiz-adv-x="485" d="" />
<glyph glyph-name="uni0692" unicode="&#x692;" horiz-adv-x="485" d="" />
<glyph glyph-name="uni0693" unicode="&#x693;" horiz-adv-x="485" d="" />
<glyph glyph-name="uni0694" unicode="&#x694;" horiz-adv-x="485" d="" />
<glyph glyph-name="uni0695" unicode="&#x695;" horiz-adv-x="485" d="" />
<glyph glyph-name="uni0696" unicode="&#x696;" horiz-adv-x="485" d="" />
<glyph glyph-name="uni0697" unicode="&#x697;" horiz-adv-x="485" d="" />
<glyph glyph-name="uni0698" unicode="&#x698;" horiz-adv-x="485" d="" />
<glyph glyph-name="uni0699" unicode="&#x699;" horiz-adv-x="485" d="" />
<glyph glyph-name="uni069A" unicode="&#x69a;" horiz-adv-x="485" d="" />
<glyph glyph-name="uni069B" unicode="&#x69b;" horiz-adv-x="485" d="" />
<glyph glyph-name="uni069C" unicode="&#x69c;" horiz-adv-x="485" d="" />
<glyph glyph-name="uni069D" unicode="&#x69d;" horiz-adv-x="485" d="" />
<glyph glyph-name="uni069E" unicode="&#x69e;" horiz-adv-x="485" d="" />
<glyph glyph-name="uni069F" unicode="&#x69f;" horiz-adv-x="485" d="" />
<glyph glyph-name="uni06A0" unicode="&#x6a0;" horiz-adv-x="485" d="" />
<glyph glyph-name="uni06A1" unicode="&#x6a1;" horiz-adv-x="485" d="" />
<glyph glyph-name="uni06A2" unicode="&#x6a2;" horiz-adv-x="485" d="" />
<glyph glyph-name="uni06A3" unicode="&#x6a3;" horiz-adv-x="485" d="" />
<glyph glyph-name="uni06A4" unicode="&#x6a4;" horiz-adv-x="485" d="" />
<glyph glyph-name="uni06A5" unicode="&#x6a5;" horiz-adv-x="485" d="" />
<glyph glyph-name="uni06A6" unicode="&#x6a6;" horiz-adv-x="485" d="" />
<glyph glyph-name="uni06A7" unicode="&#x6a7;" horiz-adv-x="485" d="" />
<glyph glyph-name="uni06A8" unicode="&#x6a8;" horiz-adv-x="485" d="" />
<glyph glyph-name="uni06A9" unicode="&#x6a9;" horiz-adv-x="485" d="" />
<glyph glyph-name="uni06AA" unicode="&#x6aa;" horiz-adv-x="485" d="" />
<glyph glyph-name="uni06AB" unicode="&#x6ab;" horiz-adv-x="485" d="" />
<glyph glyph-name="uni06AC" unicode="&#x6ac;" horiz-adv-x="485" d="" />
<glyph glyph-name="uni06AD" unicode="&#x6ad;" horiz-adv-x="485" d="" />
<glyph glyph-name="uni06AE" unicode="&#x6ae;" horiz-adv-x="485" d="" />
<glyph glyph-name="uni06AF" unicode="&#x6af;" horiz-adv-x="485" d="" />
<glyph glyph-name="uni06B0" unicode="&#x6b0;" horiz-adv-x="485" d="" />
<glyph glyph-name="uni06B1" unicode="&#x6b1;" horiz-adv-x="485" d="" />
<glyph glyph-name="uni06B2" unicode="&#x6b2;" horiz-adv-x="485" d="" />
<glyph glyph-name="uni06B3" unicode="&#x6b3;" horiz-adv-x="485" d="" />
<glyph glyph-name="uni06B4" unicode="&#x6b4;" horiz-adv-x="485" d="" />
<glyph glyph-name="uni06B5" unicode="&#x6b5;" horiz-adv-x="485" d="" />
<glyph glyph-name="uni06B6" unicode="&#x6b6;" horiz-adv-x="485" d="" />
<glyph glyph-name="uni06B7" unicode="&#x6b7;" horiz-adv-x="485" d="" />
<glyph glyph-name="uni06B8" unicode="&#x6b8;" horiz-adv-x="485" d="" />
<glyph glyph-name="uni06B9" unicode="&#x6b9;" horiz-adv-x="485" d="" />
<glyph glyph-name="uni06BA" unicode="&#x6ba;" horiz-adv-x="485" d="" />
<glyph glyph-name="uni06BB" unicode="&#x6bb;" horiz-adv-x="485" d="" />
<glyph glyph-name="uni06BC" unicode="&#x6bc;" horiz-adv-x="485" d="" />
<glyph glyph-name="uni06BD" unicode="&#x6bd;" horiz-adv-x="485" d="" />
<glyph glyph-name="uni06BE" unicode="&#x6be;" horiz-adv-x="485" d="" />
<glyph glyph-name="uni06BF" unicode="&#x6bf;" horiz-adv-x="485" d="" />
<glyph glyph-name="uni06C0" unicode="&#x6c0;" horiz-adv-x="485" d="" />
<glyph glyph-name="uni06C1" unicode="&#x6c1;" horiz-adv-x="485" d="" />
<glyph glyph-name="uni06C2" unicode="&#x6c2;" horiz-adv-x="485" d="" />
<glyph glyph-name="uni06C3" unicode="&#x6c3;" horiz-adv-x="485" d="" />
<glyph glyph-name="uni06C4" unicode="&#x6c4;" horiz-adv-x="485" d="" />
<glyph glyph-name="uni06C5" unicode="&#x6c5;" horiz-adv-x="485" d="" />
<glyph glyph-name="uni06C6" unicode="&#x6c6;" horiz-adv-x="485" d="" />
<glyph glyph-name="uni06C7" unicode="&#x6c7;" horiz-adv-x="485" d="" />
<glyph glyph-name="uni06C8" unicode="&#x6c8;" horiz-adv-x="485" d="" />
<glyph glyph-name="uni06C9" unicode="&#x6c9;" horiz-adv-x="485" d="" />
<glyph glyph-name="uni06CA" unicode="&#x6ca;" horiz-adv-x="485" d="" />
<glyph glyph-name="uni06CB" unicode="&#x6cb;" horiz-adv-x="485" d="" />
<glyph glyph-name="uni06CC" unicode="&#x6cc;" horiz-adv-x="485" d="" />
<glyph glyph-name="uni06CD" unicode="&#x6cd;" horiz-adv-x="485" d="" />
<glyph glyph-name="uni06CE" unicode="&#x6ce;" horiz-adv-x="485" d="" />
<glyph glyph-name="uni06CF" unicode="&#x6cf;" horiz-adv-x="485" d="" />
<glyph glyph-name="uni06D0" unicode="&#x6d0;" horiz-adv-x="485" d="" />
<glyph glyph-name="uni06D1" unicode="&#x6d1;" horiz-adv-x="485" d="" />
<glyph glyph-name="uni06D2" unicode="&#x6d2;" horiz-adv-x="485" d="" />
<glyph glyph-name="uni06D3" unicode="&#x6d3;" horiz-adv-x="485" d="" />
<glyph glyph-name="uni06D4" unicode="&#x6d4;" horiz-adv-x="485" d="" />
<glyph glyph-name="uni06D5" unicode="&#x6d5;" horiz-adv-x="485" d="" />
<glyph glyph-name="uni06D6" unicode="&#x6d6;" horiz-adv-x="485" d="" />
<glyph glyph-name="uni06D7" unicode="&#x6d7;" horiz-adv-x="485" d="" />
<glyph glyph-name="uni06D8" unicode="&#x6d8;" horiz-adv-x="485" d="" />
<glyph glyph-name="uni06D9" unicode="&#x6d9;" horiz-adv-x="485" d="" />
<glyph glyph-name="uni06DA" unicode="&#x6da;" horiz-adv-x="485" d="" />
<glyph glyph-name="uni06DB" unicode="&#x6db;" horiz-adv-x="485" d="" />
<glyph glyph-name="uni06DC" unicode="&#x6dc;" horiz-adv-x="485" d="" />
<glyph glyph-name="uni06DD" unicode="&#x6dd;" horiz-adv-x="485" d="" />
<glyph glyph-name="uni06DE" unicode="&#x6de;" horiz-adv-x="485" d="" />
<glyph glyph-name="uni06DF" unicode="&#x6df;" horiz-adv-x="485" d="" />
<glyph glyph-name="uni06E0" unicode="&#x6e0;" horiz-adv-x="485" d="" />
<glyph glyph-name="uni06E1" unicode="&#x6e1;" horiz-adv-x="485" d="" />
<glyph glyph-name="uni06E2" unicode="&#x6e2;" horiz-adv-x="485" d="" />
<glyph glyph-name="uni06E3" unicode="&#x6e3;" horiz-adv-x="485" d="" />
<glyph glyph-name="uni06E4" unicode="&#x6e4;" horiz-adv-x="485" d="" />
<glyph glyph-name="uni06E5" unicode="&#x6e5;" horiz-adv-x="485" d="" />
<glyph glyph-name="uni06E6" unicode="&#x6e6;" horiz-adv-x="485" d="" />
<glyph glyph-name="uni06E7" unicode="&#x6e7;" horiz-adv-x="485" d="" />
<glyph glyph-name="uni06E8" unicode="&#x6e8;" horiz-adv-x="485" d="" />
<glyph glyph-name="uni06E9" unicode="&#x6e9;" horiz-adv-x="485" d="" />
<glyph glyph-name="uni06EA" unicode="&#x6ea;" horiz-adv-x="485" d="" />
<glyph glyph-name="uni06EB" unicode="&#x6eb;" horiz-adv-x="485" d="" />
<glyph glyph-name="uni06EC" unicode="&#x6ec;" horiz-adv-x="485" d="" />
<glyph glyph-name="uni06ED" unicode="&#x6ed;" horiz-adv-x="485" d="" />
<glyph glyph-name="uni06EE" unicode="&#x6ee;" horiz-adv-x="485" d="" />
<glyph glyph-name="uni06EF" unicode="&#x6ef;" horiz-adv-x="485" d="" />
<glyph glyph-name="uni06F0" unicode="&#x6f0;" horiz-adv-x="485" d="" />
<glyph glyph-name="uni06F1" unicode="&#x6f1;" horiz-adv-x="485" d="" />
<glyph glyph-name="uni06F2" unicode="&#x6f2;" horiz-adv-x="485" d="" />
<glyph glyph-name="uni06F3" unicode="&#x6f3;" horiz-adv-x="485" d="" />
<glyph glyph-name="uni06F4" unicode="&#x6f4;" horiz-adv-x="485" d="" />
<glyph glyph-name="uni06F5" unicode="&#x6f5;" horiz-adv-x="485" d="" />
<glyph glyph-name="uni06F6" unicode="&#x6f6;" horiz-adv-x="485" d="" />
<glyph glyph-name="uni06F7" unicode="&#x6f7;" horiz-adv-x="485" d="" />
<glyph glyph-name="uni06F8" unicode="&#x6f8;" horiz-adv-x="485" d="" />
<glyph glyph-name="uni06F9" unicode="&#x6f9;" horiz-adv-x="485" d="" />
<glyph glyph-name="uni06FA" unicode="&#x6fa;" horiz-adv-x="485" d="" />
<glyph glyph-name="uni06FB" unicode="&#x6fb;" horiz-adv-x="485" d="" />
<glyph glyph-name="uni06FC" unicode="&#x6fc;" horiz-adv-x="485" d="" />
<glyph glyph-name="uni06FD" unicode="&#x6fd;" horiz-adv-x="485" d="" />
<glyph glyph-name="uni06FE" unicode="&#x6fe;" horiz-adv-x="485" d="" />
<glyph glyph-name="uni2010" unicode="&#x2010;" horiz-adv-x="838" d="M115 440 L115 643 L721 643 L721 440 L115 440 Z " />
<glyph glyph-name="uni2011" unicode="&#x2011;" horiz-adv-x="838" d="M115 440 L115 643 L721 643 L721 440 L115 440 Z " />
<glyph glyph-name="figuredash" unicode="&#x2012;" horiz-adv-x="1024" d="M0 500 L0 666 L1024 666 L1024 500 L0 500 Z " />
<glyph glyph-name="afii00208" unicode="&#x2015;" horiz-adv-x="2048" d="M0 500 L0 666 L2048 666 L2048 500 L0 500 Z " />
<glyph glyph-name="uni203E" unicode="&#x203e;" horiz-adv-x="856" d="M82 1335 L82 1481 L774 1481 L774 1335 L82 1335 Z " />
<glyph glyph-name="afii61352" unicode="&#x2116;" horiz-adv-x="2549" d="M2024 1298 Q2178 1298 2288 1189 Q2397 1079 2397 924 Q2397 769 2288 661 Q2177 553 2025 553 Q1885 553 1780 642 Q1650 752 1650 924 Q1650 1079 1759 1189 Q1867 1298 2024 1298 Z M2020 1137 Q1927 1137 1867 1058 Q1823 1001 1823 922 Q1823 837 1883 773 Q1941 712 2022 712 Q2102 712 2161 769 Q2225 831 2225 927 Q2225 1025 2149 1089 Q2093 1137 2020 1137 Z M1650 184 L1650 368 L2397 368 L2397 184 L1650 184 Z M152 0 L152 1544 L393 1544 L1157 283 L1157 1544 L1360 1544 L1360 0 L1118 0 L354 1264 L354 0 L152 0 Z " />
<glyph glyph-name="minus" unicode="&#x2212;" horiz-adv-x="1227" d="M66 647 L66 815 L1161 815 L1161 647 L66 647 Z " />
<glyph glyph-name="uni2215" unicode="&#x2215;" horiz-adv-x="268" d="M-324 -37 L426 1497 L590 1497 L-160 -37 L-324 -37 Z " />
<glyph glyph-name="uni2219" unicode="&#x2219;" horiz-adv-x="520" d="M141 590 L141 870 L379 870 L379 590 L141 590 Z " />
<glyph glyph-name="dotmath" unicode="&#x22c5;" horiz-adv-x="520" d="M141 590 L141 870 L379 870 L379 590 L141 590 Z " />
<glyph glyph-name="uniE815" unicode="&#xe815;" horiz-adv-x="485" d="" />
<glyph glyph-name="uniEA3E" unicode="&#xea3e;" horiz-adv-x="1107" d="M679 496 L279 496 Q286 369 319 291 Q391 121 598 121 Q817 121 885 332 L1057 268 Q952 -37 589 -37 Q364 -37 231 98 Q80 251 80 538 Q80 797 205 951 Q271 1032 363 1073 Q481 1126 615 1126 Q833 1126 951 981 Q1012 906 1042 788 L854 739 Q823 851 772 903 Q707 969 586 969 Q428 969 346 844 Q296 768 281 641 L679 641 L679 496 Z " />
<glyph glyph-name="uniEA3F" unicode="&#xea3f;" horiz-adv-x="477" d="M483 1200 L483 1544 L678 1544 L633 1200 L483 1200 Z " />
<glyph glyph-name="uniEA4F" unicode="&#xea4f;" horiz-adv-x="1214" d="M553 1272 Q660 1436 755 1544 L921 1544 L762 1272 L553 1272 Z " />
<glyph glyph-name="uniEA66" unicode="&#xea66;" horiz-adv-x="1391" d="M406 -393 L410 -387 Q528 -212 608 -121 L774 -121 L615 -393 L406 -393 Z " />
<glyph glyph-name="uniEA67" unicode="&#xea67;" horiz-adv-x="1229" d="M579 1200 L579 1544 L774 1544 L729 1200 L579 1200 Z " />
<glyph glyph-name="uniEA68" unicode="&#xea68;" horiz-adv-x="510" d="M-31 1682 L-31 1911 L152 1911 L152 1682 L-31 1682 Z M365 1682 L365 1911 L547 1911 L547 1682 L365 1682 Z " />
<glyph glyph-name="uniEA69" unicode="&#xea69;" horiz-adv-x="1094" d="M318 -393 L322 -387 Q444 -208 520 -121 L686 -121 L527 -393 L318 -393 Z " />
<glyph glyph-name="uniEA6A" unicode="&#xea6a;" horiz-adv-x="477" d="M-47 1295 L-47 1524 L136 1524 L136 1295 L-47 1295 Z M349 1295 L349 1524 L531 1524 L531 1295 L349 1295 Z " />
<glyph glyph-name="Dotaccent" unicode="&#xefed;" horiz-adv-x="1337" d="M641 1676 L641 1911 L823 1911 L823 1676 L641 1676 Z " />
<glyph glyph-name="Breve" unicode="&#xefee;" horiz-adv-x="1427" d="M381 1911 L535 1911 Q584 1802 718 1802 Q861 1802 897 1911 L1051 1911 Q1007 1671 715 1671 Q565 1671 477 1739 Q397 1802 381 1911 Z " />
<glyph glyph-name="Ogonek" unicode="&#xeff1;" horiz-adv-x="856" d="M704 0 L810 0 Q716 -74 716 -156 Q716 -231 795 -231 Q839 -231 896 -188 L896 -314 Q831 -358 761 -358 Q673 -358 619 -304 Q578 -262 578 -195 Q578 -81 704 0 Z " />
<glyph glyph-name="Cedilla" unicode="&#xeff2;" horiz-adv-x="1505" d="M492 -393 Q612 -215 694 -121 L860 -121 L701 -393 L492 -393 Z " />
<glyph glyph-name="Ring" unicode="&#xeff3;" horiz-adv-x="1485" d="M743 1942 Q875 1942 941 1862 Q989 1804 989 1716 Q989 1620 927 1559 Q860 1494 741 1494 Q629 1494 563 1548 Q489 1610 489 1720 Q489 1829 565 1890 Q631 1942 743 1942 Z M737 1850 Q661 1850 623 1802 Q596 1769 596 1718 Q596 1663 632 1627 Q670 1588 738 1588 Q804 1588 843 1624 Q882 1659 882 1721 Q882 1782 836 1819 Q798 1850 737 1850 Z " />
<glyph glyph-name="Tilde" unicode="&#xeff5;" horiz-adv-x="1427" d="M446 1683 L319 1714 Q365 1921 533 1921 Q603 1921 698 1872 L766 1837 Q826 1806 864 1806 Q928 1806 954 1907 L1083 1876 Q1061 1782 1012 1728 Q955 1667 872 1667 L865 1667 Q822 1667 780 1681 Q755 1689 696 1720 L637 1751 Q578 1782 542 1782 Q476 1782 446 1683 Z " />
<glyph glyph-name="Circumflex" unicode="&#xeff7;" horiz-adv-x="1427" d="M363 1659 L611 1931 L811 1931 L1059 1659 L875 1659 L711 1819 L547 1659 L363 1659 Z " />
<glyph glyph-name="uniF080" unicode="&#xf080;" horiz-adv-x="1661" d="M1620 879 L1620 703 L43 703 L43 879 L1620 879 Z " />
<glyph glyph-name="uniF081" unicode="&#xf081;" horiz-adv-x="1024" d="M291 0 L590 1542 L740 1542 L445 0 L291 0 Z " />
<glyph glyph-name="uniF082" unicode="&#xf082;" horiz-adv-x="3488" d="M6 6 L448 1550 L661 1550 L1106 6 L913 6 L807 389 L278 389 L170 6 L6 6 Z M313 545 L766 545 L545 1368 L313 545 Z M2158 1120 L1970 1090 Q1942 1228 1893 1306 Q1819 1423 1682 1423 Q1506 1423 1419 1230 Q1352 1082 1352 760 Q1352 452 1425 303 Q1508 133 1676 133 Q1860 133 1937 324 Q1969 403 1986 532 L2173 512 Q2134 255 2028 125 Q1902 -27 1676 -27 Q1159 -27 1159 762 Q1159 1180 1296 1381 Q1433 1581 1689 1581 Q2082 1581 2158 1120 Z M3348 1120 L3162 1090 Q3132 1228 3085 1306 Q3012 1423 2874 1423 Q2542 1423 2542 758 Q2542 133 2869 133 Q3050 133 3128 324 Q3161 406 3178 532 L3365 512 Q3283 -27 2866 -27 Q2650 -27 2521 120 Q2349 317 2349 761 Q2349 1173 2488 1381 Q2622 1581 2880 1581 Q3134 1581 3250 1403 Q3319 1298 3348 1120 Z " />
<glyph glyph-name="uniF083" unicode="&#xf083;" horiz-adv-x="3578" d="M84 0 L84 1546 L284 1546 L846 332 L846 1546 L1026 1546 L1026 0 L823 0 L264 1210 L264 0 L84 0 Z M2243 1116 L2054 1081 Q2026 1221 1977 1300 Q1903 1419 1764 1419 Q1582 1419 1498 1226 Q1428 1067 1428 754 Q1428 129 1759 129 Q1945 129 2021 319 Q2053 398 2071 530 L2261 512 Q2217 247 2113 121 Q1988 -31 1758 -31 Q1233 -31 1233 757 Q1233 1164 1374 1375 Q1509 1577 1770 1577 Q2174 1577 2243 1116 Z M2947 1577 Q3215 1577 3356 1378 Q3502 1171 3502 772 Q3502 375 3356 168 Q3215 -31 2945 -31 Q2708 -31 2570 129 Q2394 335 2394 772 Q2394 1171 2541 1378 Q2681 1577 2947 1577 Z M2947 1419 Q2767 1419 2674 1244 Q2584 1075 2584 771 Q2584 468 2674 301 Q2767 129 2946 129 Q3108 129 3199 267 Q3307 432 3307 771 Q3307 1079 3219 1244 Q3125 1419 2947 1419 Z " />
<glyph glyph-name="uniF084" unicode="&#xf084;" horiz-adv-x="2132" d="M615 -965 L375 -743 L887 -158 L455 -4 L1821 764 L1405 -754 L1141 -365 L615 -965 Z " />
<glyph glyph-name="uniF085" unicode="&#xf085;" horiz-adv-x="45" d="M139 35 L139 1374 L4217 1374 L4217 35 L139 35 Z " />
<glyph glyph-name="uniF086" unicode="&#xf086;" horiz-adv-x="4352" d="M4139 1335 L135 1335 L135 74 L4139 74 L4139 1335 Z M4212 1409 L4212 0 L61 0 L61 1409 L4212 1409 Z " />
<glyph glyph-name="uniF087" unicode="&#xf087;" horiz-adv-x="1096" d="M59 414 L239 451 Q257 318 303 245 Q379 125 544 125 Q702 125 773 215 Q823 280 823 393 Q823 612 596 682 L436 731 Q254 787 173 888 Q90 991 90 1156 Q90 1297 155 1401 Q265 1579 534 1579 Q750 1579 863 1460 Q955 1362 991 1192 L821 1143 Q758 1425 528 1425 Q270 1425 270 1158 Q270 962 501 893 L680 840 Q812 800 886 735 Q1011 625 1011 407 Q1011 200 900 90 Q779 -31 547 -31 Q319 -31 200 89 Q102 188 59 414 Z " />
<glyph glyph-name="uniF088" unicode="&#xf088;" horiz-adv-x="4164" d="M59 418 L239 453 Q256 324 302 249 Q376 129 542 129 Q821 129 821 396 Q821 619 594 686 L434 733 Q258 785 172 889 Q90 987 90 1155 Q90 1297 155 1402 Q262 1577 532 1577 Q748 1577 862 1458 Q951 1366 987 1190 L819 1145 Q792 1260 745 1323 Q670 1423 527 1423 Q380 1423 314 1332 Q270 1271 270 1160 Q270 1060 327 993 Q378 935 499 897 L677 842 Q808 801 882 736 Q1009 622 1009 411 Q1009 204 897 93 Q777 -27 545 -27 Q321 -27 198 93 Q102 187 59 418 Z M1138 -387 L1138 1085 L1310 1085 L1312 948 Q1349 1025 1400 1062 Q1470 1114 1579 1114 Q1755 1114 1838 959 Q1916 811 1916 555 Q1916 285 1831 138 Q1736 -27 1558 -27 Q1399 -27 1316 125 L1316 -387 L1138 -387 Z M1526 973 Q1310 973 1310 536 Q1310 339 1358 234 Q1412 116 1520 116 Q1614 116 1669 203 Q1730 299 1730 549 Q1730 757 1683 864 Q1635 973 1526 973 Z M2434 1114 Q2634 1114 2738 961 Q2836 817 2836 544 Q2836 276 2738 128 Q2635 -27 2433 -27 Q2255 -27 2154 99 Q2035 249 2035 544 Q2035 816 2132 961 Q2234 1114 2434 1114 Z M2431 967 Q2213 967 2213 545 Q2213 123 2435 123 Q2656 123 2656 553 Q2656 967 2431 967 Z M2967 4 L2967 1085 L3139 1085 L3141 915 Q3155 963 3196 1012 Q3266 1095 3361 1095 Q3401 1095 3442 1085 L3426 928 Q3392 934 3350 934 Q3283 934 3237 891 Q3141 801 3141 551 L3141 4 L2967 4 Z M3690 935 L3575 935 L3575 1085 L3690 1085 L3690 1391 L3864 1391 L3864 1085 L4042 1085 L4042 935 L3864 935 L3864 264 Q3864 193 3888 163 Q3910 133 3966 133 Q4014 133 4054 147 L4067 2 Q4001 -16 3911 -16 Q3690 -16 3690 237 L3690 935 Z " />
<glyph glyph-name="uniF089" unicode="&#xf089;" horiz-adv-x="2095" d="M59 418 L239 453 Q256 324 302 249 Q376 129 542 129 Q821 129 821 396 Q821 619 594 686 L434 733 Q258 785 172 889 Q90 987 90 1155 Q90 1297 155 1402 Q262 1577 532 1577 Q748 1577 862 1458 Q951 1366 987 1190 L819 1145 Q792 1260 745 1323 Q670 1423 527 1423 Q380 1423 314 1332 Q270 1271 270 1160 Q270 1060 327 993 Q378 935 499 897 L677 842 Q808 801 882 736 Q1009 622 1009 411 Q1009 204 897 93 Q777 -27 545 -27 Q321 -27 198 93 Q102 187 59 418 Z M1155 4 L1155 1546 L1982 1546 L1982 1384 L1337 1384 L1337 870 L1947 870 L1947 708 L1337 708 L1337 166 L2011 166 L2011 4 L1155 4 Z " />
<glyph glyph-name="uniF08A" unicode="&#xf08a;" horiz-adv-x="6775" d="M60 414 L240 451 Q259 318 304 245 Q378 125 544 125 Q698 125 770 214 Q822 279 822 392 Q822 613 595 680 L435 727 Q261 778 173 885 Q91 983 91 1152 Q91 1293 156 1397 Q265 1573 534 1573 Q750 1573 863 1456 Q951 1365 988 1188 L820 1139 Q790 1257 747 1318 Q673 1420 528 1420 Q381 1420 316 1329 Q271 1267 271 1157 Q271 960 500 891 L678 838 Q806 800 883 732 Q1010 619 1010 407 Q1010 203 898 90 Q779 -31 543 -31 Q318 -31 199 89 Q103 187 60 414 Z M1156 0 L1156 1542 L1983 1542 L1983 1380 L1338 1380 L1338 864 L1948 864 L1948 708 L1338 708 L1338 162 L2012 162 L2012 0 L1156 0 Z M2163 0 L2462 1542 L2612 1542 L2317 0 L2163 0 Z M2681 414 L2860 451 Q2898 125 3165 125 Q3319 125 3391 214 Q3443 279 3443 392 Q3443 614 3216 680 L3054 727 Q2880 778 2793 885 Q2712 984 2712 1152 Q2712 1293 2776 1397 Q2886 1573 3155 1573 Q3369 1573 3483 1456 Q3567 1368 3609 1188 L3439 1139 Q3413 1253 3366 1318 Q3291 1420 3149 1420 Q3002 1420 2936 1329 Q2892 1267 2892 1157 Q2892 1056 2948 990 Q3002 927 3122 891 L3298 838 Q3427 799 3505 732 Q3630 625 3630 407 Q3630 201 3519 90 Q3399 -31 3163 -31 Q2939 -31 2821 89 Q2718 193 2681 414 Z M3761 -393 L3761 1081 L3933 1081 L3935 944 Q4017 1112 4201 1112 Q4375 1112 4460 954 Q4539 808 4539 550 Q4539 279 4447 134 Q4396 54 4334 12 Q4271 -31 4182 -31 Q4068 -31 3997 31 Q3959 63 3939 121 L3939 -393 L3761 -393 Z M4148 969 Q4038 969 3982 846 Q3933 737 3933 532 Q3933 112 4146 112 Q4355 112 4355 548 Q4355 969 4148 969 Z M5057 1112 Q5257 1112 5361 956 Q5459 809 5459 539 Q5459 272 5361 125 Q5257 -31 5057 -31 Q4880 -31 4777 97 Q4658 245 4658 539 Q4658 809 4755 956 Q4858 1112 5057 1112 Z M5055 960 Q4836 960 4836 540 Q4836 116 5058 116 Q5277 116 5277 547 Q5277 960 5055 960 Z M5588 0 L5588 1081 L5762 1081 L5766 911 Q5781 959 5818 1009 Q5881 1092 5983 1092 Q6020 1092 6063 1081 L6049 921 Q6011 928 5975 928 Q5899 928 5860 887 Q5766 787 5766 547 L5766 0 L5588 0 Z M6313 932 L6198 932 L6198 1081 L6313 1081 L6313 1389 L6487 1389 L6487 1081 L6665 1081 L6665 932 L6487 932 L6487 260 Q6487 190 6510 161 Q6533 132 6589 132 Q6637 132 6677 141 L6690 -2 Q6639 -20 6532 -20 Q6313 -20 6313 233 L6313 932 Z " />
<glyph glyph-name="uniF08B" unicode="&#xf08b;" horiz-adv-x="2157" d="M59 414 L239 451 Q256 321 302 245 Q376 125 542 125 Q697 125 769 214 Q821 280 821 393 Q821 613 594 680 L434 727 Q261 778 172 885 Q90 983 90 1152 Q90 1293 155 1397 Q264 1573 532 1573 Q749 1573 862 1456 Q950 1365 987 1188 L819 1139 Q794 1251 746 1317 Q671 1419 527 1419 Q380 1419 314 1328 Q270 1267 270 1154 Q270 959 499 891 L677 838 Q806 799 882 732 Q1009 618 1009 406 Q1009 203 897 90 Q778 -31 545 -31 Q317 -31 198 89 Q101 187 59 414 Z M1138 0 L1138 1542 L1619 1542 Q1831 1542 1927 1442 Q2016 1349 2016 1168 Q2016 943 1849 833 Q1945 792 1998 726 Q2076 626 2076 447 Q2076 202 1933 89 Q1818 0 1595 0 L1138 0 Z M1316 152 L1576 152 Q1722 152 1793 215 Q1877 291 1877 450 Q1877 637 1771 703 Q1710 741 1597 741 L1316 741 L1316 152 Z M1316 895 L1568 895 Q1823 895 1823 1143 Q1823 1275 1761 1333 Q1699 1390 1576 1390 L1316 1390 L1316 895 Z " />
<glyph glyph-name="uniF08C" unicode="&#xf08c;" horiz-adv-x="2193" d="M59 412 L239 446 Q257 318 302 243 Q376 123 542 123 Q697 123 769 212 Q821 278 821 390 Q821 611 594 678 L434 725 Q260 776 172 884 Q90 984 90 1149 Q90 1291 155 1395 Q264 1571 532 1571 Q749 1571 862 1454 Q950 1363 987 1186 L819 1139 Q792 1255 745 1317 Q670 1417 527 1417 Q270 1417 270 1152 Q270 957 499 889 L677 836 Q806 797 882 729 Q1009 617 1009 404 Q1009 198 897 87 Q777 -33 545 -33 Q318 -33 198 86 Q102 181 59 412 Z M2105 1141 L1923 1104 Q1892 1265 1824 1338 Q1752 1415 1628 1415 Q1457 1415 1370 1229 Q1292 1062 1292 749 Q1292 125 1625 125 Q1777 125 1860 234 Q1925 320 1925 467 L1925 612 L1757 612 L1757 766 L2107 766 L2107 -2 L1984 -2 L1954 156 Q1835 -33 1611 -33 Q1400 -33 1274 113 Q1102 314 1102 754 Q1102 1165 1243 1371 Q1380 1571 1639 1571 Q1888 1571 2001 1410 Q2071 1310 2105 1141 Z " />
<glyph glyph-name="uniF08D" unicode="&#xf08d;" horiz-adv-x="1612" d="M766 1907 L1018 1159 L1796 1159 L1178 692 L1454 -94 L766 393 L78 -94 L354 692 L-264 1159 L518 1159 L766 1907 Z " />
<glyph glyph-name="uniF08E" unicode="&#xf08e;" horiz-adv-x="1747" d="M1788 0 L-231 0 L779 1874 L1788 0 Z M1512 178 L781 1474 L50 178 L1512 178 Z " />
<glyph glyph-name="uniF08F" unicode="&#xf08f;" horiz-adv-x="1747" d="M1788 0 L-231 0 L779 1874 L1788 0 Z " />
<glyph glyph-name="uniF090" unicode="&#xf090;" horiz-adv-x="1622" d="M812 1444 Q1118 1444 1335 1228 Q1551 1013 1551 705 Q1551 465 1411 276 Q1184 -29 813 -29 Q506 -29 289 186 Q72 401 72 708 Q72 1021 289 1230 Q512 1444 812 1444 Z M812 1274 Q577 1274 409 1109 Q242 945 242 709 Q242 473 410 307 Q578 141 812 141 Q1047 141 1214 308 Q1381 475 1381 711 Q1381 897 1273 1041 Q1190 1151 1071 1214 Q955 1274 812 1274 Z " />
<glyph glyph-name="uniF091" unicode="&#xf091;" horiz-adv-x="1663" d="M41 1581 L1622 1581 L1622 0 L41 0 L41 1581 Z M1446 1405 L217 1405 L217 176 L1446 176 L1446 1405 Z " />
<glyph glyph-name="uniF092" unicode="&#xf092;" horiz-adv-x="1622" d="M811 1447 Q1116 1447 1332 1230 Q1548 1015 1548 710 Q1548 406 1332 189 Q1117 -29 812 -29 Q505 -29 289 187 Q72 402 72 713 Q72 959 212 1146 Q319 1288 475 1369 Q626 1447 811 1447 Z " />
<glyph glyph-name="uniF093" unicode="&#xf093;" horiz-adv-x="2091" d="M-61 831 L1057 1950 L2175 811 L1057 -307 L-61 831 Z " />
<glyph glyph-name="uniF094" unicode="&#xf094;" horiz-adv-x="1663" d="M41 1581 L1622 1581 L1622 0 L41 0 L41 1581 Z " />
<glyph glyph-name="uniF095" unicode="&#xf095;" horiz-adv-x="2091" d="M-61 811 L1057 1929 L2175 811 L1057 -307 L-61 811 Z M1057 1679 L189 811 L1057 -57 L1926 811 L1057 1679 Z " />
<glyph glyph-name="Acute" unicode="&#xf6c9;" horiz-adv-x="1427" d="M620 1659 L809 1931 L1030 1931 L796 1659 L620 1659 Z " />
<glyph glyph-name="Caron" unicode="&#xf6ca;" horiz-adv-x="1391" d="M602 1659 L354 1931 L538 1931 L702 1771 L866 1931 L1050 1931 L802 1659 L602 1659 Z " />
<glyph glyph-name="Dieresis" unicode="&#xf6cb;" horiz-adv-x="1427" d="M430 1678 L430 1907 L613 1907 L613 1678 L430 1678 Z M826 1678 L826 1907 L1008 1907 L1008 1678 L826 1678 Z " />
<glyph glyph-name="Grave" unicode="&#xf6ce;" horiz-adv-x="1427" d="M639 1659 L405 1931 L626 1931 L815 1659 L639 1659 Z " />
<glyph glyph-name="Hungarumlaut" unicode="&#xf6cf;" horiz-adv-x="1636" d="M608 1659 L721 1931 L899 1931 L745 1659 L608 1659 Z M905 1659 L1020 1931 L1198 1931 L1044 1659 L905 1659 Z " />
<glyph glyph-name="Macron" unicode="&#xf6d0;" horiz-adv-x="1427" d="M361 1710 L361 1856 L1053 1856 L1053 1710 L361 1710 Z " />
<glyph glyph-name="uniFB50" unicode="&#xfb50;" horiz-adv-x="485" d="" />
<glyph glyph-name="uniFB51" unicode="&#xfb51;" horiz-adv-x="485" d="" />
<glyph glyph-name="uniFB52" unicode="&#xfb52;" horiz-adv-x="485" d="" />
<glyph glyph-name="uniFB53" unicode="&#xfb53;" horiz-adv-x="485" d="" />
<glyph glyph-name="uniFB54" unicode="&#xfb54;" horiz-adv-x="485" d="" />
<glyph glyph-name="uniFB55" unicode="&#xfb55;" horiz-adv-x="485" d="" />
<glyph glyph-name="uniFB56" unicode="&#xfb56;" horiz-adv-x="485" d="" />
<glyph glyph-name="uniFB57" unicode="&#xfb57;" horiz-adv-x="485" d="" />
<glyph glyph-name="uniFB58" unicode="&#xfb58;" horiz-adv-x="485" d="" />
<glyph glyph-name="uniFB59" unicode="&#xfb59;" horiz-adv-x="485" d="" />
<glyph glyph-name="uniFB5A" unicode="&#xfb5a;" horiz-adv-x="485" d="" />
<glyph glyph-name="uniFB5B" unicode="&#xfb5b;" horiz-adv-x="485" d="" />
<glyph glyph-name="uniFB5C" unicode="&#xfb5c;" horiz-adv-x="485" d="" />
<glyph glyph-name="uniFB5D" unicode="&#xfb5d;" horiz-adv-x="485" d="" />
<glyph glyph-name="uniFB5E" unicode="&#xfb5e;" horiz-adv-x="485" d="" />
<glyph glyph-name="uniFB5F" unicode="&#xfb5f;" horiz-adv-x="485" d="" />
<glyph glyph-name="uniFB60" unicode="&#xfb60;" horiz-adv-x="485" d="" />
<glyph glyph-name="uniFB61" unicode="&#xfb61;" horiz-adv-x="485" d="" />
<glyph glyph-name="uniFB62" unicode="&#xfb62;" horiz-adv-x="485" d="" />
<glyph glyph-name="uniFB63" unicode="&#xfb63;" horiz-adv-x="485" d="" />
<glyph glyph-name="uniFB64" unicode="&#xfb64;" horiz-adv-x="485" d="" />
<glyph glyph-name="uniFB65" unicode="&#xfb65;" horiz-adv-x="485" d="" />
<glyph glyph-name="uniFB66" unicode="&#xfb66;" horiz-adv-x="485" d="" />
<glyph glyph-name="uniFB67" unicode="&#xfb67;" horiz-adv-x="485" d="" />
<glyph glyph-name="uniFB68" unicode="&#xfb68;" horiz-adv-x="485" d="" />
<glyph glyph-name="uniFB69" unicode="&#xfb69;" horiz-adv-x="485" d="" />
<glyph glyph-name="uniFB6A" unicode="&#xfb6a;" horiz-adv-x="485" d="" />
<glyph glyph-name="uniFB6B" unicode="&#xfb6b;" horiz-adv-x="485" d="" />
<glyph glyph-name="uniFB6C" unicode="&#xfb6c;" horiz-adv-x="485" d="" />
<glyph glyph-name="uniFB6D" unicode="&#xfb6d;" horiz-adv-x="485" d="" />
<glyph glyph-name="uniFB6E" unicode="&#xfb6e;" horiz-adv-x="485" d="" />
<glyph glyph-name="uniFB6F" unicode="&#xfb6f;" horiz-adv-x="485" d="" />
<glyph glyph-name="uniFB70" unicode="&#xfb70;" horiz-adv-x="485" d="" />
<glyph glyph-name="uniFB71" unicode="&#xfb71;" horiz-adv-x="485" d="" />
<glyph glyph-name="uniFB72" unicode="&#xfb72;" horiz-adv-x="485" d="" />
<glyph glyph-name="uniFB73" unicode="&#xfb73;" horiz-adv-x="485" d="" />
<glyph glyph-name="uniFB74" unicode="&#xfb74;" horiz-adv-x="485" d="" />
<glyph glyph-name="uniFB75" unicode="&#xfb75;" horiz-adv-x="485" d="" />
<glyph glyph-name="uniFB76" unicode="&#xfb76;" horiz-adv-x="485" d="" />
</font>
</svg>
