<?xml version="1.0" standalone="no"?>
<!DOCTYPE svg PUBLIC "-//W3C//DTD SVG 1.1//EN" "http://www.w3.org/Graphics/SVG/1.1/DTD/svg11.dtd" >
<svg>
<metadata>
Created by FontForge 20090914 at Mon Aug 24 11:59:38 2015
 By www-data
Copyright (c) by Binnenland, 2007. All rights reserved. This software may not be reproduced, used, displayed, modified, disclosed or transferred without the express written approval of (Binnenland). 
</metadata>
<defs>
<font id="MINISansSerif-Regular" horiz-adv-x="1090" >
  <font-face 
    font-family="MINI Sans Serif"
    font-weight="400"
    font-stretch="normal"
    units-per-em="2048"
    panose-1="2 0 6 6 3 0 0 2 0 4"
    ascent="1536"
    descent="-512"
    x-height="991"
    cap-height="1380"
    bbox="-207 -475.001 2216 1925"
    underline-thickness="102"
    underline-position="-103"
    unicode-range="U+000D-U+FB02"
  />
<missing-glyph horiz-adv-x="614" 
 />
    <glyph glyph-name=".notdef" horiz-adv-x="614" 
 />
    <glyph glyph-name=".null" horiz-adv-x="0" 
 />
    <glyph glyph-name=".null" horiz-adv-x="0" 
 />
    <glyph glyph-name="nonmarkingreturn" unicode="&#xd;" horiz-adv-x="532" 
 />
    <glyph glyph-name="space" unicode=" " horiz-adv-x="530" 
 />
    <glyph glyph-name="exclam" unicode="!" horiz-adv-x="541" 
d="M344 371h-149l-27 1009h205zM369 252v-252h-199v252h199z" />
    <glyph glyph-name="quotedbl" unicode="&#x22;" horiz-adv-x="805" 
d="M158 936v444h176v-444h-176zM471 936v444h176v-444h-176z" />
    <glyph glyph-name="numbersign" unicode="#" horiz-adv-x="1427" 
d="M410 582l43 264h-267v164h293l62 370h170l-60 -370h250l62 370h170l-60 -370h262v-164h-288l-43 -264h260v-164h-287l-66 -418h-174l68 418h-250l-66 -418h-174l68 418h-268v164h295zM582 582h249l43 264h-249z" />
    <glyph glyph-name="dollar" unicode="$" horiz-adv-x="1194" 
d="M657 1403c55.333 -4 104.172 -13.0029 146.505 -27.0029s79.166 -31.5 110.499 -52.5s57.833 -45 79.5 -72s39.667 -55.167 54 -84.5s25.166 -59.5 32.499 -90.5s12.666 -60.833 15.999 -89.5h-209c-2.66699 26 -8.33398 51.667 -17.001 77s-21.834 48.333 -39.501 69
s-40.667 38.167 -69 52.5s-63.166 23.833 -104.499 28.5v-407c29.333 -5.33301 58.833 -11.333 88.5 -18s59.167 -15 88.5 -25c34 -11.333 67.667 -26.333 101 -45s63.166 -43 89.499 -73s47.833 -66.5 64.5 -109.5s25 -94.833 25 -155.5c0 -58 -10.833 -110.667 -32.5 -158
s-52.5 -88.5 -92.5 -123.5s-88.167 -63.167 -144.5 -84.5s-118.833 -34.666 -187.5 -39.999v-139h-125v139c-87.333 4.66699 -160.666 21.667 -219.999 51s-107.5 65.5 -144.5 108.5s-64.333 89.667 -82 140s-28.5 98.833 -32.5 145.5h211
c2.66699 -30.667 9.83398 -60.667 21.501 -90s28.167 -55.666 49.5 -78.999s48.166 -42.833 80.499 -58.5s71.166 -25.167 116.499 -28.5v465c-28.667 6 -56.667 12.167 -84 18.5s-51.666 13.166 -72.999 20.499c-34 12 -67.333 27.833 -100 47.5s-62 43.834 -88 72.501
s-47 61.667 -63 99s-24 79 -24 125c0 58 10.667 110 32 156s51.166 85.667 89.499 119s84 59.833 137 79.5s110.833 31.834 173.5 36.501v156h125v-156zM750.006 583.997l-42 11.498c-15.333 4.33301 -32.333 8.5 -51 12.5v-444c38 4 72.5 11.833 103.5 23.5
s57.5 26.834 79.5 45.501s39 40.5 51 65.5s18 52.5 18 82.5c0 30.667 -3.83301 57 -11.5 79s-18.5 40.833 -32.5 56.5s-30.833 28.834 -50.5 39.501s-41.167 20 -64.5 28zM465.006 849.995c10 -4 20.667 -7.66699 32 -11l35 -10v388c-34 -4 -65.167 -10.833 -93.5 -20.5
s-52.5 -22.5 -72.5 -38.5s-35.5 -35.167 -46.5 -57.5s-16.5 -47.833 -16.5 -76.5c0 -23.333 4 -44 12 -62s19.167 -34 33.5 -48s31.5 -26.167 51.5 -36.5s41.667 -19.5 65 -27.5z" />
    <glyph glyph-name="percent" unicode="%" horiz-adv-x="1636" 
d="M397 1403c55.333 0 101.333 -11.832 138 -35.499s66 -54.334 88 -92.001s37.667 -80 47 -127s14 -93.833 14 -140.5c0 -27.333 -1.66699 -56 -5 -86s-9 -59.667 -17 -89s-19 -57.5 -33 -84.5s-31.667 -50.833 -53 -71.5s-46.666 -37 -75.999 -49
s-63.666 -18 -102.999 -18c-56.667 0 -103.834 12 -141.501 36s-67.667 55 -90 93s-38.166 80.667 -47.499 128s-14 94.333 -14 141c0 27.333 1.66699 56 5 86s9.16602 59.667 17.499 89s19.666 57.333 33.999 84s32.333 50 54 70s47.5 36 77.5 48s65 18 105 18zM397 1262
c-28.667 0 -51.502 -8.33105 -68.502 -24.998s-30.167 -37.667 -39.5 -63s-15.5 -52.833 -18.5 -82.5s-4.5 -57.5 -4.5 -83.5c0 -24 1 -50.833 3 -80.5s7.33301 -57.334 16 -83.001s21.834 -47.167 39.501 -64.5s41.834 -26 72.501 -26c22.667 0 42 5.83301 58 17.5
s29 28.5 39 50.5s17.167 48.667 21.5 80s6.5 66.666 6.5 105.999c0 24 -1.16699 50.667 -3.5 80s-7.66602 57 -15.999 83s-20.833 47.667 -37.5 65s-39.334 26 -68.001 26zM548.998 0.00292969h-158l699 1380h155zM1245 766.003c55.333 0 101.333 -11.832 138 -35.499
s66 -54.334 88 -92.001s37.667 -80 47 -127s14 -93.833 14 -140.5c0 -27.333 -1.66699 -56 -5 -86s-9 -59.667 -17 -89s-19 -57.5 -33 -84.5s-31.667 -50.833 -53 -71.5s-46.666 -37 -75.999 -49s-63.666 -18 -102.999 -18c-56.667 0 -103.834 12 -141.501 36
s-67.667 55 -90 93s-38.166 80.667 -47.499 128s-14 94.333 -14 141c0 27.333 1.66699 56 5 86s9.16602 59.667 17.499 89s19.666 57.333 33.999 84s32.333 50 54 70s47.5 36 77.5 48s65 18 105 18zM1245 625.004c-28.667 0 -51.6689 -8.33105 -69.002 -24.998
s-30.5 -37.667 -39.5 -63s-15 -52.833 -18 -82.5s-4.5 -57.5 -4.5 -83.5c0 -24 1 -50.833 3 -80.5s7.33301 -57.334 16 -83.001s21.834 -47.167 39.501 -64.5s41.834 -26 72.501 -26c22.667 0 42 5.83301 58 17.5s29 28.5 39 50.5s17.167 48.667 21.5 80
s6.5 66.666 6.5 105.999c0 24 -1.16699 50.667 -3.5 80s-7.66602 57 -15.999 83s-20.833 47.667 -37.5 65s-39.334 26 -68.001 26z" />
    <glyph glyph-name="ampersand" unicode="&#x26;" horiz-adv-x="1286" 
d="M1171 754c-2 -96.667 -13.166 -187.999 -33.499 -273.999s-49.833 -159.333 -88.5 -220l83 -92l74.5 -81l55.5 -59.5c14.667 -15.667 23.334 -24.834 26.001 -27.501h-244l-112 119c-50.667 -43.333 -107.667 -77.333 -171 -102s-130 -37 -200 -37
c-76.667 0 -143.5 10.667 -200.5 32s-104.333 50.333 -142 87s-65.834 79.5 -84.501 128.5s-28 100.833 -28 155.5c0 41.333 6.83301 79.5 20.5 114.5s32.167 67.333 55.5 97s50.5 56.5 81.5 80.5s63.833 46 98.5 66l-61 77.5c-20.667 26.333 -39.334 53.333 -56.001 81
s-30.334 55.667 -41.001 84s-16 56.833 -16 85.5c0 46 8.5 89.5 25.5 130.5s41.333 76.833 73 107.5s69.834 55 114.501 73s94.667 27 150 27c51.333 0 99 -8.16699 143 -24.5s82 -39.166 114 -68.499s57.167 -64.333 75.5 -105s27.5 -85.334 27.5 -134.001
c0 -44 -8.16699 -84 -24.5 -120s-37.333 -69 -63 -99s-54.334 -57.667 -86.001 -83s-63.167 -49 -94.5 -71l279 -303c20.667 43.333 36.334 93 47.001 149s16.667 124.667 18 206h184zM561.001 156.001c47.333 0 91.833 8.16895 133.5 24.502s80.5 40.166 116.5 71.499
l-332 360c-28.667 -16.667 -54 -33.167 -76 -49.5s-40.5 -33.333 -55.5 -51s-26.5 -36.834 -34.5 -57.501s-12 -43.667 -12 -69c0 -30 5.16699 -58.833 15.5 -86.5s26 -52 47 -73s47.833 -37.833 80.5 -50.5s71.667 -19 117 -19zM383.001 1069
c0 -19.333 3.66504 -38.334 10.998 -57.001s17 -37.167 29 -55.5s25.667 -36.5 41 -54.5l48 -54l14 -17c24 12.667 47.667 26.5 71 41.5s44.333 32 63 51s33.834 40.333 45.501 64s17.5 50.834 17.5 81.501c0 25.333 -4.33301 48 -13 68s-20.667 36.833 -36 50.5
s-33.5 24 -54.5 31s-43.833 10.5 -68.5 10.5c-26.667 0 -50.5 -4.16699 -71.5 -12.5s-38.667 -19.833 -53 -34.5s-25.166 -31.667 -32.499 -51s-11 -40 -11 -62z" />
    <glyph glyph-name="quotesingle" unicode="'" horiz-adv-x="492" 
d="M158 936v444h176v-444h-176z" />
    <glyph glyph-name="parenleft" unicode="(" horiz-adv-x="555" 
d="M72 580c0 68.667 3.83301 134.33 11.5 196.997s18 121.834 31 177.501s27.667 107.334 44 155.001s33.166 91.167 50.499 130.5c40 92 85.667 173.667 137 245h205c-55.333 -77.333 -104.666 -163.333 -147.999 -258c-18.667 -40.667 -36.834 -85 -54.501 -133
s-33.334 -99.333 -47.001 -154s-24.667 -112.167 -33 -172.5s-12.5 -122.833 -12.5 -187.5c0 -65.333 4.16699 -128.166 12.5 -188.499s19.333 -117.833 33 -172.5s29.334 -106 47.001 -154s35.834 -92.333 54.501 -133c43.333 -95.333 92.666 -181.333 147.999 -258h-205
c-51.333 71.333 -97 153 -137 245c-17.333 39.333 -34.166 82.833 -50.499 130.5s-31 99.167 -44 154.5s-23.333 114.5 -31 177.5s-11.5 129.167 -11.5 198.5z" />
    <glyph glyph-name="parenright" unicode=")" horiz-adv-x="555" 
d="M483 580c0 -69.333 -4 -135.496 -12 -198.496s-18.5 -122.167 -31.5 -177.5s-27.667 -106.833 -44 -154.5s-33.166 -91.167 -50.499 -130.5c-40.667 -92 -86.667 -173.667 -138 -245h-203c54.667 76.667 103.334 162.667 146.001 258c18 40.667 35.833 85 53.5 133
s33.5 99.333 47.5 154s25.167 112.167 33.5 172.5s12.5 123.166 12.5 188.499c0 64.667 -4.16699 127.167 -12.5 187.5s-19.5 117.833 -33.5 172.5s-29.833 106 -47.5 154s-35.5 92.333 -53.5 133c-42.667 94.667 -91.334 180.667 -146.001 258h203
c51.333 -71.333 97.333 -153 138 -245c17.333 -39.333 34.166 -82.833 50.499 -130.5s31 -99.334 44 -155.001s23.5 -114.834 31.5 -177.501s12 -128.334 12 -197.001z" />
    <glyph glyph-name="asterisk" unicode="*" horiz-adv-x="1069" 
d="M610 1184l279 100l61 -145l-282 -103l170 -233l-125 -101l-181 259l-170 -254l-137 92l168 237l-274 103l53 145l281 -102l-2 293h157z" />
    <glyph glyph-name="plus" unicode="+" 
d="M459 61v408h-404v176h404v408h186v-408h399v-176h-399v-408h-186z" />
    <glyph glyph-name="comma" unicode="," horiz-adv-x="512" 
d="M174 231l186.001 0.000976562v-172c0 -68.667 -8.5 -122.5 -25.5 -161.5s-39.167 -67.833 -66.5 -86.5s-57.833 -29.334 -91.5 -32.001s-67.167 -2 -100.5 2v113h35c21.333 0 37.166 7.5 47.499 22.5s15.5 41.5 15.5 79.5v235z" />
    <glyph glyph-name="hyphen" unicode="-" horiz-adv-x="934" 
d="M145 643h646v-176h-646v176z" />
    <glyph glyph-name="period" unicode="." horiz-adv-x="512" 
d="M360 272v-272h-202v272h202z" />
    <glyph glyph-name="slash" unicode="/" horiz-adv-x="901" 
d="M205 -49h-187l680 1470h187z" />
    <glyph glyph-name="zero" unicode="0" 
d="M547 1397c62 0 116.832 -9.66504 164.499 -28.998s89.167 -46 124.5 -80s64.833 -73.833 88.5 -119.5s42.667 -94.834 57 -147.501s24.666 -107.334 30.999 -164.001s9.5 -113 9.5 -169c0 -49.333 -2.66699 -101.166 -8 -155.499s-14.666 -108 -27.999 -161
s-31.333 -103.5 -54 -151.5s-51.667 -90.333 -87 -127s-77.5 -65.834 -126.5 -87.501s-106.167 -32.5 -171.5 -32.5c-62.667 0 -118.167 9.83301 -166.5 29.5s-90.166 46.5 -125.499 80.5s-65 74 -89 120s-43.167 95.5 -57.5 148.5s-24.666 108.167 -30.999 165.5
s-9.5 114.333 -9.5 171c0 48.667 2.66699 100 8 154s14.666 107.333 27.999 160s31.5 102.834 54.5 150.501s52.333 89.667 88 126s78.167 65.166 127.5 86.499s107 32 173 32zM546.999 1210c-42 0 -78.001 -7.83301 -108.001 -23.5s-55.5 -36.834 -76.5 -63.501
s-38 -57.5 -51 -92.5s-23 -71.833 -30 -110.5s-11.667 -78.167 -14 -118.5s-3.5 -78.833 -3.5 -115.5c0 -32 0.666992 -67.167 2 -105.5s4.83301 -77 10.5 -116s14.5 -76.833 26.5 -113.5s28.5 -69.167 49.5 -97.5s47.333 -51 79 -68s70.167 -25.5 115.5 -25.5
c52 0 95.833 12.167 131.5 36.5s64.334 59.333 86.001 105s37.167 100.834 46.5 165.501s14 137.667 14 219c0 32.667 -1 68.167 -3 106.5s-6.16699 77 -12.5 116s-15.5 76.667 -27.5 113s-28.333 68.333 -49 96s-46.167 50 -76.5 67s-66.833 25.5 -109.5 25.5z" />
    <glyph glyph-name="one" unicode="1" 
d="M193 176h294v950l-303 -186v211l336 219h162v-1194h276v-176h-765v176z" />
    <glyph glyph-name="two" unicode="2" 
d="M338 184v-1.99805h620v-182h-847v188l171 161l74.5 71.5l77 76l74 75l65.5 69.5c52.667 57.333 94.5 113.166 125.5 167.499s46.5 111.166 46.5 170.499c0 34 -4.5 65.167 -13.5 93.5s-22.667 52.666 -41 72.999s-41.833 36.166 -70.5 47.499s-62.667 17 -102 17
c-32.667 0 -63 -4.33301 -91 -13s-52.5 -21.334 -73.5 -38.001s-38 -37.167 -51 -61.5s-20.833 -52.166 -23.5 -83.499h-199c4.66699 56 18.334 107.333 41.001 154s53 87 91 121s82.667 60.5 134 79.5s108.666 28.5 171.999 28.5c70 0 131.667 -10.833 185 -32.5
s98 -51.167 134 -88.5s63.167 -81.166 81.5 -131.499s27.5 -104.166 27.5 -161.499c0 -50 -7.83301 -97 -23.5 -141s-36.167 -85.667 -61.5 -125s-54 -76.5 -86 -111.5s-64.333 -68.167 -97 -99.5z" />
    <glyph glyph-name="three" unicode="3" 
d="M264 334c8 -29.333 19.8262 -54.8291 35.4932 -76.4961s34.334 -39.834 56.001 -54.501s45.834 -25.5 72.501 -32.5s54.667 -10.5 84 -10.5c40 0 76.5 6 109.5 18s61.167 29.167 84.5 51.5s41.5 49.166 54.5 80.499s19.5 66.666 19.5 105.999c0 34 -6.33301 65 -19 93
s-30.167 52 -52.5 72s-49.166 35.667 -80.499 47s-65.333 17 -102 17h-139v162h111c34.667 0 66.667 5.16699 96 15.5s54.5 24.5 75.5 42.5s37.5 39.333 49.5 64s18 51.667 18 81c0 34.667 -5.83301 64.667 -17.5 90s-27.834 46.166 -48.501 62.499s-45.167 28.333 -73.5 36
s-58.833 11.5 -91.5 11.5c-52.667 0 -98.167 -12.5 -136.5 -37.5s-63.166 -61.5 -74.499 -109.5h-203c8 52 24.333 98.5 49 139.5s55.334 76 92.001 105s78.334 51.167 125.001 66.5s96 23 148 23c60.667 0 117.167 -8.5 169.5 -25.5s97.833 -42 136.5 -75
s69 -73.833 91 -122.5s33 -104.667 33 -168c0 -27.333 -4.16699 -54.166 -12.5 -80.499s-19.5 -51.333 -33.5 -75s-30.5 -45.334 -49.5 -65.001s-39.167 -36.5 -60.5 -50.5c28 -16 54.167 -34.667 78.5 -56s45.5 -45.333 63.5 -72s32 -55.667 42 -87s15 -64.666 15 -99.999
c0 -68.667 -12.5 -130.667 -37.5 -186s-58.667 -102.333 -101 -141s-91.833 -68.334 -148.5 -89.001s-116.667 -31 -180 -31c-61.333 0 -117.166 8.5 -167.499 25.5s-94.666 41.333 -132.999 73s-70.333 69.667 -96 114s-44.5 93.833 -56.5 148.5h205z" />
    <glyph glyph-name="four" unicode="4" 
d="M858 1370v-893h186v-178h-186v-299h-194v299h-629v168l602 903h221zM664 477v653l-433 -653h433z" />
    <glyph glyph-name="five" unicode="5" 
d="M293 305c9.33301 -25.333 22.3311 -47.168 38.998 -65.501s35.334 -33.5 56.001 -45.5s42.5 -21 65.5 -27s45.833 -9 68.5 -9c40.667 0 77 7.16699 109 21.5s59 34.666 81 60.999s38.833 58.333 50.5 96s17.5 79.834 17.5 126.501c0 96.667 -21.167 171 -63.5 223
s-105.166 78 -188.499 78c-54 0 -100.833 -10.5 -140.5 -31.5s-69.167 -56.167 -88.5 -105.5h-176l78 743h694v-186h-541l-35 -303c35.333 24.667 72.5 42.334 111.5 53.001s78.5 16 118.5 16c66 0 125.5 -11.667 178.5 -35s98.167 -56.333 135.5 -99s66 -93.5 86 -152.5
s30 -124.5 30 -196.5c0 -71.333 -11 -137.166 -33 -197.499s-53 -112.5 -93 -156.5s-88.167 -78.333 -144.5 -103s-118.5 -37 -186.5 -37c-49.333 0 -97 7 -143 21s-88.167 34.833 -126.5 62.5s-72 62.167 -101 103.5s-50.833 89.666 -65.5 144.999h207z" />
    <glyph glyph-name="six" unicode="6" 
d="M780 1071c-13.333 47.333 -37.498 82.3359 -72.498 105.003s-79.833 34 -134.5 34c-40 0 -76 -9.66699 -108 -29s-59.833 -47.166 -83.5 -83.499s-43 -80.833 -58 -133.5s-25.833 -112 -32.5 -178c37.333 38 79.833 67.333 127.5 88s99.167 31 154.5 31
c64.667 0 123.334 -12 176.001 -36s97.667 -56.833 135 -98.5s66.166 -90.334 86.499 -146.001s30.5 -115.167 30.5 -178.5c0 -70 -11.167 -134 -33.5 -192s-53.333 -107.833 -93 -149.5s-87 -74 -142 -97s-114.833 -34.5 -179.5 -34.5
c-78.667 0 -147.334 16.167 -206.001 48.5s-107.334 76.666 -146.001 132.999s-67.5 122.5 -86.5 198.5s-28.5 157.667 -28.5 245c0 117.333 10 225 30 323s50.333 182.167 91 252.5s91.667 125.166 153 164.499s133 59 215 59c56 0 106.333 -7.83301 151 -23.5
s83.667 -37.834 117 -66.501s61 -63 83 -103s38.333 -84.333 49 -133h-195zM553.002 160.003c36.667 0 70.333 5.99902 101 17.999s57 29.833 79 53.5s39.167 53 51.5 88s18.5 75.167 18.5 120.5c0 40.667 -5.5 78.167 -16.5 112.5s-27 63.833 -48 88.5
s-47 43.834 -78 57.501s-66.833 20.5 -107.5 20.5c-25.333 0 -52.833 -4.5 -82.5 -13.5s-57 -24.167 -82 -45.5s-45.833 -49.833 -62.5 -85.5s-25 -80.5 -25 -134.5c0 -36 5.83301 -70.833 17.5 -104.5s28.5 -63.5 50.5 -89.5s48.5 -46.833 79.5 -62.5
s65.833 -23.5 104.5 -23.5z" />
    <glyph glyph-name="seven" unicode="7" 
d="M961 1370v-172l-553 -1198h-218l562 1184h-676v186h885z" />
    <glyph glyph-name="eight" unicode="8" 
d="M975 1012c0 -56 -14.5 -109.166 -43.5 -159.499s-69.167 -94.166 -120.5 -131.499c30.667 -18.667 58.5 -40 83.5 -64s46.333 -50.333 64 -79s31.334 -58.834 41.001 -90.501s14.5 -64.5 14.5 -98.5c0 -69.333 -12.667 -129.833 -38 -181.5s-59.333 -95 -102 -130
s-92.5 -61.167 -149.5 -78.5s-116.833 -26 -179.5 -26c-63.333 0 -123.5 8.66699 -180.5 26s-106.833 43.5 -149.5 78.5s-76.5 78.333 -101.5 130s-37.5 112.167 -37.5 181.5c0 34 4.66699 67 14 99s22.5 62.333 39.5 91s37.833 55.167 62.5 79.5s52.667 45.166 84 62.499
c-51.333 37.333 -91.333 81 -120 131s-43 103.333 -43 160c0 60 11 114.167 33 162.5s52.5 89.166 91.5 122.499s84.667 59 137 77s109.166 27 170.499 27c60 0 116.167 -9 168.5 -27s97.833 -43.667 136.5 -77s69.167 -74.166 91.5 -122.499s33.5 -102.5 33.5 -162.5z
M547 156.001c36.667 0 71.334 4.83301 104.001 14.5s61.167 24.167 85.5 43.5s43.5 43.5 57.5 72.5s21 63.167 21 102.5c0 34 -5.83301 65.333 -17.5 94s-29 53.334 -52 74.001s-51.167 36.834 -84.5 48.501s-71.333 17.5 -114 17.5c-44 0 -83 -5.83301 -117 -17.5
s-62.5 -27.834 -85.5 -48.501s-40.5 -45.334 -52.5 -74.001s-18 -60 -18 -94c0 -39.333 7.16699 -73.5 21.5 -102.5s33.833 -53.167 58.5 -72.5s53.667 -33.833 87 -43.5s68.666 -14.5 105.999 -14.5zM545 1219c-34 0 -65.334 -4.33301 -94.001 -13
s-53.5 -21.834 -74.5 -39.501s-37.5 -39.5 -49.5 -65.5s-18 -56.333 -18 -91c0 -30 5.66699 -58 17 -84s27.333 -48.333 48 -67s45.5 -33.334 74.5 -44.001s61.167 -16 96.5 -16c34 0 65.333 5.33301 94 16s53.334 25.334 74.001 44.001s36.667 41 48 67s17 54 17 84
c0 34.667 -6 65 -18 91s-28.5 47.833 -49.5 65.5s-45.667 30.834 -74 39.501s-58.833 13 -91.5 13z" />
    <glyph glyph-name="nine" unicode="9" 
d="M307 299c13.333 -47.333 38.3301 -82.6709 74.9971 -106.004s82 -35 136 -35c40.667 0 76.834 9.83301 108.501 29.5s59 47.834 82 84.501s41.833 81.334 56.5 134.001s25.334 112 32.001 178c-37.333 -38 -79.833 -67.333 -127.5 -88s-99.5 -31 -155.5 -31
c-64.667 0 -123.334 12 -176.001 36s-97.667 56.667 -135 98s-66.166 90 -86.499 146s-30.5 115.667 -30.5 179c0 67.333 10.833 129.833 32.5 187.5s52.167 107.667 91.5 150s86.5 75.5 141.5 99.5s116.167 36 183.5 36c78.667 0 147.167 -16 205.5 -48
s106.833 -76 145.5 -132s67.5 -122 86.5 -198s28.5 -158.333 28.5 -247c0 -117.333 -10 -225 -30 -323s-50.333 -182.167 -91 -252.5s-91.5 -125.166 -152.5 -164.499s-132.833 -59 -215.5 -59c-56 0 -106.167 7.83301 -150.5 23.5s-83.166 37.834 -116.499 66.501
s-61 63 -83 103s-38.333 84.333 -49 133h194zM534.997 1210c-37.333 0 -71.332 -5.99902 -101.999 -17.999s-57 -29.833 -79 -53.5s-39 -53 -51 -88s-18 -75.167 -18 -120.5c0 -41.333 5.5 -79 16.5 -113s27 -63.333 48 -88s47 -43.834 78 -57.501s66.833 -20.5 107.5 -20.5
c25.333 0 52.666 4.5 81.999 13.5s56.5 24.167 81.5 45.5s45.833 49.833 62.5 85.5s25 80.5 25 134.5c0 36 -5.83301 70.833 -17.5 104.5s-28.5 63.5 -50.5 89.5s-48.5 46.833 -79.5 62.5s-65.5 23.5 -103.5 23.5z" />
    <glyph glyph-name="colon" unicode=":" horiz-adv-x="571" 
d="M385 272v-272h-203v272h203zM385 991v-272h-203v272h203z" />
    <glyph glyph-name="semicolon" unicode=";" horiz-adv-x="547" 
d="M375 991v-272h-203v272h203zM180 231l186.001 0.000976562v-172c0 -68.667 -8.5 -122.5 -25.5 -161.5s-39.167 -67.833 -66.5 -86.5s-57.833 -29.334 -91.5 -32.001s-67.167 -2 -100.5 2v113h35c21.333 0 37.166 7.5 47.499 22.5s15.5 41.5 15.5 79.5v235z" />
    <glyph glyph-name="less" unicode="&#x3c;" 
d="M993 76l-899 397v170l899 379v-188l-696 -277l696 -293v-188z" />
    <glyph glyph-name="equal" unicode="=" 
d="M995 649h-901v176h901v-176zM995 276h-901v177h901v-177z" />
    <glyph glyph-name="greater" unicode="&#x3e;" 
d="M96 264l697 293l-697 277v188l899 -379v-170l-899 -397v188z" />
    <glyph glyph-name="question" unicode="?" horiz-adv-x="928" 
d="M51 1014c4.66699 56.667 18.3311 108.168 40.998 154.501s51.834 86 87.501 119s76.834 58.5 123.501 76.5s96.667 27 150 27c58 0 111.333 -9.66699 160 -29s90.334 -46.166 125.001 -80.499s61.667 -75.166 81 -122.499s29 -99 29 -155
c0 -48.667 -10.167 -94.5 -30.5 -137.5s-44.5 -82.5 -72.5 -118.5c-23.333 -30 -48.333 -58.833 -75 -86.5s-51.334 -54.834 -74.001 -81.501c-25.333 -30 -45.333 -59.5 -60 -88.5s-22 -59.167 -22 -90.5v-49h-178v60c0 47.333 10.5 93.166 31.5 137.499
s52.167 88.5 93.5 132.5l74.5 81c24.333 27.333 45.833 54.333 64.5 81c16.667 24.667 30 49.167 40 73.5s15 50.833 15 79.5c0 64.667 -18 116 -54 154s-86 57 -150 57c-26.667 0 -52 -4.83301 -76 -14.5s-45.167 -23 -63.5 -40s-33.333 -37.333 -45 -61
s-18.5 -49.834 -20.5 -78.501h-195zM527.997 252.001v-252h-198v252h198z" />
    <glyph glyph-name="at" unicode="@" horiz-adv-x="1976" 
d="M901 156c40.667 0 79.665 10.998 116.998 32.998s70.333 53.833 99 95.5s51.667 92.334 69 152.001s26 127.167 26 202.5c0 24.667 -2.66699 48 -8 70s-14.666 41.5 -27.999 58.5s-31.166 30.5 -53.499 40.5s-50.5 15 -84.5 15c-47.333 0 -90.333 -12.667 -129 -38
s-71.667 -59.666 -99 -102.999s-48.666 -93.5 -63.999 -150.5s-23 -116.833 -23 -179.5c0 -25.333 2.66699 -49.833 8 -73.5s14.666 -44.5 27.999 -62.5s31.5 -32.5 54.5 -43.5s52.167 -16.5 87.5 -16.5zM1739 607.998c0 57.333 -8.5 112.833 -25.5 166.5
s-41.167 103.834 -72.5 150.501s-69.166 89.334 -113.499 128.001s-93.666 71.834 -147.999 99.501s-113 49 -176 64s-128.833 22.5 -197.5 22.5c-69.333 0 -135.833 -8.83301 -199.5 -26.5s-123.167 -42.834 -178.5 -75.501s-105.666 -71.667 -150.999 -117
s-84.333 -95.833 -117 -151.5s-57.834 -115.5 -75.501 -179.5s-26.5 -130.667 -26.5 -200s8.66699 -136 26 -200s41.833 -123.833 73.5 -179.5s70.167 -106.167 115.5 -151.5s95.666 -84.166 150.999 -116.499s115.166 -57.333 179.499 -75s131.833 -26.5 202.5 -26.5
c50 0 96.167 3.66699 138.5 11s82 17.833 119 31.5s71.833 30.334 104.5 50.001s64.667 42.167 96 67.5h244c-42.667 -50 -89.334 -95 -140.001 -135s-105.5 -74 -164.5 -102s-121.667 -49.5 -188 -64.5s-136.166 -22.5 -209.499 -22.5c-85.333 0 -167.333 10.833 -246 32.5
s-152 52.167 -220 91.5s-130 86.666 -186 141.999s-103.833 116.833 -143.5 184.5s-70.334 140.5 -92.001 218.5s-32.5 159.333 -32.5 244c0 84 11 165.167 33 243.5s53 151.5 93 219.5s87.833 130 143.5 186s117.667 103.833 186 143.5s141.666 70.5 219.999 92.5
s159.833 33 244.5 33c84 0 164.667 -9.66699 242 -29s149.5 -46.5 216.5 -81.5s127.833 -76.833 182.5 -125.5s101.334 -102.667 140.001 -162s68.667 -122.833 90 -190.5s32 -137.834 32 -210.501c0 -107.333 -14.5 -200.5 -43.5 -279.5s-67 -144.833 -114 -197.5
s-100.333 -91.834 -160 -117.501s-120.5 -38.5 -182.5 -38.5c-34.667 0 -64.834 4 -90.501 12s-47.5 18.667 -65.5 32s-32.667 28.5 -44 45.5s-19.666 34.5 -24.999 52.5c-17.333 -19.333 -36.5 -37.5 -57.5 -54.5s-44.333 -31.833 -70 -44.5s-54.167 -22.667 -85.5 -30
s-66.333 -11 -105 -11c-58.667 0 -109 11.333 -151 34s-76.333 52.667 -103 90s-46.167 80 -58.5 128s-18.5 97.333 -18.5 148c0 51.333 5.33301 102.166 16 152.499s26.167 98.5 46.5 144.5s45.333 88.667 75 128s63.667 73.5 102 102.5s80.833 51.667 127.5 68
s97 24.5 151 24.5c42 0 81 -8 117 -24s64.333 -36.667 85 -62l15 72h194l-143 -729c-2.66699 -15.333 -2.83398 -30.5 -0.500977 -45.5s7.33301 -28.5 15 -40.5s17.834 -21.833 30.501 -29.5s28.334 -11.5 47.001 -11.5c42.667 0 83.667 10 123 30s74 50 104 90
s54 90.167 72 150.5s27 130.5 27 210.5z" />
    <glyph glyph-name="A" unicode="A" horiz-adv-x="1225" 
d="M897 344h-571l-127 -344h-207l524 1380h195l522 -1380h-207zM397 532h428l-215 574z" />
    <glyph glyph-name="B" unicode="B" horiz-adv-x="1296" 
d="M748 1380c76 0 140.332 -10.667 192.999 -32s95.667 -49.5 129 -84.5s57.5 -74.667 72.5 -119s22.5 -89.833 22.5 -136.5c0 -26.667 -3 -53.334 -9 -80.001s-15.5 -52.5 -28.5 -77.5s-29.5 -48.667 -49.5 -71s-44 -42.5 -72 -60.5c34 -17.333 63 -37.666 87 -60.999
s43.667 -48.5 59 -75.5s26.5 -55.167 33.5 -84.5s10.5 -58.666 10.5 -87.999c0 -46 -7.66699 -93.333 -23 -142s-39.666 -92.834 -72.999 -132.501s-76.5 -72.167 -129.5 -97.5s-117.167 -38 -192.5 -38h-626v1380h596zM353.999 1190v-382.999h414
c36.667 0 67.5 6.33301 92.5 19s45 28.834 60 48.501s25.833 41.334 32.5 65.001s10 46.5 10 68.5c0 25.333 -3.66699 49.166 -11 71.499s-19.5 41.666 -36.5 57.999s-39.5 29.166 -67.5 38.499s-62.333 14 -103 14h-391zM353.999 621.001v-430.999h422
c40.667 0 74.667 6.83301 102 20.5s49.333 31.167 66 52.5s28.667 45 36 71s11 51.333 11 76c0 23.333 -3.66699 47.5 -11 72.5s-19.333 47.667 -36 68s-38.667 37.166 -66 50.499s-61.333 20 -102 20h-422z" />
    <glyph glyph-name="C" unicode="C" horiz-adv-x="1272" 
d="M1004 965c-8.66699 37.333 -22.5029 71.3301 -41.5029 101.997s-42.833 56.834 -71.5 78.501s-62.167 38.5 -100.5 50.5s-81.166 18 -128.499 18c-63.333 0 -118.833 -11.5 -166.5 -34.5s-87.167 -56.667 -118.5 -101s-54.833 -99 -70.5 -164
s-23.5 -139.167 -23.5 -222.5c0 -170 31 -300.167 93 -390.5s156.333 -135.5 283 -135.5c96.667 0 173.667 22.5 231 67.5s97.333 109.167 120 192.5h207c-10.667 -65.333 -31 -125.666 -61 -180.999s-68.667 -103 -116 -143s-103 -71.167 -167 -93.5
s-135.333 -33.5 -214 -33.5c-95.333 0 -179.166 16.833 -251.499 50.5s-132.833 81.834 -181.5 144.501s-85.5 138 -110.5 226s-37.5 186.667 -37.5 296c0 108.667 12.667 207 38 295s62.833 163 112.5 225s110.834 109.667 183.501 143s156 50 250 50
c78.667 0 149.5 -11.167 212.5 -33.5s117.833 -53 164.5 -92s84.5 -85.5 113.5 -139.5s48.833 -112.333 59.5 -175h-208z" />
    <glyph glyph-name="D" unicode="D" horiz-adv-x="1331" 
d="M668 1380c96.667 0 181.5 -16.999 254.5 -50.999s134 -81 183 -141s85.833 -130.667 110.5 -212s37 -169 37 -263c0 -108.667 -12.5 -206.834 -37.5 -294.501s-62.333 -162.5 -112 -224.5s-111.167 -109.833 -184.5 -143.5s-158.333 -50.5 -255 -50.5h-512v1380h516z
M354 1190l0.00195312 -999.999h318c128 0 222.833 44.167 284.5 132.5s92.5 217.166 92.5 386.499c0 72 -7.83301 137.5 -23.5 196.5s-39.334 109.667 -71.001 152s-71.334 75 -119.001 98s-103.5 34.5 -167.5 34.5h-314z" />
    <glyph glyph-name="E" unicode="E" horiz-adv-x="1180" 
d="M1096 1190h-742v-391h611v-191h-611v-418h742v-190h-944v1380h944v-190z" />
    <glyph glyph-name="F" unicode="F" horiz-adv-x="1116" 
d="M1073 1190h-719v-391h594v-191h-594v-608h-202v1380h921v-190z" />
    <glyph glyph-name="G" unicode="G" horiz-adv-x="1315" 
d="M1006 965c-8.66699 37.333 -22.335 71.334 -41.002 102.001s-42.167 56.834 -70.5 78.501s-61.166 38.5 -98.499 50.5s-79.333 18 -126 18c-65.333 0 -122.333 -11.5 -171 -34.5s-89 -56.667 -121 -101s-55.833 -99 -71.5 -164s-23.5 -139.167 -23.5 -222.5
c0 -170 33.167 -300.5 99.5 -391.5s163.5 -136.5 291.5 -136.5c61.333 0 113.833 9.66699 157.5 29s79.334 45.333 107.001 78s47.834 70.5 60.501 113.5s19 88.167 19 135.5v51h-430v189h633v-242c0 -76.667 -12.333 -148.167 -37 -214.5s-60.667 -124 -108 -173
s-105.166 -87.5 -173.499 -115.5s-145.833 -42 -232.5 -42c-96 0 -180.833 17 -254.5 51s-135.5 82.333 -185.5 145s-87.833 138.167 -113.5 226.5s-38.5 187.166 -38.5 296.499c0 108.667 12.833 207 38.5 295s63.5 163 113.5 225s111.833 109.667 185.5 143
s158.5 50 254.5 50c77.333 0 147.333 -11.333 210 -34s117.167 -53.834 163.5 -93.501s83.666 -86.167 111.999 -139.5s47.166 -111 56.499 -173h-206z" />
    <glyph glyph-name="H" unicode="H" horiz-adv-x="1319" 
d="M1167 0h-202v608h-611v-608h-202v1380h202v-581h611v581h202v-1380z" />
    <glyph glyph-name="I" unicode="I" horiz-adv-x="506" 
d="M354 0h-202v1380h202v-1380z" />
    <glyph glyph-name="J" unicode="J" horiz-adv-x="915" 
d="M180 369c0.666992 -26 5.49805 -51.166 14.498 -75.499s21.833 -46.166 38.5 -65.499s36.834 -34.833 60.501 -46.5s50.834 -17.5 81.501 -17.5c32.667 0 61.334 5.5 86.001 16.5s45.167 26.167 61.5 45.5s28.5 42.166 36.5 68.499s12 55.166 12 86.499v999h203v-999
c0 -54 -8 -105.5 -24 -154.5s-40.5 -92.167 -73.5 -129.5s-74.5 -67 -124.5 -89s-109 -33 -177 -33c-65.333 0 -122.333 10.833 -171 32.5s-89.334 50.834 -122.001 87.501s-57.667 78.667 -75 126s-27.333 96.666 -30 147.999h203z" />
    <glyph glyph-name="K" unicode="K" horiz-adv-x="1257" 
d="M354 719l594 661h258l-504 -551l553 -829h-241l-449 680l-211 -231v-449h-202v1380h202v-661z" />
    <glyph glyph-name="L" unicode="L" horiz-adv-x="1061" 
d="M354 190h711v-190h-913v1380h202v-1190z" />
    <glyph glyph-name="M" unicode="M" horiz-adv-x="1606" 
d="M1454 0h-203v969l-366 -830h-164l-367 830v-969h-202v1380h225l426 -1003l426 1003h225v-1380z" />
    <glyph glyph-name="N" unicode="N" horiz-adv-x="1321" 
d="M1169 0h-202l-613 1016v-1016h-202v1380h202l613 -1011v1011h202v-1380z" />
    <glyph glyph-name="O" unicode="O" horiz-adv-x="1321" 
d="M659 1405c98 0 183.499 -18.665 256.499 -55.998s133.833 -87.833 182.5 -151.5s85 -137.667 109 -222s36 -173.833 36 -268.5c0 -109.333 -12.167 -209 -36.5 -299s-61 -167.333 -110 -232s-110 -114.667 -183 -150s-157.833 -53 -254.5 -53
c-95.333 0 -179.166 17.5 -251.499 52.5s-132.833 84.167 -181.5 147.5s-85.5 139.666 -110.5 228.999s-37.5 188.666 -37.5 297.999c0 107.333 13 204.5 39 291.5s63.833 161.167 113.5 222.5s110.5 108.5 182.5 141.5s154 49.5 246 49.5zM656.999 1214
c-61.333 0 -115.334 -11.3291 -162.001 -33.9961s-85.667 -55.834 -117 -99.501s-55 -97.334 -71 -161.001s-24 -136.834 -24 -219.501c0 -85.333 7.66699 -161.333 23 -228s38.5 -122.834 69.5 -168.501s70 -80.334 117 -104.001s101.833 -35.5 164.5 -35.5
c64.667 0 120.834 12 168.501 36s87.167 59 118.5 105s54.833 102.333 70.5 169s23.5 142.667 23.5 228c0 74 -7.5 142.167 -22.5 204.5s-38.167 116.333 -69.5 162s-70.833 81.334 -118.5 107.001s-104.5 38.5 -170.5 38.5z" />
    <glyph glyph-name="P" unicode="P" horiz-adv-x="1231" 
d="M731 1380c76 0 141.5 -12.833 196.5 -38.5s100.333 -58.667 136 -99s61.834 -85 78.501 -134s25 -96.833 25 -143.5c0 -44.667 -8.33301 -91 -25 -139s-42.834 -92 -78.501 -132s-81 -72.833 -136 -98.5s-120.5 -38.5 -196.5 -38.5h-377v-557h-202v1380h579zM354 1190
v-441.998h377c41.333 0 76.666 7 105.999 21s53.333 31.833 72 53.5s32.334 45.167 41.001 70.5s13 49.333 13 72c0 23.333 -4.33301 48.166 -13 74.499s-22.334 50.666 -41.001 72.999s-42.667 40.833 -72 55.5s-64.666 22 -105.999 22h-377z" />
    <glyph glyph-name="Q" unicode="Q" horiz-adv-x="1321" 
d="M659 1405c98 0 183.501 -18.667 256.501 -56s133.833 -87.833 182.5 -151.5s85 -137.667 109 -222s36 -173.833 36 -268.5c0 -101.333 -10.5 -194.5 -31.5 -279.5s-52.333 -159 -94 -222s-93.834 -113.833 -156.501 -152.5s-135.334 -62.334 -218.001 -71.001v-19
c0 -32 2.83301 -58.167 8.5 -78.5s13.667 -36.333 24 -48s22.5 -19.5 36.5 -23.5s29.333 -6 46 -6h166v-167c-15.333 -2 -31.666 -4 -48.999 -6c-14.667 -1.33301 -30.667 -2.5 -48 -3.5s-34 -1.5 -50 -1.5c-61.333 0 -113.333 7 -156 21s-77.167 35.667 -103.5 65
s-45.333 66.5 -57 111.5s-17.5 98.167 -17.5 159.5c-76.667 12.667 -144 38.667 -202 78s-106.5 89.833 -145.5 151.5s-68.333 133.334 -88 215.001s-29.5 171.5 -29.5 269.5c0 107.333 13 204.5 39 291.5s63.833 161.167 113.5 222.5s110.5 108.5 182.5 141.5
s154 49.5 246 49.5zM657.001 1214c-61.333 0 -115.334 -11.335 -162.001 -34.002s-85.667 -55.834 -117 -99.501s-55 -97.334 -71 -161.001s-24 -136.834 -24 -219.501c0 -85.333 7.66699 -161.166 23 -227.499s38.5 -122.166 69.5 -167.499s70 -79.833 117 -103.5
s101.833 -35.5 164.5 -35.5c64.667 0 120.834 11.833 168.501 35.5s87.167 58.334 118.5 104.001s54.833 101.834 70.5 168.501s23.5 142.667 23.5 228c0 74 -7.5 142.167 -22.5 204.5s-38.167 116.333 -69.5 162s-70.833 81.334 -118.5 107.001s-104.5 38.5 -170.5 38.5z
" />
    <glyph glyph-name="R" unicode="R" horiz-adv-x="1278" 
d="M737 1380c76 0 141.668 -12.833 197.001 -38.5s100.666 -58.667 135.999 -99s61.5 -85 78.5 -134s25.5 -96.833 25.5 -143.5c0 -36 -5.5 -73.167 -16.5 -111.5s-27.833 -75 -50.5 -110s-51.5 -66.667 -86.5 -95s-76.167 -50.5 -123.5 -66.5l338 -582h-231l-320 557h-330
v-557h-202v1380h585zM354.001 1190v-441.998h383c41.333 0 76.666 7 105.999 21s53.333 31.833 72 53.5s32.334 45.167 41.001 70.5s13 49.333 13 72c0 23.333 -4.33301 48.166 -13 74.499s-22.334 50.666 -41.001 72.999s-42.667 40.833 -72 55.5s-64.666 22 -105.999 22
h-383z" />
    <glyph glyph-name="S" unicode="S" horiz-adv-x="1180" 
d="M872 987c-2.66699 28.667 -9.33008 56.8291 -19.9971 84.4961s-27.167 52.5 -49.5 74.5s-51.333 39.667 -87 53s-79.5 20 -131.5 20c-41.333 0 -78.833 -4.16699 -112.5 -12.5s-62.5 -20.833 -86.5 -37.5s-42.667 -37 -56 -61s-20 -52 -20 -84
c0 -36.667 8 -66.167 24 -88.5s42 -41.5 78 -57.5s83 -31.333 141 -46l212 -54c46.667 -12 90.5 -28.333 131.5 -49s76.667 -46.667 107 -78s54.166 -69.166 71.499 -113.499s26 -96.5 26 -156.5c0 -60.667 -12.5 -116 -37.5 -166s-60.333 -93 -106 -129
s-100.334 -63.833 -164.001 -83.5s-134.5 -29.5 -212.5 -29.5c-62.667 0 -118.667 6.5 -168 19.5s-93 30.833 -131 53.5s-70.667 48.834 -98 78.501s-50.166 61 -68.499 94s-32.333 66.833 -42 101.5s-16.167 68 -19.5 100h211c4 -32.667 12.5 -64.5 25.5 -95.5
s32 -58.5 57 -82.5s56.5 -43.333 94.5 -58s83.667 -22 137 -22c46.667 0 89.5 5 128.5 15s72.5 24.333 100.5 43s49.667 41.667 65 69s23 58 23 92c0 42.667 -8 76.5 -24 101.5s-42.333 46.5 -79 64.5s-84.834 34.5 -144.501 49.5l-219.5 56.5
c-46.667 12 -89.667 28.667 -129 50s-73.333 47.333 -102 78s-51 66.167 -67 106.5s-24 85.833 -24 136.5c0 56 11.667 107.333 35 154s56.166 86.834 98.499 120.501s92.833 59.834 151.5 78.501s123 28 193 28c92.667 0 170 -13.167 232 -39.5
s111.833 -59.833 149.5 -100.5s65.167 -85.667 82.5 -135s28.333 -97 33 -143h-209z" />
    <glyph glyph-name="T" unicode="T" horiz-adv-x="1087" 
d="M1053 1190h-406v-1190h-203v1190h-409v190h1018v-190z" />
    <glyph glyph-name="U" unicode="U" horiz-adv-x="1300" 
d="M1161 518c0 -96 -13.167 -178.5 -39.5 -247.5s-62.666 -125.5 -108.999 -169.5s-100.833 -76.333 -163.5 -97s-130 -31 -202 -31s-138.833 10 -200.5 30s-115.334 51.833 -161.001 95.5s-81.5 100 -107.5 169s-39 152.5 -39 250.5v862h203v-856
c0 -122 25.5 -212.167 76.5 -270.5s127.167 -87.5 228.5 -87.5c103.333 0 181 29.167 233 87.5s78 148.5 78 270.5v856h203v-862z" />
    <glyph glyph-name="V" unicode="V" horiz-adv-x="1124" 
d="M659 0h-200l-463 1380h209l356 -1073l359 1073h206z" />
    <glyph glyph-name="W" unicode="W" horiz-adv-x="1640" 
d="M1284 0h-186l-277 1049l-284 -1049h-181l-356 1380h211l248 -1018l272 1018h178l275 -1015l248 1015h208z" />
    <glyph glyph-name="X" unicode="X" horiz-adv-x="1044" 
d="M528 877l297 503h232l-412 -684l428 -696h-229l-320 520l-317 -520h-230l433 705l-420 675h229z" />
    <glyph glyph-name="Y" unicode="Y" horiz-adv-x="1102" 
d="M-4 1380h229l326 -616l330 616h225l-453 -825v-555h-202v555z" />
    <glyph glyph-name="Z" unicode="Z" horiz-adv-x="1108" 
d="M1030 1204l-719 -1014h719v-190h-958v174l719 1016h-687v190h926v-176z" />
    <glyph glyph-name="bracketleft" unicode="[" horiz-adv-x="592" 
d="M612 1327h-270v-1497h270v-158h-448v1813h448v-158z" />
    <glyph glyph-name="backslash" unicode="\" horiz-adv-x="901" 
d="M37 1380h186l637 -1380h-186z" />
    <glyph glyph-name="bracketright" unicode="]" horiz-adv-x="592" 
d="M428 -328h-451v156h271v1499h-271v158h451v-1813z" />
    <glyph glyph-name="asciicircum" unicode="^" horiz-adv-x="977" 
d="M74 682l342 780h159l328 -780h-182l-229 543l-236 -543h-182z" />
    <glyph glyph-name="underscore" unicode="_" horiz-adv-x="907" 
d="M-16 -129h940v-158h-940v158z" />
    <glyph glyph-name="grave" unicode="`" horiz-adv-x="707" 
d="M309 1116l-227 264h221l201 -264h-195z" />
    <glyph glyph-name="a" unicode="a" horiz-adv-x="1081" 
d="M76 512c0 70 10.667 135.169 32 195.502s51.166 112.666 89.499 156.999s84.166 79 137.499 104s112.333 37.5 177 37.5c48 0 90.667 -8 128 -24s71 -39 101 -69v78h189v-768c0 -24.667 7 -41.667 21 -51s32.333 -14 55 -14h20v-156
c-4.66699 -1.33301 -10.667 -2.66602 -18 -3.99902c-6 -1.33301 -13.333 -2.33301 -22 -3s-18.667 -1 -30 -1c-45.333 0 -83.166 8.66699 -113.499 26s-53.833 46 -70.5 86c-32 -38.667 -71.167 -68.334 -117.5 -89.001s-96.5 -31 -150.5 -31
c-68.667 0 -129.667 12.833 -183 38.5s-98.166 61.667 -134.499 108s-63.833 101.666 -82.5 165.999s-28 135.5 -28 213.5zM266 508.002c0 -112 20.665 -198.001 61.998 -258.001s104.666 -90 189.999 -90c76.667 0 134.834 27.333 174.501 82s59.5 139.334 59.5 254.001
c0 114 -17.667 198.333 -53 253s-91.666 82 -168.999 82c-43.333 0 -81.333 -7.66699 -114 -23s-60.167 -37 -82.5 -65s-39.166 -61.833 -50.499 -101.5s-17 -84.167 -17 -133.5z" />
    <glyph glyph-name="b" unicode="b" horiz-adv-x="1061" 
d="M569 1006c65.333 0 123.668 -12.667 175.001 -38s94.666 -60.166 129.999 -104.499s62.333 -96.5 81 -156.5s28.667 -125 30 -195c0.666992 -80 -8.33301 -152.167 -27 -216.5s-46 -119.333 -82 -165s-80 -80.834 -132 -105.501s-110.333 -37 -175 -37
c-49.333 0 -94.833 9.16699 -136.5 27.5s-77.834 44.5 -108.501 78.5v-94h-189v1380h189v-477c30.667 34 66.834 59.667 108.501 77s87.167 26 136.5 26zM555.002 162c83.333 0 144.167 29.333 182.5 88s57.5 144.667 57.5 258c0 48 -5.16699 92 -15.5 132
s-25.5 74.333 -45.5 103s-45 51 -75 67s-64.667 24 -104 24c-79.333 0 -139.166 -27.833 -179.499 -83.5s-60.5 -140.5 -60.5 -254.5c0 -112 19.167 -195.667 57.5 -251s99.166 -83 182.499 -83z" />
    <glyph glyph-name="c" unicode="c" horiz-adv-x="979" 
d="M522 162c60 0 107.332 14.1709 141.999 42.5039s57 67.5 67 117.5h193c-10 -52 -26.333 -98.667 -49 -140s-51.167 -76.333 -85.5 -105s-73.833 -50.667 -118.5 -66s-93.667 -23 -147 -23c-69.333 0 -131.666 11.5 -186.999 34.5s-102.5 56.167 -141.5 99.5
s-69 96.5 -90 159.5s-31.5 134.5 -31.5 214.5s10.833 151.667 32.5 215s52.167 116.833 91.5 160.5s86.333 77 141 100s115 34.5 181 34.5c57.333 0 109 -8.33301 155 -25s85.833 -39.834 119.5 -69.501s61 -64.834 82 -105.501s35.5 -85.334 43.5 -134.001h-193
c-11.333 49.333 -33.833 88.166 -67.5 116.499s-80.834 42.5 -141.501 42.5c-78 0 -139.833 -27.5 -185.5 -82.5s-68.5 -139.167 -68.5 -252.5c0 -114.667 21.833 -199 65.5 -253s107.834 -81 192.501 -81z" />
    <glyph glyph-name="d" unicode="d" horiz-adv-x="1059" 
d="M489 1006c48.667 0 93.834 -8.66602 135.501 -25.999s78.5 -43 110.5 -77v477h189v-1380h-189v94c-32 -34 -68.833 -60.167 -110.5 -78.5s-86.834 -27.5 -135.501 -27.5c-66 0 -124.667 12.5 -176 37.5s-94.833 60.5 -130.5 106.5s-62.667 101.167 -81 165.5
s-27.5 135.833 -27.5 214.5c0 70 9.5 135 28.5 195s46.333 112.167 82 156.5s79.167 79.166 130.5 104.499s109.333 38 174 38zM506 162.001c80.667 0 140.334 27.667 179.001 83s58 139 58 251c0 114 -20.333 198.333 -61 253s-99.334 82 -176.001 82
c-40 0 -75.167 -7.83301 -105.5 -23.5s-55.5 -37.667 -75.5 -66s-35.167 -62.333 -45.5 -102s-15.5 -83.5 -15.5 -131.5c0 -110.667 19.5 -196 58.5 -256s100.167 -90 183.5 -90z" />
    <glyph glyph-name="e" unicode="e" horiz-adv-x="1018" 
d="M922 301c-29.333 -101.333 -77.833 -178.83 -145.5 -232.497s-155.167 -80.5 -262.5 -80.5c-68.667 0 -130.167 11.333 -184.5 34s-100.5 55.5 -138.5 98.5s-67 96 -87 159s-30 135.167 -30 216.5s10.833 153.666 32.5 216.999s52 116.666 91 159.999
s85.333 76.333 139 99s112.167 34 175.5 34c72.667 0 136 -12.833 190 -38.5s99 -61 135 -106s62.833 -98.167 80.5 -159.5s26.5 -127.333 26.5 -198c0 -17.333 -0.666992 -33.333 -2 -48s-2 -22.667 -2 -24h-672c4 -50.667 13 -93.334 27 -128.001s31.833 -62.5 53.5 -83.5
s46.667 -36 75 -45s58.5 -13.5 90.5 -13.5c52 0 96.667 10.833 134 32.5s64.333 57.167 81 106.5h193zM510 834.003c-32 0 -61.834 -5.66699 -89.501 -17s-52 -27.5 -73 -48.5s-38 -46.333 -51 -76s-21.167 -62.5 -24.5 -98.5h476c-2.66699 34 -9.16699 65.5 -19.5 94.5
s-25.166 54.333 -44.499 76s-43.333 38.667 -72 51s-62.667 18.5 -102 18.5z" />
    <glyph glyph-name="f" unicode="f" horiz-adv-x="643" 
d="M596 1225l-108.999 -0.000976562c-36 0 -62 -8.83301 -78 -26.5s-24 -48.5 -24 -92.5v-115h211v-172h-211v-819h-188v819h-150v172h150v96c0 58.667 7 107.834 21 147.501s34 71.667 60 96s57.667 41.833 95 52.5s79.666 16 126.999 16c13.333 0 26 -0.5 38 -1.5
s22.333 -2.16699 31 -3.5c10 -2 19 -3.66699 27 -5v-164z" />
    <glyph glyph-name="g" unicode="g" horiz-adv-x="1061" 
d="M297 -76c11.333 -41.333 34 -73.1689 68 -95.502s83 -33.5 147 -33.5c41.333 0 76.333 5.33301 105 16s51.834 27.5 69.501 50.5s30.5 52.5 38.5 88.5s12 79.333 12 130v37c-32 -36 -70 -64.5 -114 -85.5s-92 -31.5 -144 -31.5c-65.333 0 -123 12.333 -173 37
s-92.333 59.334 -127 104.001s-60.834 98.5 -78.501 161.5s-26.5 132.833 -26.5 209.5c0 68.667 9.33301 133 28 193s45.834 112.333 81.501 157s79.5 79.834 131.5 105.501s111 38.5 177 38.5c51.333 0 97 -9 137 -27s76 -44 108 -78v90h189v-911
c0 -150.667 -35.333 -264.5 -106 -341.5s-173.334 -115.5 -308.001 -115.5c-58 0 -110.5 7.5 -157.5 22.5s-87.5 35.667 -121.5 62s-61.5 58 -82.5 95s-34.833 77.5 -41.5 121.5h188zM264 511.997c0 -111.333 19.167 -195.501 57.5 -252.501s97.833 -85.5 178.5 -85.5
c78.667 0 139.167 26.667 181.5 80s63.5 135.333 63.5 246c0 112 -19 195.667 -57 251s-96.667 83 -176 83c-40 0 -75.5 -7.66699 -106.5 -23s-57 -37.166 -78 -65.499s-36.833 -62.333 -47.5 -102s-16 -83.5 -16 -131.5z" />
    <glyph glyph-name="h" unicode="h" horiz-adv-x="1049" 
d="M135 0l0.000976562 1380h189v-477c32 33.333 70.167 58.833 114.5 76.5s92.833 26.5 145.5 26.5c56 0 105.167 -9.33301 147.5 -28s78 -44.834 107 -78.501s50.833 -73.834 65.5 -120.501s22 -98 22 -154v-625h-189v610c0 38.667 -5.16699 72.334 -15.5 101.001
s-24.166 52.167 -41.499 70.5s-37.333 32 -60 41s-46.334 13.5 -71.001 13.5c-68.667 0 -123.334 -23.833 -164.001 -71.5s-61 -122.834 -61 -225.501v-539h-189z" />
    <glyph glyph-name="i" unicode="i" horiz-adv-x="465" 
d="M326 0h-189v991h189v-991zM328 1145h-193v235h193v-235z" />
    <glyph glyph-name="j" unicode="j" horiz-adv-x="465" 
d="M330 1145h-193v235h193v-235zM328 -109c0 -56 -8 -101.332 -24 -135.999s-36.833 -61.667 -62.5 -81s-54.5 -32.333 -86.5 -39s-64 -10 -96 -10c-26 0 -47.333 1.66699 -64 5c-8.66699 1.33301 -16.667 3 -24 5v160h54c16 0 31 0.833008 45 2.5s26.167 5.5 36.5 11.5
s18.333 14.667 24 26s8.5 26.666 8.5 45.999v1110h189v-1100z" />
    <glyph glyph-name="k" unicode="k" horiz-adv-x="965" 
d="M571 590l408 -590h-234l-307 457l-114 -119v-338h-189v1380h189v-802l385 413h233z" />
    <glyph glyph-name="l" unicode="l" horiz-adv-x="502" 
d="M317 256c0 -19.333 1.83398 -35.001 5.50098 -47.001s9.16699 -21.333 16.5 -28s16.833 -11.167 28.5 -13.5s25.167 -3.5 40.5 -3.5h30v-160c-4 -2 -9.33301 -3.66699 -16 -5c-12 -3.33301 -30.333 -5 -55 -5c-30.667 0 -60.334 3.33301 -89.001 10
s-54 19.834 -76 39.501s-39.667 47 -53 82s-20 80.5 -20 136.5v1118h188v-1124z" />
    <glyph glyph-name="m" unicode="m" horiz-adv-x="1548" 
d="M135 0v990.998h189v-88c30.667 33.333 66.167 58.833 106.5 76.5s85.166 26.5 134.499 26.5c60.667 0 114 -11.333 160 -34s80.667 -58 104 -106c33.333 48.667 73.333 84.167 120 106.5s101 33.5 163 33.5c54.667 0 101.667 -9.33301 141 -28s71.833 -44.667 97.5 -78
s44.5 -73.166 56.5 -119.499s18 -97.5 18 -153.5v-627h-188v610c0 79.333 -14.333 136.833 -43 172.5s-69 53.5 -121 53.5c-65.333 0 -113.666 -26.5 -144.999 -79.5s-47 -135.833 -47 -248.5v-508h-189v610c0 79.333 -14.667 136.833 -44 172.5s-70 53.5 -122 53.5
c-64 0 -113.667 -24.167 -149 -72.5s-53 -123.166 -53 -224.499v-539h-189z" />
    <glyph glyph-name="n" unicode="n" horiz-adv-x="1049" 
d="M135 0l0.00390625 991h189v-86c66 67.333 153.333 101 262 101c56 0 105.167 -9.33301 147.5 -28s77.666 -44.834 105.999 -78.501s49.833 -73.834 64.5 -120.501s22 -98 22 -154v-625h-189v610c0 30.667 -3.83301 59.667 -11.5 87s-19.334 51.333 -35.001 72
s-35.167 37 -58.5 49s-51 18 -83 18c-34 0 -64.833 -5.83301 -92.5 -17.5s-51.334 -29.667 -71.001 -54s-34.834 -55.166 -45.501 -92.499s-16 -81.666 -16 -132.999v-539h-189z" />
    <glyph glyph-name="o" unicode="o" horiz-adv-x="1026" 
d="M514 1006c68.667 0 130 -12.667 184 -38s99.833 -60.333 137.5 -105s66.5 -97.667 86.5 -159s30 -128 30 -200c0 -81.333 -10.333 -153.833 -31 -217.5s-50 -117.667 -88 -162s-84 -78.166 -138 -101.499s-114.333 -35 -181 -35c-68.667 0 -130.167 11.667 -184.5 35
s-100.5 57.166 -138.5 101.499s-67 98.333 -87 162s-30 136.167 -30 217.5c0 78 10.667 148.167 32 210.5s51.5 115 90.5 158s85.333 76 139 99s113.167 34.5 178.5 34.5zM514 162c82.667 0 144.667 27.5 186 82.5s62 140.833 62 257.5
c0 50.667 -5.16699 96.334 -15.5 137.001s-26 75.167 -47 103.5s-47 50.166 -78 65.499s-66.833 23 -107.5 23c-77.333 0 -138.333 -27.167 -183 -81.5s-67 -136.833 -67 -247.5c0 -116.667 20.833 -202.5 62.5 -257.5s104.167 -82.5 187.5 -82.5z" />
    <glyph glyph-name="p" unicode="p" horiz-adv-x="1055" 
d="M573 -12c-50 0 -96.332 9.66699 -138.999 29s-79.334 46.333 -110.001 81v-460h-189v1353h189v-94c30.667 35.333 67.334 62.333 110.001 81s89 28 139 28c63.333 0 120.333 -12.5 171 -37.5s93.5 -59.833 128.5 -104.5s61.833 -98.167 80.5 -160.5
s28 -130.833 28 -205.5c0 -74 -9 -142.333 -27 -205s-44.333 -116.5 -79 -161.5s-77.334 -80.167 -128.001 -105.5s-108.667 -38 -174 -38zM559.001 831c-82.667 0 -143.667 -26.998 -183 -80.998s-59 -136.667 -59 -248c0 -114 20.5 -199.5 61.5 -256.5
s101.167 -85.5 180.5 -85.5c41.333 0 76.666 7.83301 105.999 23.5s53.333 38.167 72 67.5s32.334 65.166 41.001 107.499s13 90.166 13 143.499c0 103.333 -19.167 184 -57.5 242s-96.5 87 -174.5 87z" />
    <glyph glyph-name="q" unicode="q" horiz-adv-x="1061" 
d="M487 -12c-65.333 0 -123.67 12.835 -175.003 38.502s-94.666 61.167 -129.999 106.5s-62.166 99.166 -80.499 161.499s-27.5 130.166 -27.5 203.499c0 74.667 9.33301 143.167 28 205.5s45.834 115.833 81.501 160.5s79 79.5 130 104.5s108.833 37.5 173.5 37.5
c50.667 0 97 -9.33301 139 -28s79 -45.667 111 -81v94h189v-1356h-189v463c-32 -34.667 -69 -61.667 -111 -81s-88.333 -29 -139 -29zM505.996 834.002c-41.333 0 -77.166 -7.99902 -107.499 -23.999s-55.5 -38.5 -75.5 -67.5s-34.833 -64.333 -44.5 -106
s-14.5 -87.834 -14.5 -138.501c0 -52 4.83301 -98.833 14.5 -140.5s24.5 -77 44.5 -106s45.167 -51.167 75.5 -66.5s66.166 -23 107.499 -23c76.667 0 135.334 27.333 176.001 82s61 138.667 61 252c0 111.333 -19.333 195.5 -58 252.5s-98.334 85.5 -179.001 85.5z" />
    <glyph glyph-name="r" unicode="r" horiz-adv-x="668" 
d="M135 0v990.999h189v-137c30.667 48 66.667 85.333 108 112s87 40 137 40c14 0 26.5 -0.666992 37.5 -2s20.5 -2.66602 28.5 -3.99902c8.66699 -2 16.667 -3.66699 24 -5v-188h-61c-40 0 -76.833 -5 -110.5 -15s-62.5 -27.5 -86.5 -52.5s-42.833 -58.5 -56.5 -100.5
s-20.5 -94.667 -20.5 -158v-481h-189z" />
    <glyph glyph-name="s" unicode="s" horiz-adv-x="924" 
d="M649 682c-4 48 -21.6689 86.6631 -53.002 115.996s-79.666 44 -144.999 44c-30 0 -55.5 -3.83301 -76.5 -11.5s-38.333 -17.334 -52 -29.001s-23.667 -24.667 -30 -39s-9.5 -28.166 -9.5 -41.499c0 -23.333 5.16699 -41.333 15.5 -54s28 -24 53 -34s58.167 -20 99.5 -30
s93 -23.333 155 -40c36.667 -10 70.167 -22.333 100.5 -37s56.333 -33 78 -55s38.334 -48.167 50.001 -78.5s17.5 -66.166 17.5 -107.499c0 -42 -8.66699 -81.167 -26 -117.5s-42.666 -67.666 -75.999 -93.999s-74.166 -47.166 -122.499 -62.499s-103.833 -23 -166.5 -23
c-58 0 -110.5 8.16699 -157.5 24.5s-87.333 38.833 -121 67.5s-60 62.667 -79 102s-29.5 81.666 -31.5 126.999h190c3.33301 -47.333 21.666 -84.666 54.999 -111.999s82 -41 146 -41c66 0 116.333 11 151 33s52 50.333 52 85c0 22.667 -4 40.667 -12 54
s-23.333 25.333 -46 36s-54.5 21.334 -95.5 32.001l-160.5 42c-37.333 10 -71.666 22.5 -102.999 37.5s-58.333 33.333 -81 55s-40.334 47.167 -53.001 76.5s-19 63.333 -19 102c0 34 7 68.667 21 104s35.667 67.333 65 96s66.666 52 111.999 70s99.666 27 162.999 27
c60 0 113.333 -8.16699 160 -24.5s86 -39 118 -68s56.833 -63.167 74.5 -102.5s27.834 -82.333 30.501 -129h-191z" />
    <glyph glyph-name="t" unicode="t" horiz-adv-x="668" 
d="M387 991l213 -0.000976562v-172h-213v-563c0 -19.333 2.5 -35 7.5 -47s12.167 -21.333 21.5 -28s20.5 -11.167 33.5 -13.5s27.167 -3.5 42.5 -3.5h67v-160c-10 -2 -21 -3.66699 -33 -5c-10 -1.33301 -21.167 -2.5 -33.5 -3.5s-24.833 -1.5 -37.5 -1.5
c-32 0 -63.333 3.33301 -94 10s-58 19.834 -82 39.501s-43.333 47 -58 82s-22 80.5 -22 136.5v557h-158v172h158v383h188v-383z" />
    <glyph glyph-name="u" unicode="u" horiz-adv-x="1049" 
d="M123 991l187.994 0.000976562v-608c0 -39.333 5.16699 -73 15.5 -101s24.333 -51.333 42 -70s37.834 -32.334 60.501 -41.001s46.334 -13 71.001 -13c34.667 0 65.834 6 93.501 18s51.334 30.667 71.001 56s34.667 57.666 45 96.999s15.5 86.666 15.5 141.999v520h188
v-991h-188v90c-33.333 -34 -72.166 -59.5 -116.499 -76.5s-92.166 -25.5 -143.499 -25.5c-56 0 -105.167 9.16699 -147.5 27.5s-78 44.333 -107 78s-50.833 73.834 -65.5 120.501s-22 98.334 -22 155.001v622z" />
    <glyph glyph-name="v" unicode="v" horiz-adv-x="907" 
d="M549 0h-191l-350 991h207l238 -735l241 735h205z" />
    <glyph glyph-name="w" unicode="w" horiz-adv-x="1358" 
d="M1049 0h-166l-205 686l-203 -686h-166l-291 991h205l174 -680l199 680h166l199 -680l176 680h202z" />
    <glyph glyph-name="x" unicode="x" horiz-adv-x="913" 
d="M31 991h221l207 -315l217 315h219l-330 -475l348 -516h-219l-235 358l-244 -358h-215l348 514z" />
    <glyph glyph-name="y" unicode="y" horiz-adv-x="907" 
d="M481 -199c-19.333 -57.333 -48.501 -100.667 -87.501 -130s-94.5 -44 -166.5 -44c-23.333 0 -41 1 -53 3c-7.33301 0.666992 -13.333 1.66699 -18 3v166l71 2c14 0 25.833 1.83301 35.5 5.5s18 9 25 16s12.833 15.5 17.5 25.5s9.33398 21.667 14.001 35l41 115l-352 993
h207l242 -729l237 729h205z" />
    <glyph glyph-name="z" unicode="z" horiz-adv-x="920" 
d="M844 834l-537 -662h533v-172h-770v162l542 657h-520v172h752v-157z" />
    <glyph glyph-name="braceleft" unicode="{" horiz-adv-x="569" 
d="M565 1352c-43.333 0 -79.5 -7.32715 -108.5 -21.9941s-52.5 -34.334 -70.5 -59.001s-30.833 -52.834 -38.5 -84.501s-11.5 -64.834 -11.5 -99.501v-317c0 -14 -1.66699 -29.833 -5 -47.5s-8.33301 -35.167 -15 -52.5s-14.5 -33.333 -23.5 -48s-19.167 -26 -30.5 -34
c15.333 -6.66699 27.833 -16.834 37.5 -30.501s17.167 -28.667 22.5 -45s9 -33.5 11 -51.5s3 -35 3 -51v-324c0 -34 3.83301 -67 11.5 -99s20.5 -60.167 38.5 -84.5s41.5 -43.833 70.5 -58.5s65.167 -22 108.5 -22v-150c-68.667 0 -129 10.667 -181 32
s-95.5 50.5 -130.5 87.5s-61.5 80.5 -79.5 130.5s-27 103.333 -27 160v330c0 41.333 -8 70.666 -24 87.999s-42.667 26.666 -80 27.999v123c37.333 1.33301 64 10.833 80 28.5s24 47.167 24 88.5v324c0 57.333 9 110.833 27 160.5s44.5 92.667 79.5 129s78.5 65 130.5 86
s112.333 31.5 181 31.5v-147z" />
    <glyph glyph-name="bar" unicode="|" horiz-adv-x="489" 
d="M334 -158h-178v1659h178v-1659z" />
    <glyph glyph-name="braceright" unicode="}" horiz-adv-x="569" 
d="M524 528c-36 -1.33301 -62.001 -10.6729 -78.001 -28.0059s-24 -46.666 -24 -87.999v-330c0 -56.667 -9 -110 -27 -160s-44.667 -93.5 -80 -130.5s-79 -66.167 -131 -87.5s-112 -32 -180 -32v150c42.667 0 78.667 7.33301 108 22s52.666 34.167 69.999 58.5
s29.833 52.5 37.5 84.5s11.5 65 11.5 99v324c0 16 1.16699 33 3.5 51s6.16602 35.167 11.499 51.5s12.833 31.333 22.5 45s21.834 23.834 36.501 30.501c-11.333 7.33301 -21.5 18.333 -30.5 33s-16.833 30.667 -23.5 48s-11.667 35 -15 53s-5 34 -5 48v317
c0 34.667 -3.83301 67.834 -11.5 99.501s-20.167 59.834 -37.5 84.501s-40.666 44.334 -69.999 59.001s-65.333 22 -108 22v147c68 0 128 -10.5 180 -31.5s95.667 -49.667 131 -86s62 -79.333 80 -129s27 -103.167 27 -160.5v-324c0 -42 8.33301 -71.667 25 -89
s42.334 -26.666 77.001 -27.999v-123z" />
    <glyph glyph-name="asciitilde" unicode="~" horiz-adv-x="1034" 
d="M958 668c-4 -35.333 -12.8359 -68.499 -26.5029 -99.499s-31.667 -58 -54 -81s-48.666 -41.333 -78.999 -55s-63.833 -20.5 -100.5 -20.5c-27.333 0 -57.166 4.83301 -89.499 14.5s-64.666 20.5 -96.999 32.5s-63.333 22.833 -93 32.5s-55.167 14.5 -76.5 14.5
c-10 0 -19.833 -1.66699 -29.5 -5s-18.834 -8.5 -27.501 -15.5s-16 -15.833 -22 -26.5s-10.333 -23.667 -13 -39h-176c5.33301 36 16 69.333 32 100s35.833 57.167 59.5 79.5s50.5 39.666 80.5 51.999s62 18.5 96 18.5c28 0 58.167 -5 90.5 -15s64.5 -20.833 96.5 -32.5
l92.5 -32.5c29.667 -10 55.834 -15 78.501 -15c25.333 0 45.5 8.5 60.5 25.5s24.167 39.5 27.5 67.5h170z" />
    <glyph glyph-name="exclamdown" unicode="&#xa1;" horiz-adv-x="545" 
d="M203 621h149l27 -1010h-205zM178 739v252h199v-252h-199z" />
    <glyph glyph-name="cent" unicode="&#xa2;" horiz-adv-x="973" 
d="M588 1004c50.667 -4.66699 96.668 -16.1621 138.001 -34.4951s77.5 -42 108.5 -71s56.167 -62.833 75.5 -101.5s32.666 -80.334 39.999 -125.001h-192c-10.667 42 -30.167 76.5 -58.5 103.5s-65.5 44.167 -111.5 51.5v-663c47.333 7.33301 85.833 24.666 115.5 51.999
s49.167 62.666 58.5 105.999h192c-9.33301 -48.667 -24.666 -92.667 -45.999 -132s-47.833 -73.333 -79.5 -102s-67.834 -51.334 -108.501 -68.001s-84.667 -26.667 -132 -30v-164h-125v166c-59.333 6.66699 -112.833 23.167 -160.5 49.5s-88.5 61 -122.5 104
s-60.167 94 -78.5 153s-27.5 124.833 -27.5 197.5s9.5 138.5 28.5 197.5s45.667 110 80 153s75.333 77.667 123 104s100.167 43.166 157.5 50.499v166h125v-163zM264.001 496.005c0 -98 17.5 -173.502 52.5 -226.502s83.833 -86.833 146.5 -101.5v657
c-60.667 -13.333 -109 -47.166 -145 -101.499s-54 -130.166 -54 -227.499z" />
    <glyph glyph-name="sterling" unicode="&#xa3;" horiz-adv-x="1001" 
d="M748 1024c-7.33301 60.667 -26.499 108.334 -57.499 143.001s-78.167 52 -141.5 52c-35.333 0 -66 -5.33301 -92 -16s-47.667 -25.834 -65 -45.501s-30.333 -43.167 -39 -70.5s-13 -58 -13 -92v-211h412v-133h-412v-327c0 -30 -3 -56.833 -9 -80.5
s-15.333 -42.834 -28 -57.501h631v-186h-897v186c37.333 0 64 9 80 27s24 48 24 90v348h-86v133h86v215c0 56.667 9 109.834 27 159.501s44.5 93 79.5 130s77.667 66 128 87s108.166 31.5 173.499 31.5c59.333 0 112.5 -9.83301 159.5 -29.5s87.167 -46.667 120.5 -81
s59.833 -74.833 79.5 -121.5s32.167 -97 37.5 -151h-198z" />
    <glyph glyph-name="yen" unicode="&#xa5;" horiz-adv-x="1102" 
d="M397 651h-301v133h228l-328 596h229l326 -616l330 616h225l-328 -596h226v-133h-297l-54 -96v-72h351v-133h-351v-350h-202v350h-355v133h355v72z" />
    <glyph glyph-name="brokenbar" unicode="&#xa6;" horiz-adv-x="481" 
d="M319 776h-180v725h180v-725zM319 -158h-180v725h180v-725z" />
    <glyph glyph-name="section" unicode="&#xa7;" horiz-adv-x="1018" 
d="M942 610c0 -57.333 -15.6729 -108.496 -47.0059 -153.496s-76.333 -79.833 -135 -104.5c28.667 -25.333 51.834 -55.666 69.501 -90.999s26.5 -76.666 26.5 -123.999c0 -41.333 -7.66699 -80.833 -23 -118.5s-38 -70.834 -68 -99.501s-67 -51.334 -111 -68.001
s-94.667 -25 -152 -25c-54 0 -102.5 8.16699 -145.5 24.5s-79.5 38.833 -109.5 67.5s-53 62.667 -69 102s-24 81.666 -24 126.999h192c0.666992 -23.333 5 -44.5 13 -63.5s19 -35.167 33 -48.5s30.5 -23.5 49.5 -30.5s39.167 -10.5 60.5 -10.5
c30 0 55.167 4.16699 75.5 12.5s37 19.166 50 32.499s22.5 28 28.5 44s9.33301 32 10 48c1.33301 30 -5.66699 56.167 -21 78.5s-42.666 40.5 -81.999 54.5l-143 54.5l-139 54.5c-27.333 11.333 -53.333 25.333 -78 42s-46.5 36 -65.5 58s-34 46.833 -45 74.5
s-16.5 58.167 -16.5 91.5c0 28 3.5 55.667 10.5 83s18.167 53 33.5 77s35 45.667 59 65s53 35 87 47c-24.667 25.333 -44.167 54.166 -58.5 86.499s-21.5 69.166 -21.5 110.499c0 37.333 6.66699 73.833 20 109.5s33.833 67.5 61.5 95.5s62.834 50.667 105.501 68
s93.667 26 153 26c106 0 187.5 -28.167 244.5 -84.5s85.5 -136.166 85.5 -239.499h-190c0.666992 21.333 -1.16602 41.666 -5.49902 60.999s-12.166 36.333 -23.499 51s-26.666 26.334 -45.999 35.001s-43.666 13 -72.999 13c-25.333 0 -46.833 -3.66699 -64.5 -11
s-32 -16.833 -43 -28.5s-19 -24.834 -24 -39.501s-7.5 -29.334 -7.5 -44.001c0 -30.667 6.66699 -55.667 20 -75s33.333 -34.666 60 -45.999l134 -54.5l140 -53.5c29.333 -10.667 56.666 -24 81.999 -40s47.5 -35.333 66.5 -58s33.833 -49.167 44.5 -79.5
s16 -64.833 16 -103.5zM673.994 721.004c-37.333 13.333 -77.3369 28.8301 -120.004 46.4971l-142 57.5c-27.333 -5.33301 -50.666 -14.166 -69.999 -26.499s-35.166 -26.666 -47.499 -42.999s-21.166 -33.5 -26.499 -51.5s-7.33301 -35 -6 -51c2 -30 12 -53.667 30 -71
s39.333 -31 64 -41l133.5 -58.5c45.667 -20.333 87.834 -37.833 126.501 -52.5c22.667 6 42.667 15.5 60 28.5s32 27.833 44 44.5s21 33.834 27 51.501s9 33.5 9 47.5c0 28 -7 52.5 -21 73.5s-34.333 36.167 -61 45.5z" />
    <glyph glyph-name="dieresis" unicode="&#xa8;" horiz-adv-x="887" 
d="M348 1159h-178v221h178v-221zM719 1159h-180v221h180v-221z" />
    <glyph glyph-name="copyright" unicode="&#xa9;" horiz-adv-x="1597" 
d="M1141 588c-7.33301 -47.333 -19.8311 -89.833 -37.498 -127.5s-40.5 -69.667 -68.5 -96s-61 -46.5 -99 -60.5s-81 -21 -129 -21c-54 0 -102.5 9.16699 -145.5 27.5s-79.5 45 -109.5 80s-53 77.667 -69 128s-24 107.5 -24 171.5c0 64.667 8 122.167 24 172.5s39 93 69 128
s66.5 61.667 109.5 80s91.5 27.5 145.5 27.5c48 0 91 -7.33301 129 -22s71 -35.334 99 -62.001s51 -58.167 69 -94.5s31 -75.833 39 -118.5h-164c-9.33301 44 -28 78.5 -56 103.5s-66.667 37.5 -116 37.5c-60.667 0 -106.5 -20 -137.5 -60s-46.5 -104 -46.5 -192
c0 -87.333 15.5 -151.166 46.5 -191.499s76.833 -60.5 137.5 -60.5c49.333 0 87.666 12.5 114.999 37.5s45.666 62.5 54.999 112.5h164zM80.002 688c0 66 8.50098 129.5 25.501 190.5s41.167 118 72.5 171s68.833 101.333 112.5 145s92.167 81.167 145.5 112.5
s110.666 55.5 171.999 72.5s125 25.5 191 25.5s129.667 -8.5 191 -25.5s118.666 -41.167 171.999 -72.5s101.833 -68.833 145.5 -112.5s81.167 -92 112.5 -145s55.5 -110 72.5 -171s25.5 -124.5 25.5 -190.5s-8.5 -129.5 -25.5 -190.5s-41.167 -118 -72.5 -171
s-68.833 -101.333 -112.5 -145s-92.167 -81.167 -145.5 -112.5s-110.666 -55.5 -171.999 -72.5s-125 -25.5 -191 -25.5c-66.667 0 -130.5 8.5 -191.5 25.5s-118.167 41.167 -171.5 72.5s-101.833 68.833 -145.5 112.5s-81.167 92 -112.5 145s-55.5 110 -72.5 171
s-25.5 124.5 -25.5 190.5zM217.003 688c0 -80 15.167 -155.5 45.5 -226.5s71.833 -133 124.5 -186s114.334 -94.833 185.001 -125.5s146.334 -46 227.001 -46c80 0 155.5 15.333 226.5 46s132.833 72.5 185.5 125.5s94.334 115 125.001 186s46 146.5 46 226.5
c0 80.667 -15.333 156.334 -46 227.001s-72.334 132.5 -125.001 185.5s-114.5 94.833 -185.5 125.5s-146.5 46 -226.5 46c-80.667 0 -156.334 -15.333 -227.001 -46s-132.334 -72.5 -185.001 -125.5s-94.167 -114.833 -124.5 -185.5s-45.5 -146.334 -45.5 -227.001z" />
    <glyph glyph-name="ordfeminine" unicode="&#xaa;" horiz-adv-x="801" 
d="M74 1049c0 46.667 7.33301 90.4971 22 131.497s35.334 76.833 62.001 107.5s58.5 54.667 95.5 72s78.167 26 123.5 26c30.667 0 58 -4 82 -12s46.333 -19.667 67 -35v39h152v-522c0 -13.333 4 -22.5 12 -27.5s17.667 -7.5 29 -7.5h33v-119
c-6 -1.33301 -12.667 -2.66602 -20 -3.99902c-6 -1.33301 -12.833 -2.33301 -20.5 -3s-15.5 -1 -23.5 -1c-28.667 0 -54.5 5.83301 -77.5 17.5s-40.833 27.834 -53.5 48.501c-22.667 -21.333 -49.334 -38.333 -80.001 -51s-64 -19 -100 -19
c-48 0 -90.833 8.83301 -128.5 26.5s-69.5 42.334 -95.5 74.001s-45.667 69.5 -59 113.5s-20 92.333 -20 145zM223 1047c0 -72.667 13.833 -128.502 41.5 -167.502s68.5 -58.5 122.5 -58.5c48 0 84.667 18 110 54s38 90.333 38 163c0 73.333 -11.667 127.833 -35 163.5
s-59.666 53.5 -108.999 53.5c-26.667 0 -50.334 -5.16699 -71.001 -15.5s-38.167 -24.666 -52.5 -42.999s-25.333 -40.166 -33 -65.499s-11.5 -53.333 -11.5 -84z" />
    <glyph glyph-name="guillemotleft" unicode="&#xab;" horiz-adv-x="1118" 
d="M1034 752l-315 -199l315 -201v-184l-483 307v162l483 301v-186zM565 752l-313 -199l313 -201v-184l-481 307v162l481 301v-186z" />
    <glyph glyph-name="logicalnot" unicode="&#xac;" horiz-adv-x="1137" 
d="M872 469h-792v176h975v-500h-183v324z" />
    <glyph glyph-name="registered" unicode="&#xae;" horiz-adv-x="1597" 
d="M858 1087c44 0 82.332 -7.5 114.999 -22.5s60 -34.333 82 -58s38.333 -50 49 -79s16 -57.5 16 -85.5c0 -19.333 -3.16699 -39.333 -9.5 -60s-15.166 -41 -26.499 -61s-25.5 -38.5 -42.5 -55.5s-35.833 -31.167 -56.5 -42.5l166 -316h-174l-148 289h-131v-289h-155v780
h315zM697.999 938v-194.999h160c18.667 0 34.667 2.83301 48 8.5s24 13.167 32 22.5s13.833 20 17.5 32s5.5 24 5.5 36c0 10.667 -1.83301 21.667 -5.5 33s-9.5 21.666 -17.5 30.999s-18.667 17 -32 23s-29.333 9 -48 9h-160zM79.999 688.001
c0 66 8.50098 129.5 25.501 190.5s41.167 118 72.5 171s68.833 101.333 112.5 145s92.167 81.167 145.5 112.5s110.666 55.5 171.999 72.5s125 25.5 191 25.5s129.667 -8.5 191 -25.5s118.666 -41.167 171.999 -72.5s101.833 -68.833 145.5 -112.5s81.167 -92 112.5 -145
s55.5 -110 72.5 -171s25.5 -124.5 25.5 -190.5s-8.5 -129.5 -25.5 -190.5s-41.167 -118 -72.5 -171s-68.833 -101.333 -112.5 -145s-92.167 -81.167 -145.5 -112.5s-110.666 -55.5 -171.999 -72.5s-125 -25.5 -191 -25.5c-66.667 0 -130.5 8.5 -191.5 25.5
s-118.167 41.167 -171.5 72.5s-101.833 68.833 -145.5 112.5s-81.167 92 -112.5 145s-55.5 110 -72.5 171s-25.5 124.5 -25.5 190.5zM217 688.001c0 -80 15.167 -155.5 45.5 -226.5s71.833 -133 124.5 -186s114.334 -94.833 185.001 -125.5s146.334 -46 227.001 -46
c80 0 155.5 15.333 226.5 46s132.833 72.5 185.5 125.5s94.334 115 125.001 186s46 146.5 46 226.5c0 80.667 -15.333 156.334 -46 227.001s-72.334 132.5 -125.001 185.5s-114.5 94.833 -185.5 125.5s-146.5 46 -226.5 46c-80.667 0 -156.334 -15.333 -227.001 -46
s-132.334 -72.5 -185.001 -125.5s-94.167 -114.833 -124.5 -185.5s-45.5 -146.334 -45.5 -227.001z" />
    <glyph glyph-name="macron" unicode="&#xaf;" horiz-adv-x="803" 
d="M109 1380h589v-168h-589v168z" />
    <glyph glyph-name="degree" unicode="&#xb0;" horiz-adv-x="750" 
d="M80 1094c0 40.667 7.83301 79 23.5 115s36.834 67.5 63.501 94.5s58 48.333 94 64s74.667 23.5 116 23.5s80.166 -7.83301 116.499 -23.5s67.833 -37 94.5 -64s47.667 -58.5 63 -94.5s23 -74.333 23 -115c0 -41.333 -7.66699 -80 -23 -116s-36.333 -67.333 -63 -94
s-58.167 -47.834 -94.5 -63.501s-75.166 -23.5 -116.499 -23.5s-80 7.83301 -116 23.5s-67.333 36.834 -94 63.501s-47.834 58 -63.501 94s-23.5 74.667 -23.5 116zM231 1094c0 -20.667 3.83301 -40 11.5 -58s18.167 -33.667 31.5 -47s28.833 -23.833 46.5 -31.5
s36.5 -11.5 56.5 -11.5s38.833 3.83301 56.5 11.5s33 18.167 46 31.5s23.333 29 31 47s11.5 37.333 11.5 58c0 20 -3.83301 38.833 -11.5 56.5s-18 33 -31 46s-28.333 23.333 -46 31s-36.5 11.5 -56.5 11.5s-38.833 -3.83301 -56.5 -11.5s-33.167 -18 -46.5 -31
s-23.833 -28.333 -31.5 -46s-11.5 -36.5 -11.5 -56.5z" />
    <glyph glyph-name="plusminus" unicode="&#xb1;" horiz-adv-x="1137" 
d="M1057 0h-979v174h979v-174zM475 287v284h-403v177h403v305h187v-305h399v-177h-399v-284h-187z" />
    <glyph glyph-name="two.superior" unicode="&#xb2;" horiz-adv-x="653" 
d="M246 961l345.999 0.00292969v-123h-500v118l97 89l42 39.5l44 41l42 40.5l37 38c28 29.333 50 57.833 66 85.5s24 56.5 24 86.5c0 33.333 -8.83301 60.166 -26.5 80.499s-46.167 30.5 -85.5 30.5c-32 0 -59 -8.83301 -81 -26.5s-34.667 -43.167 -38 -76.5h-141
c2.66699 33.333 10.834 64.166 24.501 92.499s31.834 52.666 54.501 72.999s49.167 36.166 79.5 47.499s64.166 17 101.499 17c41.333 0 77.833 -6.16699 109.5 -18.5s58 -29.333 79 -51s36.833 -46.834 47.5 -75.501s16 -59 16 -91c0 -27.333 -4.5 -53.166 -13.5 -77.499
s-20.667 -47.5 -35 -69.5s-30.5 -42.667 -48.5 -62s-36.333 -37.666 -55 -54.999z" />
    <glyph glyph-name="three.superior" unicode="&#xb3;" horiz-adv-x="682" 
d="M207 1042c8 -30.667 23.665 -53.9961 46.998 -69.9961s50 -24 80 -24c40 0 72.167 11.333 96.5 34s36.5 53.667 36.5 93c0 33.333 -11.667 60.166 -35 80.499s-54 30.5 -92 30.5h-90v110h76c34 0 62.167 9 84.5 27s33.5 42 33.5 72c0 16 -3 30 -9 42
s-14.167 21.833 -24.5 29.5s-22.333 13.334 -36 17.001s-28.5 5.5 -44.5 5.5c-25.333 0 -47.833 -6.66699 -67.5 -20s-32.834 -33.333 -39.501 -60h-139c4.66699 32 14.5 60.833 29.5 86.5s33.333 47.167 55 64.5s46.334 30.666 74.001 39.999s56.834 14 87.501 14
c35.333 0 68.333 -4.83301 99 -14.5s57.334 -23.834 80.001 -42.501s40.5 -41.667 53.5 -69s19.5 -59 19.5 -95c0 -31.333 -6.83301 -59.5 -20.5 -84.5s-32.167 -46.167 -55.5 -63.5c28.667 -18.667 52.5 -42.334 71.5 -71.001s28.5 -61.667 28.5 -99
c0 -38 -7.33301 -72.5 -22 -103.5s-34.334 -57.333 -59.001 -79s-53.5 -38.334 -86.5 -50.001s-67.833 -17.5 -104.5 -17.5c-72.667 0 -132.167 19.5 -178.5 58.5s-77.166 91.833 -92.499 158.5h144z" />
    <glyph glyph-name="acute" unicode="&#xb4;" horiz-adv-x="707" 
d="M209 1116l199 264h223l-230 -264h-192z" />
    <glyph glyph-name="mu" unicode="&#xb5;" horiz-adv-x="1042" 
d="M907 0h-187.998v76c-30 -29.333 -62 -51.666 -96 -66.999s-75.667 -23 -125 -23c-16 0 -32.333 1.5 -49 4.5s-32.834 7.33301 -48.501 13s-30.167 12.334 -43.5 20.001s-24.333 16.167 -33 25.5v-438h-189v1366h189v-600c0 -38 5 -70.833 15 -98.5
s23.5 -50.334 40.5 -68.001s36.5 -30.834 58.5 -39.501s45.333 -13 70 -13c31.333 0 60 5.16699 86 15.5s48.167 26.5 66.5 48.5s32.666 49.667 42.999 83s15.5 73 15.5 119v553h188v-977z" />
    <glyph glyph-name="mu" unicode="&#x3bc;" horiz-adv-x="1042" 
d="M907 0h-187.998v76c-30 -29.333 -62 -51.666 -96 -66.999s-75.667 -23 -125 -23c-16 0 -32.333 1.5 -49 4.5s-32.834 7.33301 -48.501 13s-30.167 12.334 -43.5 20.001s-24.333 16.167 -33 25.5v-438h-189v1366h189v-600c0 -38 5 -70.833 15 -98.5
s23.5 -50.334 40.5 -68.001s36.5 -30.834 58.5 -39.501s45.333 -13 70 -13c31.333 0 60 5.16699 86 15.5s48.167 26.5 66.5 48.5s32.666 49.667 42.999 83s15.5 73 15.5 119v553h188v-977z" />
    <glyph glyph-name="paragraph" unicode="&#xb6;" horiz-adv-x="1393" 
d="M1079 1188l-0.000976562 -1188h-205v1188h-241v-1188h-211v592c-52 2 -100.833 13.667 -146.5 35s-85.167 49.833 -118.5 85.5s-59.666 76.834 -78.999 123.501s-29 96.334 -29 149.001c0 54.667 10.333 106 31 154s48.667 89.833 84 125.5s77 63.834 125 84.501
s99 31 153 31h881v-192h-244z" />
    <glyph glyph-name="periodcentered" unicode="&#xb7;" horiz-adv-x="545" 
d="M375 745v-272h-195v272h195z" />
    <glyph glyph-name="cedilla" unicode="&#xb8;" horiz-adv-x="500" 
d="M211 -109l162.001 -0.000976562v-100c0 -39.333 -4 -75.166 -12 -107.499s-21 -60 -39 -83s-41.5 -41 -70.5 -54s-64.5 -19.5 -106.5 -19.5c-5.33301 0 -15 0.333008 -29 1s-28.667 1.66699 -44 3v115h39c16 0 30.333 1.83301 43 5.5s23.167 10.167 31.5 19.5
s14.666 22.5 18.999 39.5s6.5 38.5 6.5 64.5v116z" />
    <glyph glyph-name="one.superior" unicode="&#xb9;" horiz-adv-x="446" 
d="M205 838v600l-168 -103v144l192 118h109v-759h-133z" />
    <glyph glyph-name="ordmasculine" unicode="&#xba;" horiz-adv-x="774" 
d="M389 1389c48.667 0 92.3311 -8.66602 130.998 -25.999s71.334 -41.166 98.001 -71.499s47 -66.5 61 -108.5s21 -87.333 21 -136c0 -56 -7.16699 -105.833 -21.5 -149.5s-35 -80.667 -62 -111s-59.667 -53.333 -98 -69s-81.5 -23.5 -129.5 -23.5
c-48.667 0 -92.334 7.83301 -131.001 23.5s-71.667 38.667 -99 69s-48.333 67.333 -63 111s-22 93.5 -22 149.5c0 54 7.66699 102.167 23 144.5s36.833 78.166 64.5 107.499s60.834 51.666 99.501 66.999s81.334 23 128.001 23zM388.997 825.001
c54 0 94.5 17.835 121.5 53.502s40.5 90.834 40.5 165.501c0 67.333 -13.5 119.666 -40.5 156.999s-67.5 56 -121.5 56c-50 0 -89.833 -17.333 -119.5 -52s-44.5 -88.334 -44.5 -161.001c0 -74.667 13.833 -129.834 41.5 -165.501s68.5 -53.5 122.5 -53.5z" />
    <glyph glyph-name="guillemotright" unicode="&#xbb;" horiz-adv-x="1118" 
d="M1034 475l-483 -307v184l313 203l-313 197v186l483 -301v-162zM565 475l-483 -307v184l313 203l-313 197v186l483 -301v-162z" />
    <glyph glyph-name="onequarter" unicode="&#xbc;" horiz-adv-x="1444" 
d="M401 0h-141l705 1380h139zM205 619v600l-168 -103v144l192 118h109v-759h-133zM1301 759v-479h104v-121h-104v-159h-133v159h-352v107l342 493h143zM1168 280v314l-215 -314h215z" />
    <glyph glyph-name="onehalf" unicode="&#xbd;" horiz-adv-x="1530" 
d="M205 621v600l-168 -103v144l192 118h109v-759h-133zM401 0h-141l705 1380h139zM1127 123l345.999 0.00292969v-123h-500v118l97 89l42 39.5l44 41l42 40.5l37 38c28 29.333 50 57.833 66 85.5s24 56.5 24 86.5c0 33.333 -8.83301 60.166 -26.5 80.499
s-46.167 30.5 -85.5 30.5c-32 0 -59 -8.83301 -81 -26.5s-34.667 -43.167 -38 -76.5h-141c2.66699 33.333 10.834 64.166 24.501 92.499s31.834 52.666 54.501 72.999s49.167 36.166 79.5 47.499s64.166 17 101.499 17c41.333 0 77.833 -6.16699 109.5 -18.5
s58 -29.333 79 -51s36.833 -46.834 47.5 -75.501s16 -59 16 -91c0 -27.333 -4.5 -53.166 -13.5 -77.499s-20.667 -47.5 -35 -69.5s-30.5 -42.667 -48.5 -62s-36.333 -37.666 -55 -54.999z" />
    <glyph glyph-name="threequarters" unicode="&#xbe;" horiz-adv-x="1624" 
d="M1481 761v-479h104v-121h-104v-159h-133v159h-352v107l342 493h143zM1348 282v314l-215 -314h215zM581 0h-141l705 1380h139zM207 827c8 -30.667 23.665 -53.9961 46.998 -69.9961s50 -24 80 -24c40 0 72.167 11.333 96.5 34s36.5 53.667 36.5 93
c0 33.333 -11.667 60.166 -35 80.499s-54 30.5 -92 30.5h-90v110h76c34 0 62.167 9 84.5 27s33.5 42 33.5 72c0 16 -3 30 -9 42s-14.167 21.833 -24.5 29.5s-22.333 13.334 -36 17.001s-28.5 5.5 -44.5 5.5c-25.333 0 -47.833 -6.66699 -67.5 -20
s-32.834 -33.333 -39.501 -60h-139c4.66699 32 14.5 60.833 29.5 86.5s33.333 47.167 55 64.5s46.334 30.666 74.001 39.999s56.834 14 87.501 14c35.333 0 68.333 -4.83301 99 -14.5s57.334 -23.834 80.001 -42.501s40.5 -41.667 53.5 -69s19.5 -59 19.5 -95
c0 -31.333 -6.83301 -59.5 -20.5 -84.5s-32.167 -46.167 -55.5 -63.5c28.667 -18.667 52.5 -42.334 71.5 -71.001s28.5 -61.667 28.5 -99c0 -38 -7.33301 -72.5 -22 -103.5s-34.334 -57.333 -59.001 -79s-53.5 -38.334 -86.5 -50.001s-67.833 -17.5 -104.5 -17.5
c-72.667 0 -132.167 19.5 -178.5 58.5s-77.166 91.833 -92.499 158.5h144z" />
    <glyph glyph-name="questiondown" unicode="&#xbf;" horiz-adv-x="920" 
d="M831 -37c-4.66699 -56.667 -18.1631 -108.168 -40.4961 -154.501s-51.333 -86 -87 -119s-76.834 -58.5 -123.501 -76.5s-96.667 -27 -150 -27c-58 0 -111.333 9.66699 -160 29s-90.334 46.166 -125.001 80.499s-61.667 75.166 -81 122.499s-29 99 -29 155
c0 24 2.66699 47.5 8 70.5s12.666 45.333 21.999 67s20.166 42.334 32.499 62.001s25.5 38.5 39.5 56.5c23.333 30 48.5 58.833 75.5 86.5s51.833 54.834 74.5 81.501c25.333 30 45.333 59.5 60 88.5s22 58.833 22 89.5v50h178v-60c0 -47.333 -10.5 -93.166 -31.5 -137.499
s-52.167 -88.5 -93.5 -132.5l-75 -81c-24.667 -27.333 -46 -54.333 -64 -81c-16.667 -24.667 -30.167 -49.167 -40.5 -73.5s-15.5 -50.833 -15.5 -79.5c0 -65.333 18.167 -116.833 54.5 -154.5s86.5 -56.5 150.5 -56.5c26.667 0 52 4.66699 76 14s45.167 22.5 63.5 39.5
s33.333 37.5 45 61.5s18.5 50.333 20.5 79h194zM354.004 724.999v252h199v-252h-199z" />
    <glyph glyph-name="Agrave" unicode="&#xc0;" horiz-adv-x="1225" 
d="M897 344h-571l-127 -344h-207l524 1380h195l522 -1380h-207zM397 532h428l-215 574zM545 1519l-227 264h221l201 -264h-195z" />
    <glyph glyph-name="Aacute" unicode="&#xc1;" horiz-adv-x="1225" 
d="M897 344h-571l-127 -344h-207l524 1380h195l522 -1380h-207zM397 532h428l-215 574zM490 1519l199 264h223l-230 -264h-192z" />
    <glyph glyph-name="Acircumflex" unicode="&#xc2;" horiz-adv-x="1225" 
d="M897 344h-571l-127 -344h-207l524 1380h195l522 -1380h-207zM397 532h428l-215 574zM742 1520l-131 143l-127 -143h-189l219 270h197l219 -270h-188z" />
    <glyph glyph-name="Atilde" unicode="&#xc3;" horiz-adv-x="1225" 
d="M897 344h-571l-127 -344h-207l524 1380h195l522 -1380h-207zM397 532h428l-215 574zM954 1792c-5.33301 -33.333 -13.666 -64.499 -24.999 -93.499s-26 -54 -44 -75s-39.667 -37.5 -65 -49.5s-54.333 -18 -87 -18c-25.333 0 -50.166 4.33301 -74.499 13
s-47.5 18.334 -69.5 29.001l-61.5 29c-19 8.66699 -35.833 13 -50.5 13c-18.667 0 -33.667 -7.16699 -45 -21.5s-19.666 -33.833 -24.999 -58.5h-151c6.66699 32 15.834 62.167 27.501 90.5s26.5 53 44.5 74s39.5 37.5 64.5 49.5s54.5 18 88.5 18
c23.333 0 46.666 -4.33301 69.999 -13s45.666 -18.334 66.999 -29.001s41.666 -20.334 60.999 -29.001s36.666 -13 51.999 -13c10 0 19 2.66699 27 8s15 12 21 20s10.833 17 14.5 27s6.5 19.667 8.5 29h152z" />
    <glyph glyph-name="Adieresis" unicode="&#xc4;" horiz-adv-x="1225" 
d="M897 344h-571l-127 -344h-207l524 1380h195l522 -1380h-207zM397 532h428l-215 574zM516 1569h-178v221h178v-221zM887 1569h-180v221h180v-221z" />
    <glyph glyph-name="Aring" unicode="&#xc5;" horiz-adv-x="1225" 
d="M897 344h-571l-127 -344h-207l524 1380h195l522 -1380h-207zM397 532h428l-215 574zM510 1665c0 -14 2.66699 -27.167 8 -39.5s12.5 -23 21.5 -32s19.5 -16.167 31.5 -21.5s24.333 -8 37 -8c13.333 0 26.166 2.66699 38.499 8s23.166 12.5 32.499 21.5
s16.666 19.667 21.999 32s8 25.5 8 39.5c0 13.333 -2.66699 25.833 -8 37.5s-12.666 22 -21.999 31s-20.166 16.167 -32.499 21.5s-25.166 8 -38.499 8c-12.667 0 -25 -2.66699 -37 -8s-22.5 -12.5 -31.5 -21.5s-16.167 -19.333 -21.5 -31s-8 -24.167 -8 -37.5zM402 1665
c0 28 5.33301 54.333 16 79s25.334 46.334 44.001 65.001s40.5 33.334 65.5 44.001s51.833 16 80.5 16c29.333 0 56.666 -5.33301 81.999 -16s47.5 -25.334 66.5 -44.001s33.833 -40.334 44.5 -65.001s16 -51 16 -79c0 -28.667 -5.33301 -55.667 -16 -81
s-25.5 -47.333 -44.5 -66s-41.167 -33.334 -66.5 -44.001s-52.666 -16 -81.999 -16c-28.667 0 -55.5 5.33301 -80.5 16s-46.833 25.334 -65.5 44.001s-33.334 40.667 -44.001 66s-16 52.333 -16 81z" />
    <glyph glyph-name="AE" unicode="&#xc6;" horiz-adv-x="1649" 
d="M719 340h-404l-125 -340h-206l524 1380h1057v-190h-643v-391h526v-191h-526v-418h643v-190h-846v340zM387 528h332v662h-86z" />
    <glyph glyph-name="Ccedilla" unicode="&#xc7;" horiz-adv-x="1276" 
d="M1004 965c-8.66699 37.333 -22.5029 71.3301 -41.5029 101.997s-42.833 56.834 -71.5 78.501s-62.167 38.5 -100.5 50.5s-81.166 18 -128.499 18c-63.333 0 -118.833 -11.5 -166.5 -34.5s-87.167 -56.667 -118.5 -101s-54.833 -99 -70.5 -164
s-23.5 -139.167 -23.5 -222.5c0 -170 31 -300.167 93 -390.5s156.333 -135.5 283 -135.5c96.667 0 173.667 22.5 231 67.5s97.333 109.167 120 192.5h207c-10.667 -65.333 -31 -125.666 -61 -180.999s-68.667 -103 -116 -143s-103 -71.167 -167 -93.5
s-135.333 -33.5 -214 -33.5c-95.333 0 -179.166 16.833 -251.499 50.5s-132.833 81.834 -181.5 144.501s-85.5 138 -110.5 226s-37.5 186.667 -37.5 296c0 108.667 12.667 207 38 295s62.833 163 112.5 225s110.834 109.667 183.501 143s156 50 250 50
c78.667 0 149.5 -11.167 212.5 -33.5s117.833 -53 164.5 -92s84.5 -85.5 113.5 -139.5s48.833 -112.333 59.5 -175h-208zM597.997 -109.003l162.001 -0.000976562v-100c0 -39.333 -4 -75.166 -12 -107.499s-21 -60 -39 -83s-41.5 -41 -70.5 -54s-64.5 -19.5 -106.5 -19.5
c-5.33301 0 -15 0.333008 -29 1s-28.667 1.66699 -44 3v115h39c16 0 30.333 1.83301 43 5.5s23.167 10.167 31.5 19.5s14.666 22.5 18.999 39.5s6.5 38.5 6.5 64.5v116z" />
    <glyph glyph-name="Egrave" unicode="&#xc8;" horiz-adv-x="1153" 
d="M1100 1190h-742v-391h611v-191h-611v-418h742v-190h-944v1380h944v-190zM559 1519l-227 264h221l201 -264h-195z" />
    <glyph glyph-name="Eacute" unicode="&#xc9;" horiz-adv-x="1153" 
d="M1100 1190h-742v-391h611v-191h-611v-418h742v-190h-944v1380h944v-190zM424 1526l199 264h223l-230 -264h-192z" />
    <glyph glyph-name="Ecircumflex" unicode="&#xca;" horiz-adv-x="1153" 
d="M1100 1190h-742v-391h611v-191h-611v-418h742v-190h-944v1380h944v-190zM738 1520l-131 143l-127 -143h-189l219 270h197l219 -270h-188z" />
    <glyph glyph-name="Edieresis" unicode="&#xcb;" horiz-adv-x="1153" 
d="M1100 1190h-742v-391h611v-191h-611v-418h742v-190h-944v1380h944v-190zM504 1569h-178v221h178v-221zM875 1569h-180v221h180v-221z" />
    <glyph glyph-name="Igrave" unicode="&#xcc;" horiz-adv-x="506" 
d="M360 0h-202v1380h202v-1380zM223 1519l-227 264h221l201 -264h-195z" />
    <glyph glyph-name="Iacute" unicode="&#xcd;" horiz-adv-x="506" 
d="M360 0h-202v1380h202v-1380zM107 1519l199 264h223l-230 -264h-192z" />
    <glyph glyph-name="Icircumflex" unicode="&#xce;" horiz-adv-x="506" 
d="M360 0h-202v1380h202v-1380zM389 1520l-131 143l-127 -143h-189l219 270h197l219 -270h-188z" />
    <glyph glyph-name="Idieresis" unicode="&#xcf;" horiz-adv-x="506" 
d="M360 0h-202v1380h202v-1380zM158 1569h-178v221h178v-221zM529 1569h-180v221h180v-221z" />
    <glyph glyph-name="Eth" unicode="&#xd0;" horiz-adv-x="1432" 
d="M768 1380c96.667 0 181.667 -16.999 255 -50.999s134.5 -81 183.5 -141s85.833 -130.667 110.5 -212s37 -169 37 -263c0 -108.667 -12.667 -206.834 -38 -294.501s-62.666 -162.5 -111.999 -224.5s-110.833 -109.833 -184.5 -143.5s-158.834 -50.5 -255.501 -50.5h-512
v614h-191v172h191v594h516zM455 1190l0.00195312 -403.999h235v-172h-235v-424h317c128 0 222.833 44.167 284.5 132.5s92.5 217.166 92.5 386.499c0 72 -7.83301 137.5 -23.5 196.5s-39.334 109.667 -71.001 152s-71.334 75 -119.001 98s-103.5 34.5 -167.5 34.5h-313z" />
    <glyph glyph-name="Ntilde" unicode="&#xd1;" horiz-adv-x="1321" 
d="M1169 0h-202l-613 1016v-1016h-202v1380h202l613 -1011v1011h202v-1380zM1010 1792c-5.33301 -33.333 -13.666 -64.499 -24.999 -93.499s-26 -54 -44 -75s-39.667 -37.5 -65 -49.5s-54.333 -18 -87 -18c-25.333 0 -50.166 4.33301 -74.499 13s-47.5 18.334 -69.5 29.001
l-61.5 29c-19 8.66699 -35.833 13 -50.5 13c-18.667 0 -33.667 -7.16699 -45 -21.5s-19.666 -33.833 -24.999 -58.5h-151c6.66699 32 15.834 62.167 27.501 90.5s26.5 53 44.5 74s39.5 37.5 64.5 49.5s54.5 18 88.5 18c23.333 0 46.666 -4.33301 69.999 -13
s45.666 -18.334 66.999 -29.001s41.666 -20.334 60.999 -29.001s36.666 -13 51.999 -13c10 0 19 2.66699 27 8s15 12 21 20s10.833 17 14.5 27s6.5 19.667 8.5 29h152z" />
    <glyph glyph-name="Ograve" unicode="&#xd2;" horiz-adv-x="1321" 
d="M659 1405c98 0 183.499 -18.665 256.499 -55.998s133.833 -87.833 182.5 -151.5s85 -137.667 109 -222s36 -173.833 36 -268.5c0 -109.333 -12.167 -209 -36.5 -299s-61 -167.333 -110 -232s-110 -114.667 -183 -150s-157.833 -53 -254.5 -53
c-95.333 0 -179.166 17.5 -251.499 52.5s-132.833 84.167 -181.5 147.5s-85.5 139.666 -110.5 228.999s-37.5 188.666 -37.5 297.999c0 107.333 13 204.5 39 291.5s63.833 161.167 113.5 222.5s110.5 108.5 182.5 141.5s154 49.5 246 49.5zM656.999 1214
c-61.333 0 -115.334 -11.3291 -162.001 -33.9961s-85.667 -55.834 -117 -99.501s-55 -97.334 -71 -161.001s-24 -136.834 -24 -219.501c0 -85.333 7.66699 -161.333 23 -228s38.5 -122.834 69.5 -168.501s70 -80.334 117 -104.001s101.833 -35.5 164.5 -35.5
c64.667 0 120.834 12 168.501 36s87.167 59 118.5 105s54.833 102.333 70.5 169s23.5 142.667 23.5 228c0 74 -7.5 142.167 -22.5 204.5s-38.167 116.333 -69.5 162s-70.833 81.334 -118.5 107.001s-104.5 38.5 -170.5 38.5zM615.998 1519.01l-227 264h221l201 -264h-195z
" />
    <glyph glyph-name="Oacute" unicode="&#xd3;" horiz-adv-x="1321" 
d="M659 1405c98 0 183.499 -18.665 256.499 -55.998s133.833 -87.833 182.5 -151.5s85 -137.667 109 -222s36 -173.833 36 -268.5c0 -109.333 -12.167 -209 -36.5 -299s-61 -167.333 -110 -232s-110 -114.667 -183 -150s-157.833 -53 -254.5 -53
c-95.333 0 -179.166 17.5 -251.499 52.5s-132.833 84.167 -181.5 147.5s-85.5 139.666 -110.5 228.999s-37.5 188.666 -37.5 297.999c0 107.333 13 204.5 39 291.5s63.833 161.167 113.5 222.5s110.5 108.5 182.5 141.5s154 49.5 246 49.5zM656.999 1214
c-61.333 0 -115.334 -11.3291 -162.001 -33.9961s-85.667 -55.834 -117 -99.501s-55 -97.334 -71 -161.001s-24 -136.834 -24 -219.501c0 -85.333 7.66699 -161.333 23 -228s38.5 -122.834 69.5 -168.501s70 -80.334 117 -104.001s101.833 -35.5 164.5 -35.5
c64.667 0 120.834 12 168.501 36s87.167 59 118.5 105s54.833 102.333 70.5 169s23.5 142.667 23.5 228c0 74 -7.5 142.167 -22.5 204.5s-38.167 116.333 -69.5 162s-70.833 81.334 -118.5 107.001s-104.5 38.5 -170.5 38.5zM515.998 1519.01l199 264h223l-230 -264h-192z
" />
    <glyph glyph-name="Ocircumflex" unicode="&#xd4;" horiz-adv-x="1321" 
d="M659 1405c98 0 183.499 -18.665 256.499 -55.998s133.833 -87.833 182.5 -151.5s85 -137.667 109 -222s36 -173.833 36 -268.5c0 -109.333 -12.167 -209 -36.5 -299s-61 -167.333 -110 -232s-110 -114.667 -183 -150s-157.833 -53 -254.5 -53
c-95.333 0 -179.166 17.5 -251.499 52.5s-132.833 84.167 -181.5 147.5s-85.5 139.666 -110.5 228.999s-37.5 188.666 -37.5 297.999c0 107.333 13 204.5 39 291.5s63.833 161.167 113.5 222.5s110.5 108.5 182.5 141.5s154 49.5 246 49.5zM656.999 1214
c-61.333 0 -115.334 -11.3291 -162.001 -33.9961s-85.667 -55.834 -117 -99.501s-55 -97.334 -71 -161.001s-24 -136.834 -24 -219.501c0 -85.333 7.66699 -161.333 23 -228s38.5 -122.834 69.5 -168.501s70 -80.334 117 -104.001s101.833 -35.5 164.5 -35.5
c64.667 0 120.834 12 168.501 36s87.167 59 118.5 105s54.833 102.333 70.5 169s23.5 142.667 23.5 228c0 74 -7.5 142.167 -22.5 204.5s-38.167 116.333 -69.5 162s-70.833 81.334 -118.5 107.001s-104.5 38.5 -170.5 38.5zM790.998 1520.01l-131 143l-127 -143h-189
l219 270h197l219 -270h-188z" />
    <glyph glyph-name="Otilde" unicode="&#xd5;" horiz-adv-x="1321" 
d="M659 1405c98 0 183.499 -18.665 256.499 -55.998s133.833 -87.833 182.5 -151.5s85 -137.667 109 -222s36 -173.833 36 -268.5c0 -109.333 -12.167 -209 -36.5 -299s-61 -167.333 -110 -232s-110 -114.667 -183 -150s-157.833 -53 -254.5 -53
c-95.333 0 -179.166 17.5 -251.499 52.5s-132.833 84.167 -181.5 147.5s-85.5 139.666 -110.5 228.999s-37.5 188.666 -37.5 297.999c0 107.333 13 204.5 39 291.5s63.833 161.167 113.5 222.5s110.5 108.5 182.5 141.5s154 49.5 246 49.5zM656.999 1214
c-61.333 0 -115.334 -11.3291 -162.001 -33.9961s-85.667 -55.834 -117 -99.501s-55 -97.334 -71 -161.001s-24 -136.834 -24 -219.501c0 -85.333 7.66699 -161.333 23 -228s38.5 -122.834 69.5 -168.501s70 -80.334 117 -104.001s101.833 -35.5 164.5 -35.5
c64.667 0 120.834 12 168.501 36s87.167 59 118.5 105s54.833 102.333 70.5 169s23.5 142.667 23.5 228c0 74 -7.5 142.167 -22.5 204.5s-38.167 116.333 -69.5 162s-70.833 81.334 -118.5 107.001s-104.5 38.5 -170.5 38.5zM1004 1792.01
c-5.33301 -33.333 -13.666 -64.499 -24.999 -93.499s-26 -54 -44 -75s-39.667 -37.5 -65 -49.5s-54.333 -18 -87 -18c-25.333 0 -50.166 4.33301 -74.499 13s-47.5 18.334 -69.5 29.001l-61.5 29c-19 8.66699 -35.833 13 -50.5 13c-18.667 0 -33.667 -7.16699 -45 -21.5
s-19.666 -33.833 -24.999 -58.5h-151c6.66699 32 15.834 62.167 27.501 90.5s26.5 53 44.5 74s39.5 37.5 64.5 49.5s54.5 18 88.5 18c23.333 0 46.666 -4.33301 69.999 -13s45.666 -18.334 66.999 -29.001s41.666 -20.334 60.999 -29.001s36.666 -13 51.999 -13
c10 0 19 2.66699 27 8s15 12 21 20s10.833 17 14.5 27s6.5 19.667 8.5 29h152z" />
    <glyph glyph-name="Odieresis" unicode="&#xd6;" horiz-adv-x="1321" 
d="M659 1405c98 0 183.499 -18.665 256.499 -55.998s133.833 -87.833 182.5 -151.5s85 -137.667 109 -222s36 -173.833 36 -268.5c0 -109.333 -12.167 -209 -36.5 -299s-61 -167.333 -110 -232s-110 -114.667 -183 -150s-157.833 -53 -254.5 -53
c-95.333 0 -179.166 17.5 -251.499 52.5s-132.833 84.167 -181.5 147.5s-85.5 139.666 -110.5 228.999s-37.5 188.666 -37.5 297.999c0 107.333 13 204.5 39 291.5s63.833 161.167 113.5 222.5s110.5 108.5 182.5 141.5s154 49.5 246 49.5zM656.999 1214
c-61.333 0 -115.334 -11.3291 -162.001 -33.9961s-85.667 -55.834 -117 -99.501s-55 -97.334 -71 -161.001s-24 -136.834 -24 -219.501c0 -85.333 7.66699 -161.333 23 -228s38.5 -122.834 69.5 -168.501s70 -80.334 117 -104.001s101.833 -35.5 164.5 -35.5
c64.667 0 120.834 12 168.501 36s87.167 59 118.5 105s54.833 102.333 70.5 169s23.5 142.667 23.5 228c0 74 -7.5 142.167 -22.5 204.5s-38.167 116.333 -69.5 162s-70.833 81.334 -118.5 107.001s-104.5 38.5 -170.5 38.5zM564.998 1569.01h-178v221h178v-221z
M935.998 1569.01h-180v221h180v-221z" />
    <glyph glyph-name="multiply" unicode="&#xd7;" 
d="M889 82l-344 344l-346 -346l-123 123l346 346l-344 344l121 123l344 -346l346 346l123 -125l-346 -344l344 -342z" />
    <glyph glyph-name="Oslash" unicode="&#xd8;" horiz-adv-x="1321" 
d="M659 1405c48.667 0 94.333 -4.99902 137 -14.999s82.334 -24 119.001 -42l56 106h162l-99 -188c34.667 -32 65.167 -68.5 91.5 -109.5s48.166 -85.5 65.499 -133.5s30.333 -98.667 39 -152s13 -108 13 -164c0 -109.333 -12.167 -209 -36.5 -299s-61 -167.333 -110 -232
s-110 -114.667 -183 -150s-157.833 -53 -254.5 -53c-51.333 0 -99 5.16699 -143 15.5s-85 25.166 -123 44.499l-59 -115h-162l102 199c-64.667 64 -113.5 145.667 -146.5 245s-49.5 212 -49.5 338c0 107.333 13 204.5 39 291.5s63.833 161.167 113.5 222.5
s110.5 108.5 182.5 141.5s154 49.5 246 49.5zM1038 702.001c0 77.333 -8.16797 148 -24.501 212s-41.5 119 -75.5 165l-457 -874c24.667 -14.667 51.667 -25.167 81 -31.5s61 -9.5 95 -9.5c64.667 0 120.834 12 168.501 36s87.167 59 118.5 105s54.833 102.333 70.5 169
s23.5 142.667 23.5 228zM656.998 1214c-61.333 0 -115.334 -11.3301 -162.001 -33.9971s-85.667 -55.834 -117 -99.501s-55 -97.334 -71 -161.001s-24 -136.834 -24 -219.501c0 -85.333 7.5 -160.833 22.5 -226.5s37.5 -121.167 67.5 -166.5l452 869
c-23.333 12 -49.166 21.333 -77.499 28s-58.5 10 -90.5 10z" />
    <glyph glyph-name="Ugrave" unicode="&#xd9;" horiz-adv-x="1300" 
d="M1161 518c0 -96 -13.167 -178.5 -39.5 -247.5s-62.666 -125.5 -108.999 -169.5s-100.833 -76.333 -163.5 -97s-130 -31 -202 -31s-138.833 10 -200.5 30s-115.334 51.833 -161.001 95.5s-81.5 100 -107.5 169s-39 152.5 -39 250.5v862h203v-856
c0 -122 25.5 -212.167 76.5 -270.5s127.167 -87.5 228.5 -87.5c103.333 0 181 29.167 233 87.5s78 148.5 78 270.5v856h203v-862zM592 1519l-227 264h221l201 -264h-195z" />
    <glyph glyph-name="Uacute" unicode="&#xda;" horiz-adv-x="1300" 
d="M1161 518c0 -96 -13.167 -178.5 -39.5 -247.5s-62.666 -125.5 -108.999 -169.5s-100.833 -76.333 -163.5 -97s-130 -31 -202 -31s-138.833 10 -200.5 30s-115.334 51.833 -161.001 95.5s-81.5 100 -107.5 169s-39 152.5 -39 250.5v862h203v-856
c0 -122 25.5 -212.167 76.5 -270.5s127.167 -87.5 228.5 -87.5c103.333 0 181 29.167 233 87.5s78 148.5 78 270.5v856h203v-862zM494 1519l199 264h223l-230 -264h-192z" />
    <glyph glyph-name="Ucircumflex" unicode="&#xdb;" horiz-adv-x="1300" 
d="M1161 518c0 -96 -13.167 -178.5 -39.5 -247.5s-62.666 -125.5 -108.999 -169.5s-100.833 -76.333 -163.5 -97s-130 -31 -202 -31s-138.833 10 -200.5 30s-115.334 51.833 -161.001 95.5s-81.5 100 -107.5 169s-39 152.5 -39 250.5v862h203v-856
c0 -122 25.5 -212.167 76.5 -270.5s127.167 -87.5 228.5 -87.5c103.333 0 181 29.167 233 87.5s78 148.5 78 270.5v856h203v-862zM779 1520l-131 143l-127 -143h-189l219 270h197l219 -270h-188z" />
    <glyph glyph-name="Udieresis" unicode="&#xdc;" horiz-adv-x="1300" 
d="M1161 518c0 -96 -13.167 -178.5 -39.5 -247.5s-62.666 -125.5 -108.999 -169.5s-100.833 -76.333 -163.5 -97s-130 -31 -202 -31s-138.833 10 -200.5 30s-115.334 51.833 -161.001 95.5s-81.5 100 -107.5 169s-39 152.5 -39 250.5v862h203v-856
c0 -122 25.5 -212.167 76.5 -270.5s127.167 -87.5 228.5 -87.5c103.333 0 181 29.167 233 87.5s78 148.5 78 270.5v856h203v-862zM549 1569h-178v221h178v-221zM920 1569h-180v221h180v-221z" />
    <glyph glyph-name="Yacute" unicode="&#xdd;" horiz-adv-x="1102" 
d="M-4 1380h229l326 -616l330 616h225l-453 -825v-555h-202v555zM379 1517l199 264h223l-230 -264h-192z" />
    <glyph glyph-name="Thorn" unicode="&#xde;" horiz-adv-x="1245" 
d="M362 1380v-250h373c76 0 141 -13.333 195 -40s98.5 -60.5 133.5 -101.5s60.667 -86.333 77 -136s24.5 -97.5 24.5 -143.5c0 -45.333 -8.16699 -92.5 -24.5 -141.5s-42 -93.833 -77 -134.5s-79.5 -74.167 -133.5 -100.5s-119 -39.5 -195 -39.5h-373v-293h-200v1380h200z
M362 938v-453h373c41.333 0 76.5 7.16699 105.5 21.5s52.5 32.5 70.5 54.5s31.167 46.167 39.5 72.5s12.5 51.5 12.5 75.5c0 23.333 -4.16699 48.5 -12.5 75.5s-21.5 51.833 -39.5 74.5s-41.5 41.5 -70.5 56.5s-64.167 22.5 -105.5 22.5h-373z" />
    <glyph glyph-name="germandbls" unicode="&#xdf;" horiz-adv-x="1098" 
d="M553 -8c-27.333 0 -49.333 1.00293 -66 3.00293c-10 0.666992 -19.333 1.66699 -28 3v166h88c45.333 0 85.333 6.33301 120 19s63.5 30.5 86.5 53.5s40.333 50.833 52 83.5s17.5 69.334 17.5 110.001c0 37.333 -5.33301 71.666 -16 102.999s-26.667 58.166 -48 80.499
s-47.833 39.666 -79.5 51.999s-68.5 18.5 -110.5 18.5h-57v166h29c32.667 0 61.167 5.83301 85.5 17.5s44.5 27 60.5 46s28 40.333 36 64s12 47.5 12 71.5c0 24.667 -3.33301 48.167 -10 70.5s-17.167 42 -31.5 59s-32.666 30.333 -54.999 40s-48.833 14.5 -79.5 14.5
c-32 0 -61.5 -4.83301 -88.5 -14.5s-50.5 -24.5 -70.5 -44.5s-35.667 -45.167 -47 -75.5s-17 -66.166 -17 -107.499v-991h-186v981c0 72 10.333 134.667 31 188s49.167 97.666 85.5 132.999s79.5 61.666 129.5 78.999s104.333 26 163 26c52 0 100.333 -9 145 -27
s83.334 -43 116.001 -75s58.167 -70.333 76.5 -115s27.5 -94 27.5 -148c0 -25.333 -3.5 -50.666 -10.5 -75.999s-17 -49.333 -30 -72s-28.333 -43.334 -46 -62.001s-36.834 -34 -57.501 -46c32 -13.333 62.167 -31.333 90.5 -54s53 -49.167 74 -79.5s37.5 -64 49.5 -101
s18 -76.167 18 -117.5c0 -72 -11 -135.5 -33 -190.5s-53 -101.167 -93 -138.5s-88.333 -65.5 -145 -84.5s-119.334 -28.5 -188.001 -28.5z" />
    <glyph glyph-name="agrave" unicode="&#xe0;" horiz-adv-x="1077" 
d="M76 512c0 70 10.667 135.169 32 195.502s51.166 112.666 89.499 156.999s84.166 79 137.499 104s112.333 37.5 177 37.5c48 0 90.667 -8 128 -24s71 -39 101 -69v78h189v-768c0 -24.667 7 -41.667 21 -51s32.333 -14 55 -14h20v-156
c-4.66699 -1.33301 -10.667 -2.66602 -18 -3.99902c-6 -1.33301 -13.333 -2.33301 -22 -3s-18.667 -1 -30 -1c-45.333 0 -83.166 8.66699 -113.499 26s-53.833 46 -70.5 86c-32 -38.667 -71.167 -68.334 -117.5 -89.001s-96.5 -31 -150.5 -31
c-68.667 0 -129.667 12.833 -183 38.5s-98.166 61.667 -134.499 108s-63.833 101.666 -82.5 165.999s-28 135.5 -28 213.5zM266 508.002c0 -112 20.665 -198.001 61.998 -258.001s104.666 -90 189.999 -90c76.667 0 134.834 27.333 174.501 82s59.5 139.334 59.5 254.001
c0 114 -17.667 198.333 -53 253s-91.666 82 -168.999 82c-43.333 0 -81.333 -7.66699 -114 -23s-60.167 -37 -82.5 -65s-39.166 -61.833 -50.499 -101.5s-17 -84.167 -17 -133.5zM490.998 1116l-227 264h221l201 -264h-195z" />
    <glyph glyph-name="aacute" unicode="&#xe1;" horiz-adv-x="1077" 
d="M76 512c0 70 10.667 135.169 32 195.502s51.166 112.666 89.499 156.999s84.166 79 137.499 104s112.333 37.5 177 37.5c48 0 90.667 -8 128 -24s71 -39 101 -69v78h189v-768c0 -24.667 7 -41.667 21 -51s32.333 -14 55 -14h20v-156
c-4.66699 -1.33301 -10.667 -2.66602 -18 -3.99902c-6 -1.33301 -13.333 -2.33301 -22 -3s-18.667 -1 -30 -1c-45.333 0 -83.166 8.66699 -113.499 26s-53.833 46 -70.5 86c-32 -38.667 -71.167 -68.334 -117.5 -89.001s-96.5 -31 -150.5 -31
c-68.667 0 -129.667 12.833 -183 38.5s-98.166 61.667 -134.499 108s-63.833 101.666 -82.5 165.999s-28 135.5 -28 213.5zM266 508.002c0 -112 20.665 -198.001 61.998 -258.001s104.666 -90 189.999 -90c76.667 0 134.834 27.333 174.501 82s59.5 139.334 59.5 254.001
c0 114 -17.667 198.333 -53 253s-91.666 82 -168.999 82c-43.333 0 -81.333 -7.66699 -114 -23s-60.167 -37 -82.5 -65s-39.166 -61.833 -50.499 -101.5s-17 -84.167 -17 -133.5zM390.998 1116l199 264h223l-230 -264h-192z" />
    <glyph glyph-name="acircumflex" unicode="&#xe2;" horiz-adv-x="1077" 
d="M76 512c0 70 10.667 135.169 32 195.502s51.166 112.666 89.499 156.999s84.166 79 137.499 104s112.333 37.5 177 37.5c48 0 90.667 -8 128 -24s71 -39 101 -69v78h189v-768c0 -24.667 7 -41.667 21 -51s32.333 -14 55 -14h20v-156
c-4.66699 -1.33301 -10.667 -2.66602 -18 -3.99902c-6 -1.33301 -13.333 -2.33301 -22 -3s-18.667 -1 -30 -1c-45.333 0 -83.166 8.66699 -113.499 26s-53.833 46 -70.5 86c-32 -38.667 -71.167 -68.334 -117.5 -89.001s-96.5 -31 -150.5 -31
c-68.667 0 -129.667 12.833 -183 38.5s-98.166 61.667 -134.499 108s-63.833 101.666 -82.5 165.999s-28 135.5 -28 213.5zM266 508.002c0 -112 20.665 -198.001 61.998 -258.001s104.666 -90 189.999 -90c76.667 0 134.834 27.333 174.501 82s59.5 139.334 59.5 254.001
c0 114 -17.667 198.333 -53 253s-91.666 82 -168.999 82c-43.333 0 -81.333 -7.66699 -114 -23s-60.167 -37 -82.5 -65s-39.166 -61.833 -50.499 -101.5s-17 -84.167 -17 -133.5zM665.998 1114l-131 143l-127 -143h-189l219 270h197l219 -270h-188z" />
    <glyph glyph-name="atilde" unicode="&#xe3;" horiz-adv-x="1077" 
d="M76 512c0 70 10.667 135.169 32 195.502s51.166 112.666 89.499 156.999s84.166 79 137.499 104s112.333 37.5 177 37.5c48 0 90.667 -8 128 -24s71 -39 101 -69v78h189v-768c0 -24.667 7 -41.667 21 -51s32.333 -14 55 -14h20v-156
c-4.66699 -1.33301 -10.667 -2.66602 -18 -3.99902c-6 -1.33301 -13.333 -2.33301 -22 -3s-18.667 -1 -30 -1c-45.333 0 -83.166 8.66699 -113.499 26s-53.833 46 -70.5 86c-32 -38.667 -71.167 -68.334 -117.5 -89.001s-96.5 -31 -150.5 -31
c-68.667 0 -129.667 12.833 -183 38.5s-98.166 61.667 -134.499 108s-63.833 101.666 -82.5 165.999s-28 135.5 -28 213.5zM266 508.002c0 -112 20.665 -198.001 61.998 -258.001s104.666 -90 189.999 -90c76.667 0 134.834 27.333 174.501 82s59.5 139.334 59.5 254.001
c0 114 -17.667 198.333 -53 253s-91.666 82 -168.999 82c-43.333 0 -81.333 -7.66699 -114 -23s-60.167 -37 -82.5 -65s-39.166 -61.833 -50.499 -101.5s-17 -84.167 -17 -133.5zM888.998 1389c-5.33301 -33.333 -13.666 -64.499 -24.999 -93.499s-26 -54 -44 -75
s-39.667 -37.5 -65 -49.5s-54.333 -18 -87 -18c-25.333 0 -50.166 4.33301 -74.499 13s-47.5 18.334 -69.5 29.001l-61.5 29c-19 8.66699 -35.833 13 -50.5 13c-18.667 0 -33.667 -7.16699 -45 -21.5s-19.666 -33.833 -24.999 -58.5h-151
c6.66699 32 15.834 62.167 27.501 90.5s26.5 53 44.5 74s39.5 37.5 64.5 49.5s54.5 18 88.5 18c23.333 0 46.666 -4.33301 69.999 -13s45.666 -18.334 66.999 -29.001s41.666 -20.334 60.999 -29.001s36.666 -13 51.999 -13c10 0 19 2.66699 27 8s15 12 21 20
s10.833 17 14.5 27s6.5 19.667 8.5 29h152z" />
    <glyph glyph-name="adieresis" unicode="&#xe4;" horiz-adv-x="1077" 
d="M76 512c0 70 10.667 135.169 32 195.502s51.166 112.666 89.499 156.999s84.166 79 137.499 104s112.333 37.5 177 37.5c48 0 90.667 -8 128 -24s71 -39 101 -69v78h189v-768c0 -24.667 7 -41.667 21 -51s32.333 -14 55 -14h20v-156
c-4.66699 -1.33301 -10.667 -2.66602 -18 -3.99902c-6 -1.33301 -13.333 -2.33301 -22 -3s-18.667 -1 -30 -1c-45.333 0 -83.166 8.66699 -113.499 26s-53.833 46 -70.5 86c-32 -38.667 -71.167 -68.334 -117.5 -89.001s-96.5 -31 -150.5 -31
c-68.667 0 -129.667 12.833 -183 38.5s-98.166 61.667 -134.499 108s-63.833 101.666 -82.5 165.999s-28 135.5 -28 213.5zM266 508.002c0 -112 20.665 -198.001 61.998 -258.001s104.666 -90 189.999 -90c76.667 0 134.834 27.333 174.501 82s59.5 139.334 59.5 254.001
c0 114 -17.667 198.333 -53 253s-91.666 82 -168.999 82c-43.333 0 -81.333 -7.66699 -114 -23s-60.167 -37 -82.5 -65s-39.166 -61.833 -50.499 -101.5s-17 -84.167 -17 -133.5zM449.998 1159h-178v221h178v-221zM820.998 1159h-180v221h180v-221z" />
    <glyph glyph-name="aring" unicode="&#xe5;" horiz-adv-x="1077" 
d="M76 512c0 70 10.667 135.169 32 195.502s51.166 112.666 89.499 156.999s84.166 79 137.499 104s112.333 37.5 177 37.5c48 0 90.667 -8 128 -24s71 -39 101 -69v78h189v-768c0 -24.667 7 -41.667 21 -51s32.333 -14 55 -14h20v-156
c-4.66699 -1.33301 -10.667 -2.66602 -18 -3.99902c-6 -1.33301 -13.333 -2.33301 -22 -3s-18.667 -1 -30 -1c-45.333 0 -83.166 8.66699 -113.499 26s-53.833 46 -70.5 86c-32 -38.667 -71.167 -68.334 -117.5 -89.001s-96.5 -31 -150.5 -31
c-68.667 0 -129.667 12.833 -183 38.5s-98.166 61.667 -134.499 108s-63.833 101.666 -82.5 165.999s-28 135.5 -28 213.5zM266 508.002c0 -112 20.665 -198.001 61.998 -258.001s104.666 -90 189.999 -90c76.667 0 134.834 27.333 174.501 82s59.5 139.334 59.5 254.001
c0 114 -17.667 198.333 -53 253s-91.666 82 -168.999 82c-43.333 0 -81.333 -7.66699 -114 -23s-60.167 -37 -82.5 -65s-39.166 -61.833 -50.499 -101.5s-17 -84.167 -17 -133.5zM437.998 1303c0 -14 2.66699 -27.167 8 -39.5s12.5 -23 21.5 -32s19.5 -16.167 31.5 -21.5
s24.333 -8 37 -8c13.333 0 26.166 2.66699 38.499 8s23.166 12.5 32.499 21.5s16.666 19.667 21.999 32s8 25.5 8 39.5c0 13.333 -2.66699 25.833 -8 37.5s-12.666 22 -21.999 31s-20.166 16.167 -32.499 21.5s-25.166 8 -38.499 8c-12.667 0 -25 -2.66699 -37 -8
s-22.5 -12.5 -31.5 -21.5s-16.167 -19.333 -21.5 -31s-8 -24.167 -8 -37.5zM329.998 1303c0 28 5.33301 54.333 16 79s25.334 46.334 44.001 65.001s40.5 33.334 65.5 44.001s51.833 16 80.5 16c29.333 0 56.666 -5.33301 81.999 -16s47.5 -25.334 66.5 -44.001
s33.833 -40.334 44.5 -65.001s16 -51 16 -79c0 -28.667 -5.33301 -55.667 -16 -81s-25.5 -47.333 -44.5 -66s-41.167 -33.334 -66.5 -44.001s-52.666 -16 -81.999 -16c-28.667 0 -55.5 5.33301 -80.5 16s-46.833 25.334 -65.5 44.001s-33.334 40.667 -44.001 66
s-16 52.333 -16 81z" />
    <glyph glyph-name="ae" unicode="&#xe6;" horiz-adv-x="1616" 
d="M776 145c-35.333 -48 -81.999 -86.5 -139.999 -115.5s-131.333 -43.5 -220 -43.5c-34 0 -70.833 5.66699 -110.5 17s-76.334 29.333 -110.001 54s-61.667 56.334 -84 95.001s-33.5 85 -33.5 139c0 50 9.16699 93 27.5 129s44.333 65.667 78 89
s73.834 40.833 120.501 52.5s98.334 18.5 155.001 20.5c31.333 1.33301 60.666 2 87.999 2h72h67v51c0 28.667 -3.33301 55.5 -10 80.5s-17.667 46.667 -33 65s-35.166 32.833 -59.499 43.5s-54.166 16 -89.499 16s-64.833 -3.16699 -88.5 -9.5s-42.834 -15 -57.501 -26
s-25.834 -24.167 -33.501 -39.5s-13.5 -32 -17.5 -50h-197c6.66699 47.333 20.667 89.166 42 125.499s48.5 66.666 81.5 90.999s71.667 42.833 116 55.5s92.833 19 145.5 19c77.333 0 141.833 -11.667 193.5 -35s92.5 -55.666 122.5 -96.999
c39.333 42 85.166 74.5 137.499 97.5s110.833 34.5 175.5 34.5c72.667 0 135.834 -12.667 189.501 -38s98.167 -60.333 133.5 -105s61.666 -97.5 78.999 -158.5s26 -127.167 26 -198.5c0 -17.333 -0.666992 -33.333 -2 -48s-2 -22.667 -2 -24h-666
c4 -50.667 12.833 -93.334 26.5 -128.001s31.167 -62.667 52.5 -84s46.166 -36.666 74.499 -45.999s58.5 -14 90.5 -14c52.667 0 96.834 10.833 132.501 32.5s61.834 57.167 78.501 106.5h193c-29.333 -100.667 -77.333 -178 -144 -232s-153.334 -81 -260.001 -81
c-74 0 -139.667 13.333 -197 40s-105 65.667 -143 117zM442.001 150c49.333 0 89.8291 7.66797 121.496 23.001s56.5 35 74.5 59s30.5 50.667 37.5 80s10.5 58.333 10.5 87v35c-13.333 0.666992 -29.666 1 -48.999 1h-62c-24.667 0 -54 -0.333008 -88 -1
c-40 -0.666992 -74.167 -4.16699 -102.5 -10.5s-51.166 -15.333 -68.499 -27s-30 -26 -38 -43s-12 -36.5 -12 -58.5c0 -23.333 4.33301 -43.833 13 -61.5s20.834 -32.834 36.501 -45.501s34.334 -22.167 56.001 -28.5s45.167 -9.5 70.5 -9.5zM1112 834.001
c-32 0 -61.666 -5.66699 -88.999 -17s-51.5 -27.5 -72.5 -48.5s-38.167 -46 -51.5 -75s-21.666 -61.5 -24.999 -97.5h472c-2 34 -7.83301 65.5 -17.5 94.5s-23.834 54.167 -42.501 75.5s-42.334 38 -71.001 50s-63 18 -103 18z" />
    <glyph glyph-name="ccedilla" unicode="&#xe7;" horiz-adv-x="973" 
d="M522 162c60 0 107.332 14.1709 141.999 42.5039s57 67.5 67 117.5h193c-10 -52 -26.333 -98.667 -49 -140s-51.167 -76.333 -85.5 -105s-73.833 -50.667 -118.5 -66s-93.667 -23 -147 -23c-69.333 0 -131.666 11.5 -186.999 34.5s-102.5 56.167 -141.5 99.5
s-69 96.5 -90 159.5s-31.5 134.5 -31.5 214.5s10.833 151.667 32.5 215s52.167 116.833 91.5 160.5s86.333 77 141 100s115 34.5 181 34.5c57.333 0 109 -8.33301 155 -25s85.833 -39.834 119.5 -69.501s61 -64.834 82 -105.501s35.5 -85.334 43.5 -134.001h-193
c-11.333 49.333 -33.833 88.166 -67.5 116.499s-80.834 42.5 -141.501 42.5c-78 0 -139.833 -27.5 -185.5 -82.5s-68.5 -139.167 -68.5 -252.5c0 -114.667 21.833 -199 65.5 -253s107.834 -81 192.501 -81zM443.999 -108.996l162.001 -0.000976562v-100
c0 -39.333 -4 -75.166 -12 -107.499s-21 -60 -39 -83s-41.5 -41 -70.5 -54s-64.5 -19.5 -106.5 -19.5c-5.33301 0 -15 0.333008 -29 1s-28.667 1.66699 -44 3v115h39c16 0 30.333 1.83301 43 5.5s23.167 10.167 31.5 19.5s14.666 22.5 18.999 39.5s6.5 38.5 6.5 64.5v116z
" />
    <glyph glyph-name="egrave" unicode="&#xe8;" horiz-adv-x="1018" 
d="M922 301c-29.333 -101.333 -77.833 -178.83 -145.5 -232.497s-155.167 -80.5 -262.5 -80.5c-68.667 0 -130.167 11.333 -184.5 34s-100.5 55.5 -138.5 98.5s-67 96 -87 159s-30 135.167 -30 216.5s10.833 153.666 32.5 216.999s52 116.666 91 159.999
s85.333 76.333 139 99s112.167 34 175.5 34c72.667 0 136 -12.833 190 -38.5s99 -61 135 -106s62.833 -98.167 80.5 -159.5s26.5 -127.333 26.5 -198c0 -17.333 -0.666992 -33.333 -2 -48s-2 -22.667 -2 -24h-672c4 -50.667 13 -93.334 27 -128.001s31.833 -62.5 53.5 -83.5
s46.667 -36 75 -45s58.5 -13.5 90.5 -13.5c52 0 96.667 10.833 134 32.5s64.333 57.167 81 106.5h193zM510 834.003c-32 0 -61.834 -5.66699 -89.501 -17s-52 -27.5 -73 -48.5s-38 -46.333 -51 -76s-21.167 -62.5 -24.5 -98.5h476c-2.66699 34 -9.16699 65.5 -19.5 94.5
s-25.166 54.333 -44.499 76s-43.333 38.667 -72 51s-62.667 18.5 -102 18.5zM494.999 1116l-227 264h221l201 -264h-195z" />
    <glyph glyph-name="eacute" unicode="&#xe9;" horiz-adv-x="1018" 
d="M922 301c-29.333 -101.333 -77.833 -178.83 -145.5 -232.497s-155.167 -80.5 -262.5 -80.5c-68.667 0 -130.167 11.333 -184.5 34s-100.5 55.5 -138.5 98.5s-67 96 -87 159s-30 135.167 -30 216.5s10.833 153.666 32.5 216.999s52 116.666 91 159.999
s85.333 76.333 139 99s112.167 34 175.5 34c72.667 0 136 -12.833 190 -38.5s99 -61 135 -106s62.833 -98.167 80.5 -159.5s26.5 -127.333 26.5 -198c0 -17.333 -0.666992 -33.333 -2 -48s-2 -22.667 -2 -24h-672c4 -50.667 13 -93.334 27 -128.001s31.833 -62.5 53.5 -83.5
s46.667 -36 75 -45s58.5 -13.5 90.5 -13.5c52 0 96.667 10.833 134 32.5s64.333 57.167 81 106.5h193zM510 834.003c-32 0 -61.834 -5.66699 -89.501 -17s-52 -27.5 -73 -48.5s-38 -46.333 -51 -76s-21.167 -62.5 -24.5 -98.5h476c-2.66699 34 -9.16699 65.5 -19.5 94.5
s-25.166 54.333 -44.499 76s-43.333 38.667 -72 51s-62.667 18.5 -102 18.5zM343.999 1116l199 264h223l-230 -264h-192z" />
    <glyph glyph-name="ecircumflex" unicode="&#xea;" horiz-adv-x="1018" 
d="M922 301c-29.333 -101.333 -77.833 -178.83 -145.5 -232.497s-155.167 -80.5 -262.5 -80.5c-68.667 0 -130.167 11.333 -184.5 34s-100.5 55.5 -138.5 98.5s-67 96 -87 159s-30 135.167 -30 216.5s10.833 153.666 32.5 216.999s52 116.666 91 159.999
s85.333 76.333 139 99s112.167 34 175.5 34c72.667 0 136 -12.833 190 -38.5s99 -61 135 -106s62.833 -98.167 80.5 -159.5s26.5 -127.333 26.5 -198c0 -17.333 -0.666992 -33.333 -2 -48s-2 -22.667 -2 -24h-672c4 -50.667 13 -93.334 27 -128.001s31.833 -62.5 53.5 -83.5
s46.667 -36 75 -45s58.5 -13.5 90.5 -13.5c52 0 96.667 10.833 134 32.5s64.333 57.167 81 106.5h193zM510 834.003c-32 0 -61.834 -5.66699 -89.501 -17s-52 -27.5 -73 -48.5s-38 -46.333 -51 -76s-21.167 -62.5 -24.5 -98.5h476c-2.66699 34 -9.16699 65.5 -19.5 94.5
s-25.166 54.333 -44.499 76s-43.333 38.667 -72 51s-62.667 18.5 -102 18.5zM640.999 1116l-131 143l-127 -143h-189l219 270h197l219 -270h-188z" />
    <glyph glyph-name="edieresis" unicode="&#xeb;" horiz-adv-x="1018" 
d="M922 301c-29.333 -101.333 -77.833 -178.83 -145.5 -232.497s-155.167 -80.5 -262.5 -80.5c-68.667 0 -130.167 11.333 -184.5 34s-100.5 55.5 -138.5 98.5s-67 96 -87 159s-30 135.167 -30 216.5s10.833 153.666 32.5 216.999s52 116.666 91 159.999
s85.333 76.333 139 99s112.167 34 175.5 34c72.667 0 136 -12.833 190 -38.5s99 -61 135 -106s62.833 -98.167 80.5 -159.5s26.5 -127.333 26.5 -198c0 -17.333 -0.666992 -33.333 -2 -48s-2 -22.667 -2 -24h-672c4 -50.667 13 -93.334 27 -128.001s31.833 -62.5 53.5 -83.5
s46.667 -36 75 -45s58.5 -13.5 90.5 -13.5c52 0 96.667 10.833 134 32.5s64.333 57.167 81 106.5h193zM510 834.003c-32 0 -61.834 -5.66699 -89.501 -17s-52 -27.5 -73 -48.5s-38 -46.333 -51 -76s-21.167 -62.5 -24.5 -98.5h476c-2.66699 34 -9.16699 65.5 -19.5 94.5
s-25.166 54.333 -44.499 76s-43.333 38.667 -72 51s-62.667 18.5 -102 18.5zM402.999 1159h-178v221h178v-221zM773.999 1159h-180v221h180v-221z" />
    <glyph glyph-name="igrave" unicode="&#xec;" horiz-adv-x="459" 
d="M135 1116l-227 264h221l201 -264h-195zM328 0h-189v991h189v-991z" />
    <glyph glyph-name="iacute" unicode="&#xed;" horiz-adv-x="459" 
d="M137 1116l199 264h223l-230 -264h-192zM328 0h-189v991h189v-991z" />
    <glyph glyph-name="icircumflex" unicode="&#xee;" horiz-adv-x="459" 
d="M328 0h-189v991h189v-991zM363 1106l-131 143l-127 -143h-189l219 270h197l219 -270h-188z" />
    <glyph glyph-name="idieresis" unicode="&#xef;" horiz-adv-x="459" 
d="M135 1159h-178v221h178v-221zM506 1159h-180v221h180v-221zM328 0h-189v991h189v-991z" />
    <glyph glyph-name="eth" unicode="&#xf0;" horiz-adv-x="1042" 
d="M213 1399c38.667 4 69.3311 5.99902 91.998 5.99902c68 0 129.667 -9 185 -27s105.666 -43 150.999 -75l180 112l60 -98l-150 -94c37.333 -42 69.5 -89.5 96.5 -142.5s49.333 -110 67 -171s30.667 -125 39 -192s12.5 -135.5 12.5 -205.5c0 -82.667 -10 -156.5 -30 -221.5
s-48.667 -120 -86 -165s-82.666 -79.5 -135.999 -103.5s-113.333 -36 -180 -36c-67.333 0 -127.833 11.833 -181.5 35.5s-99.167 57.834 -136.5 102.501s-66 99 -86 163s-30 136.333 -30 217c0 76.667 10.5 145.667 31.5 207s50.5 113.5 88.5 156.5s83.667 76 137 99
s112.333 34.5 177 34.5c28.667 0 57.834 -3.33301 87.501 -10s55.834 -16.667 78.501 -30c-11.333 32.667 -25.333 63 -42 91s-36.667 52.667 -60 74l-117 -73l-62 98l74 45c-24.667 10.667 -51.167 19.167 -79.5 25.5s-58.5 9.5 -90.5 9.5h-90v168zM513.997 165.999
c78.667 0 138.998 27.6631 180.998 82.9961s63 139.666 63 252.999c0 48.667 -5.33301 92.834 -16 132.501s-26.334 73.834 -47.001 102.501s-46.167 50.834 -76.5 66.501s-65.166 23.5 -104.499 23.5c-37.333 0 -71.166 -6.83301 -101.499 -20.5
s-56.166 -34.167 -77.499 -61.5s-37.833 -61.166 -49.5 -101.499s-17.5 -87.5 -17.5 -141.5c0 -113.333 21 -197.666 63 -252.999s103 -83 183 -83z" />
    <glyph glyph-name="ntilde" unicode="&#xf1;" horiz-adv-x="1049" 
d="M135 0l0.00390625 991h189v-86c66 67.333 153.333 101 262 101c56 0 105.167 -9.33301 147.5 -28s77.666 -44.834 105.999 -78.501s49.833 -73.834 64.5 -120.501s22 -98 22 -154v-625h-189v610c0 30.667 -3.83301 59.667 -11.5 87s-19.334 51.333 -35.001 72
s-35.167 37 -58.5 49s-51 18 -83 18c-34 0 -64.833 -5.83301 -92.5 -17.5s-51.334 -29.667 -71.001 -54s-34.834 -55.166 -45.501 -92.499s-16 -81.666 -16 -132.999v-539h-189zM850.004 1389c-5.33301 -33.333 -13.666 -64.499 -24.999 -93.499s-26 -54 -44 -75
s-39.667 -37.5 -65 -49.5s-54.333 -18 -87 -18c-25.333 0 -50.166 4.33301 -74.499 13s-47.5 18.334 -69.5 29.001l-61.5 29c-19 8.66699 -35.833 13 -50.5 13c-18.667 0 -33.667 -7.16699 -45 -21.5s-19.666 -33.833 -24.999 -58.5h-151
c6.66699 32 15.834 62.167 27.501 90.5s26.5 53 44.5 74s39.5 37.5 64.5 49.5s54.5 18 88.5 18c23.333 0 46.666 -4.33301 69.999 -13s45.666 -18.334 66.999 -29.001s41.666 -20.334 60.999 -29.001s36.666 -13 51.999 -13c10 0 19 2.66699 27 8s15 12 21 20
s10.833 17 14.5 27s6.5 19.667 8.5 29h152z" />
    <glyph glyph-name="ograve" unicode="&#xf2;" horiz-adv-x="1026" 
d="M514 1006c68.667 0 130 -12.667 184 -38s99.833 -60.333 137.5 -105s66.5 -97.667 86.5 -159s30 -128 30 -200c0 -81.333 -10.333 -153.833 -31 -217.5s-50 -117.667 -88 -162s-84 -78.166 -138 -101.499s-114.333 -35 -181 -35c-68.667 0 -130.167 11.667 -184.5 35
s-100.5 57.166 -138.5 101.499s-67 98.333 -87 162s-30 136.167 -30 217.5c0 78 10.667 148.167 32 210.5s51.5 115 90.5 158s85.333 76 139 99s113.167 34.5 178.5 34.5zM514 162c82.667 0 144.667 27.5 186 82.5s62 140.833 62 257.5
c0 50.667 -5.16699 96.334 -15.5 137.001s-26 75.167 -47 103.5s-47 50.166 -78 65.499s-66.833 23 -107.5 23c-77.333 0 -138.333 -27.167 -183 -81.5s-67 -136.833 -67 -247.5c0 -116.667 20.833 -202.5 62.5 -257.5s104.167 -82.5 187.5 -82.5zM463 1116l-227 264h221
l201 -264h-195z" />
    <glyph glyph-name="oacute" unicode="&#xf3;" horiz-adv-x="1026" 
d="M514 1006c68.667 0 130 -12.667 184 -38s99.833 -60.333 137.5 -105s66.5 -97.667 86.5 -159s30 -128 30 -200c0 -81.333 -10.333 -153.833 -31 -217.5s-50 -117.667 -88 -162s-84 -78.166 -138 -101.499s-114.333 -35 -181 -35c-68.667 0 -130.167 11.667 -184.5 35
s-100.5 57.166 -138.5 101.499s-67 98.333 -87 162s-30 136.167 -30 217.5c0 78 10.667 148.167 32 210.5s51.5 115 90.5 158s85.333 76 139 99s113.167 34.5 178.5 34.5zM514 162c82.667 0 144.667 27.5 186 82.5s62 140.833 62 257.5
c0 50.667 -5.16699 96.334 -15.5 137.001s-26 75.167 -47 103.5s-47 50.166 -78 65.499s-66.833 23 -107.5 23c-77.333 0 -138.333 -27.167 -183 -81.5s-67 -136.833 -67 -247.5c0 -116.667 20.833 -202.5 62.5 -257.5s104.167 -82.5 187.5 -82.5zM363 1116l199 264h223
l-230 -264h-192z" />
    <glyph glyph-name="ocircumflex" unicode="&#xf4;" horiz-adv-x="1026" 
d="M514 1006c68.667 0 130 -12.667 184 -38s99.833 -60.333 137.5 -105s66.5 -97.667 86.5 -159s30 -128 30 -200c0 -81.333 -10.333 -153.833 -31 -217.5s-50 -117.667 -88 -162s-84 -78.166 -138 -101.499s-114.333 -35 -181 -35c-68.667 0 -130.167 11.667 -184.5 35
s-100.5 57.166 -138.5 101.499s-67 98.333 -87 162s-30 136.167 -30 217.5c0 78 10.667 148.167 32 210.5s51.5 115 90.5 158s85.333 76 139 99s113.167 34.5 178.5 34.5zM514 162c82.667 0 144.667 27.5 186 82.5s62 140.833 62 257.5
c0 50.667 -5.16699 96.334 -15.5 137.001s-26 75.167 -47 103.5s-47 50.166 -78 65.499s-66.833 23 -107.5 23c-77.333 0 -138.333 -27.167 -183 -81.5s-67 -136.833 -67 -247.5c0 -116.667 20.833 -202.5 62.5 -257.5s104.167 -82.5 187.5 -82.5zM643 1116l-131 143
l-127 -143h-189l219 270h197l219 -270h-188z" />
    <glyph glyph-name="otilde" unicode="&#xf5;" horiz-adv-x="1026" 
d="M514 1006c68.667 0 130 -12.667 184 -38s99.833 -60.333 137.5 -105s66.5 -97.667 86.5 -159s30 -128 30 -200c0 -81.333 -10.333 -153.833 -31 -217.5s-50 -117.667 -88 -162s-84 -78.166 -138 -101.499s-114.333 -35 -181 -35c-68.667 0 -130.167 11.667 -184.5 35
s-100.5 57.166 -138.5 101.499s-67 98.333 -87 162s-30 136.167 -30 217.5c0 78 10.667 148.167 32 210.5s51.5 115 90.5 158s85.333 76 139 99s113.167 34.5 178.5 34.5zM514 162c82.667 0 144.667 27.5 186 82.5s62 140.833 62 257.5
c0 50.667 -5.16699 96.334 -15.5 137.001s-26 75.167 -47 103.5s-47 50.166 -78 65.499s-66.833 23 -107.5 23c-77.333 0 -138.333 -27.167 -183 -81.5s-67 -136.833 -67 -247.5c0 -116.667 20.833 -202.5 62.5 -257.5s104.167 -82.5 187.5 -82.5zM852 1389
c-5.33301 -33.333 -13.666 -64.499 -24.999 -93.499s-26 -54 -44 -75s-39.667 -37.5 -65 -49.5s-54.333 -18 -87 -18c-25.333 0 -50.166 4.33301 -74.499 13s-47.5 18.334 -69.5 29.001l-61.5 29c-19 8.66699 -35.833 13 -50.5 13c-18.667 0 -33.667 -7.16699 -45 -21.5
s-19.666 -33.833 -24.999 -58.5h-151c6.66699 32 15.834 62.167 27.501 90.5s26.5 53 44.5 74s39.5 37.5 64.5 49.5s54.5 18 88.5 18c23.333 0 46.666 -4.33301 69.999 -13s45.666 -18.334 66.999 -29.001s41.666 -20.334 60.999 -29.001s36.666 -13 51.999 -13
c10 0 19 2.66699 27 8s15 12 21 20s10.833 17 14.5 27s6.5 19.667 8.5 29h152z" />
    <glyph glyph-name="odieresis" unicode="&#xf6;" horiz-adv-x="1026" 
d="M514 1006c68.667 0 130 -12.667 184 -38s99.833 -60.333 137.5 -105s66.5 -97.667 86.5 -159s30 -128 30 -200c0 -81.333 -10.333 -153.833 -31 -217.5s-50 -117.667 -88 -162s-84 -78.166 -138 -101.499s-114.333 -35 -181 -35c-68.667 0 -130.167 11.667 -184.5 35
s-100.5 57.166 -138.5 101.499s-67 98.333 -87 162s-30 136.167 -30 217.5c0 78 10.667 148.167 32 210.5s51.5 115 90.5 158s85.333 76 139 99s113.167 34.5 178.5 34.5zM514 162c82.667 0 144.667 27.5 186 82.5s62 140.833 62 257.5
c0 50.667 -5.16699 96.334 -15.5 137.001s-26 75.167 -47 103.5s-47 50.166 -78 65.499s-66.833 23 -107.5 23c-77.333 0 -138.333 -27.167 -183 -81.5s-67 -136.833 -67 -247.5c0 -116.667 20.833 -202.5 62.5 -257.5s104.167 -82.5 187.5 -82.5zM411 1159h-178v221h178
v-221zM782 1159h-180v221h180v-221z" />
    <glyph glyph-name="divide" unicode="&#xf7;" horiz-adv-x="1137" 
d="M1040 469h-948v176h948v-176zM670 329v-272h-203v272h203zM670 1048v-272h-203v272h203z" />
    <glyph glyph-name="oslash" unicode="&#xf8;" horiz-adv-x="1018" 
d="M795 899c48 -44 84.8379 -100 110.505 -168s38.5 -143.667 38.5 -227c0 -81.333 -10 -154 -30 -218s-48.833 -118.167 -86.5 -162.5s-83.334 -78.333 -137.001 -102s-113.834 -35.5 -180.501 -35.5c-36 0 -69.833 3.33301 -101.5 10s-61.5 15.667 -89.5 27l-45 -84h-149
l86 159c-45.333 44 -79.5 100.333 -102.5 169s-34.5 147.667 -34.5 237c0 78 10.5 148.167 31.5 210.5s50.667 115 89 158s84.166 76 137.499 99s112.666 34.5 177.999 34.5c32 0 62.667 -3.33301 92 -10s56.666 -15 81.999 -25l47 84h150zM510.005 162
c82.667 0 144.331 27.5 184.998 82.5s61 140.833 61 257.5c0 46 -4.66699 88 -14 126s-22.666 71 -39.999 99l-299 -547c30.667 -12 66.334 -18 107.001 -18zM262.002 502c0 -50 3.66797 -93.833 11.001 -131.5s18.666 -70.5 33.999 -98.5l293 543
c-28.667 12.667 -58.667 19 -90 19c-77.333 0 -138 -27.667 -182 -83s-66 -138.333 -66 -249z" />
    <glyph glyph-name="ugrave" unicode="&#xf9;" horiz-adv-x="1049" 
d="M123 991l187.994 0.000976562v-608c0 -39.333 5.16699 -73 15.5 -101s24.333 -51.333 42 -70s37.834 -32.334 60.501 -41.001s46.334 -13 71.001 -13c34.667 0 65.834 6 93.501 18s51.334 30.667 71.001 56s34.667 57.666 45 96.999s15.5 86.666 15.5 141.999v520h188
v-991h-188v90c-33.333 -34 -72.166 -59.5 -116.499 -76.5s-92.166 -25.5 -143.499 -25.5c-56 0 -105.167 9.16699 -147.5 27.5s-78 44.333 -107 78s-50.833 73.834 -65.5 120.501s-22 98.334 -22 155.001v622zM498.994 1116l-227 264h221l201 -264h-195z" />
    <glyph glyph-name="uacute" unicode="&#xfa;" horiz-adv-x="1049" 
d="M123 991l187.994 0.000976562v-608c0 -39.333 5.16699 -73 15.5 -101s24.333 -51.333 42 -70s37.834 -32.334 60.501 -41.001s46.334 -13 71.001 -13c34.667 0 65.834 6 93.501 18s51.334 30.667 71.001 56s34.667 57.666 45 96.999s15.5 86.666 15.5 141.999v520h188
v-991h-188v90c-33.333 -34 -72.166 -59.5 -116.499 -76.5s-92.166 -25.5 -143.499 -25.5c-56 0 -105.167 9.16699 -147.5 27.5s-78 44.333 -107 78s-50.833 73.834 -65.5 120.501s-22 98.334 -22 155.001v622zM319.994 1116l199 264h223l-230 -264h-192z" />
    <glyph glyph-name="ucircumflex" unicode="&#xfb;" horiz-adv-x="1049" 
d="M123 991l187.994 0.000976562v-608c0 -39.333 5.16699 -73 15.5 -101s24.333 -51.333 42 -70s37.834 -32.334 60.501 -41.001s46.334 -13 71.001 -13c34.667 0 65.834 6 93.501 18s51.334 30.667 71.001 56s34.667 57.666 45 96.999s15.5 86.666 15.5 141.999v520h188
v-991h-188v90c-33.333 -34 -72.166 -59.5 -116.499 -76.5s-92.166 -25.5 -143.499 -25.5c-56 0 -105.167 9.16699 -147.5 27.5s-78 44.333 -107 78s-50.833 73.834 -65.5 120.501s-22 98.334 -22 155.001v622zM648.994 1116l-131 143l-127 -143h-189l219 270h197l219 -270
h-188z" />
    <glyph glyph-name="udieresis" unicode="&#xfc;" horiz-adv-x="1049" 
d="M123 991l187.994 0.000976562v-608c0 -39.333 5.16699 -73 15.5 -101s24.333 -51.333 42 -70s37.834 -32.334 60.501 -41.001s46.334 -13 71.001 -13c34.667 0 65.834 6 93.501 18s51.334 30.667 71.001 56s34.667 57.666 45 96.999s15.5 86.666 15.5 141.999v520h188
v-991h-188v90c-33.333 -34 -72.166 -59.5 -116.499 -76.5s-92.166 -25.5 -143.499 -25.5c-56 0 -105.167 9.16699 -147.5 27.5s-78 44.333 -107 78s-50.833 73.834 -65.5 120.501s-22 98.334 -22 155.001v622zM423.994 1159h-178v221h178v-221zM794.994 1159h-180v221h180
v-221z" />
    <glyph glyph-name="yacute" unicode="&#xfd;" horiz-adv-x="907" 
d="M481 -199c-19.333 -57.333 -48.501 -100.667 -87.501 -130s-94.5 -44 -166.5 -44c-23.333 0 -41 1 -53 3c-7.33301 0.666992 -13.333 1.66699 -18 3v166l71 2c14 0 25.833 1.83301 35.5 5.5s18 9 25 16s12.833 15.5 17.5 25.5s9.33398 21.667 14.001 35l41 115l-352 993
h207l242 -729l237 729h205zM280.999 1116l199 264h223l-230 -264h-192z" />
    <glyph glyph-name="thorn" unicode="&#xfe;" horiz-adv-x="993" 
d="M264 909c32 30 67.4951 52.833 106.495 68.5s82.167 23.5 129.5 23.5c66.667 0 125.834 -12.5 177.501 -37.5s94.834 -59.5 129.501 -103.5s61 -96 79 -156s27 -124.667 27 -194c0 -78 -9.16699 -149.167 -27.5 -213.5s-45.166 -119.5 -80.499 -165.5
s-78.666 -81.667 -129.999 -107s-109.666 -38 -174.999 -38c-46 0 -89 8.5 -129 25.5s-75.667 40.5 -107 70.5v-471h-190v1769h190v-471zM488.995 827c-76.667 0 -134.666 -27.834 -173.999 -83.501s-59 -138.167 -59 -247.5c0 -108 18.833 -190 56.5 -246
s96.5 -84 176.5 -84c77.333 0 135.666 29.667 174.999 89s59 143 59 251c0 46.667 -5 89.667 -15 129s-24.833 73.333 -44.5 102s-44 50.834 -73 66.501s-62.833 23.5 -101.5 23.5z" />
    <glyph glyph-name="ydieresis" unicode="&#xff;" horiz-adv-x="907" 
d="M481 -199c-19.333 -57.333 -48.501 -100.667 -87.501 -130s-94.5 -44 -166.5 -44c-23.333 0 -41 1 -53 3c-7.33301 0.666992 -13.333 1.66699 -18 3v166l71 2c14 0 25.833 1.83301 35.5 5.5s18 9 25 16s12.833 15.5 17.5 25.5s9.33398 21.667 14.001 35l41 115l-352 993
h207l242 -729l237 729h205zM349.999 1159h-178v221h178v-221zM720.999 1159h-180v221h180v-221z" />
    <glyph glyph-name="Amacron" unicode="&#x100;" horiz-adv-x="1225" 
d="M897 344h-571l-127 -344h-207l524 1380h195l522 -1380h-207zM397 532h428l-215 574zM316 1765h589v-168h-589v168z" />
    <glyph glyph-name="amacron" unicode="&#x101;" horiz-adv-x="1077" 
d="M76 512c0 70 10.667 135.169 32 195.502s51.166 112.666 89.499 156.999s84.166 79 137.499 104s112.333 37.5 177 37.5c48 0 90.667 -8 128 -24s71 -39 101 -69v78h189v-768c0 -24.667 7 -41.667 21 -51s32.333 -14 55 -14h20v-156
c-4.66699 -1.33301 -10.667 -2.66602 -18 -3.99902c-6 -1.33301 -13.333 -2.33301 -22 -3s-18.667 -1 -30 -1c-45.333 0 -83.166 8.66699 -113.499 26s-53.833 46 -70.5 86c-32 -38.667 -71.167 -68.334 -117.5 -89.001s-96.5 -31 -150.5 -31
c-68.667 0 -129.667 12.833 -183 38.5s-98.166 61.667 -134.499 108s-63.833 101.666 -82.5 165.999s-28 135.5 -28 213.5zM266 508.002c0 -112 20.665 -198.001 61.998 -258.001s104.666 -90 189.999 -90c76.667 0 134.834 27.333 174.501 82s59.5 139.334 59.5 254.001
c0 114 -17.667 198.333 -53 253s-91.666 82 -168.999 82c-43.333 0 -81.333 -7.66699 -114 -23s-60.167 -37 -82.5 -65s-39.166 -61.833 -50.499 -101.5s-17 -84.167 -17 -133.5zM251.998 1380h589v-168h-589v168z" />
    <glyph glyph-name="Abreve" unicode="&#x102;" horiz-adv-x="1225" 
d="M897 344h-571l-127 -344h-207l524 1380h195l522 -1380h-207zM397 532h428l-215 574zM866 1769c0 -38 -6.83398 -72.833 -20.501 -104.5s-32 -58.834 -55 -81.501s-50.167 -40.334 -81.5 -53.001s-64.333 -19 -99 -19s-67.334 6.33301 -98.001 19
s-57.5 30.334 -80.5 53.001s-41.167 49.834 -54.5 81.501s-20 66.5 -20 104.5h141c0 -17.333 3 -33.5 9 -48.5s14 -27.833 24 -38.5s21.833 -19 35.5 -25s28.167 -9 43.5 -9c14.667 0 28.834 3 42.501 9s25.834 14.333 36.501 25s19 23.5 25 38.5s9 31.167 9 48.5h143z" />
    <glyph glyph-name="abreve" unicode="&#x103;" horiz-adv-x="1077" 
d="M76 512c0 70 10.667 135.169 32 195.502s51.166 112.666 89.499 156.999s84.166 79 137.499 104s112.333 37.5 177 37.5c48 0 90.667 -8 128 -24s71 -39 101 -69v78h189v-768c0 -24.667 7 -41.667 21 -51s32.333 -14 55 -14h20v-156
c-4.66699 -1.33301 -10.667 -2.66602 -18 -3.99902c-6 -1.33301 -13.333 -2.33301 -22 -3s-18.667 -1 -30 -1c-45.333 0 -83.166 8.66699 -113.499 26s-53.833 46 -70.5 86c-32 -38.667 -71.167 -68.334 -117.5 -89.001s-96.5 -31 -150.5 -31
c-68.667 0 -129.667 12.833 -183 38.5s-98.166 61.667 -134.499 108s-63.833 101.666 -82.5 165.999s-28 135.5 -28 213.5zM266 508.002c0 -112 20.665 -198.001 61.998 -258.001s104.666 -90 189.999 -90c76.667 0 134.834 27.333 174.501 82s59.5 139.334 59.5 254.001
c0 114 -17.667 198.333 -53 253s-91.666 82 -168.999 82c-43.333 0 -81.333 -7.66699 -114 -23s-60.167 -37 -82.5 -65s-39.166 -61.833 -50.499 -101.5s-17 -84.167 -17 -133.5zM801.998 1366c0 -38 -6.83398 -72.833 -20.501 -104.5s-32 -58.834 -55 -81.501
s-50.167 -40.334 -81.5 -53.001s-64.333 -19 -99 -19s-67.334 6.33301 -98.001 19s-57.5 30.334 -80.5 53.001s-41.167 49.834 -54.5 81.501s-20 66.5 -20 104.5h141c0 -17.333 3 -33.5 9 -48.5s14 -27.833 24 -38.5s21.833 -19 35.5 -25s28.167 -9 43.5 -9
c14.667 0 28.834 3 42.501 9s25.834 14.333 36.501 25s19 23.5 25 38.5s9 31.167 9 48.5h143z" />
    <glyph glyph-name="Aogonek" unicode="&#x104;" horiz-adv-x="1225" 
d="M897 344h-571l-127 -344h-207l524 1380h195l522 -1380h-207zM397 532h428l-215 574zM1223 -227c0 -26 2.16602 -47.499 6.49902 -64.499s10.666 -30.167 18.999 -39.5s18.833 -15.833 31.5 -19.5s27 -5.5 43 -5.5h39v-115c-15.333 -1.33301 -30.166 -2.33301 -44.499 -3
s-24.166 -1 -29.499 -1c-42 0 -77.5 6.5 -106.5 19.5s-52.667 31 -71 54s-31.5 50.667 -39.5 83s-12 68.166 -12 107.499v100h164v-116z" />
    <glyph glyph-name="aogonek" unicode="&#x105;" horiz-adv-x="1077" 
d="M76 512c0 70 10.667 135.169 32 195.502s51.166 112.666 89.499 156.999s84.166 79 137.499 104s112.333 37.5 177 37.5c48 0 90.667 -8 128 -24s71 -39 101 -69v78h189v-768c0 -24.667 7 -41.667 21 -51s32.333 -14 55 -14h20v-156
c-4.66699 -1.33301 -10.667 -2.66602 -18 -3.99902c-6 -1.33301 -13.333 -2.33301 -22 -3s-18.667 -1 -30 -1c-45.333 0 -83.166 8.66699 -113.499 26s-53.833 46 -70.5 86c-32 -38.667 -71.167 -68.334 -117.5 -89.001s-96.5 -31 -150.5 -31
c-68.667 0 -129.667 12.833 -183 38.5s-98.166 61.667 -134.499 108s-63.833 101.666 -82.5 165.999s-28 135.5 -28 213.5zM266 508.002c0 -112 20.665 -198.001 61.998 -258.001s104.666 -90 189.999 -90c76.667 0 134.834 27.333 174.501 82s59.5 139.334 59.5 254.001
c0 114 -17.667 198.333 -53 253s-91.666 82 -168.999 82c-43.333 0 -81.333 -7.66699 -114 -23s-60.167 -37 -82.5 -65s-39.166 -61.833 -50.499 -101.5s-17 -84.167 -17 -133.5zM1024 -226.999c0 -26 2.16602 -47.499 6.49902 -64.499s10.666 -30.167 18.999 -39.5
s18.833 -15.833 31.5 -19.5s27 -5.5 43 -5.5h39v-115c-15.333 -1.33301 -30.166 -2.33301 -44.499 -3s-24.166 -1 -29.499 -1c-42 0 -77.5 6.5 -106.5 19.5s-52.667 31 -71 54s-31.5 50.667 -39.5 83s-12 68.166 -12 107.499v100h164v-116z" />
    <glyph glyph-name="Cacute" unicode="&#x106;" horiz-adv-x="1272" 
d="M1004 965c-8.66699 37.333 -22.5029 71.3301 -41.5029 101.997s-42.833 56.834 -71.5 78.501s-62.167 38.5 -100.5 50.5s-81.166 18 -128.499 18c-63.333 0 -118.833 -11.5 -166.5 -34.5s-87.167 -56.667 -118.5 -101s-54.833 -99 -70.5 -164
s-23.5 -139.167 -23.5 -222.5c0 -170 31 -300.167 93 -390.5s156.333 -135.5 283 -135.5c96.667 0 173.667 22.5 231 67.5s97.333 109.167 120 192.5h207c-10.667 -65.333 -31 -125.666 -61 -180.999s-68.667 -103 -116 -143s-103 -71.167 -167 -93.5
s-135.333 -33.5 -214 -33.5c-95.333 0 -179.166 16.833 -251.499 50.5s-132.833 81.834 -181.5 144.501s-85.5 138 -110.5 226s-37.5 186.667 -37.5 296c0 108.667 12.667 207 38 295s62.833 163 112.5 225s110.834 109.667 183.501 143s156 50 250 50
c78.667 0 149.5 -11.167 212.5 -33.5s117.833 -53 164.5 -92s84.5 -85.5 113.5 -139.5s48.833 -112.333 59.5 -175h-208zM484.997 1513l199 264h223l-230 -264h-192z" />
    <glyph glyph-name="cacute" unicode="&#x107;" horiz-adv-x="979" 
d="M522 162c60 0 107.332 14.1709 141.999 42.5039s57 67.5 67 117.5h193c-10 -52 -26.333 -98.667 -49 -140s-51.167 -76.333 -85.5 -105s-73.833 -50.667 -118.5 -66s-93.667 -23 -147 -23c-69.333 0 -131.666 11.5 -186.999 34.5s-102.5 56.167 -141.5 99.5
s-69 96.5 -90 159.5s-31.5 134.5 -31.5 214.5s10.833 151.667 32.5 215s52.167 116.833 91.5 160.5s86.333 77 141 100s115 34.5 181 34.5c57.333 0 109 -8.33301 155 -25s85.833 -39.834 119.5 -69.501s61 -64.834 82 -105.501s35.5 -85.334 43.5 -134.001h-193
c-11.333 49.333 -33.833 88.166 -67.5 116.499s-80.834 42.5 -141.501 42.5c-78 0 -139.833 -27.5 -185.5 -82.5s-68.5 -139.167 -68.5 -252.5c0 -114.667 21.833 -199 65.5 -253s107.834 -81 192.501 -81zM366.999 1116l199 264h223l-230 -264h-192z" />
    <glyph glyph-name="Ccircumflex" unicode="&#x108;" horiz-adv-x="1272" 
d="M1004 965c-8.66699 37.333 -22.5029 71.3301 -41.5029 101.997s-42.833 56.834 -71.5 78.501s-62.167 38.5 -100.5 50.5s-81.166 18 -128.499 18c-63.333 0 -118.833 -11.5 -166.5 -34.5s-87.167 -56.667 -118.5 -101s-54.833 -99 -70.5 -164
s-23.5 -139.167 -23.5 -222.5c0 -170 31 -300.167 93 -390.5s156.333 -135.5 283 -135.5c96.667 0 173.667 22.5 231 67.5s97.333 109.167 120 192.5h207c-10.667 -65.333 -31 -125.666 -61 -180.999s-68.667 -103 -116 -143s-103 -71.167 -167 -93.5
s-135.333 -33.5 -214 -33.5c-95.333 0 -179.166 16.833 -251.499 50.5s-132.833 81.834 -181.5 144.501s-85.5 138 -110.5 226s-37.5 186.667 -37.5 296c0 108.667 12.667 207 38 295s62.833 163 112.5 225s110.834 109.667 183.501 143s156 50 250 50
c78.667 0 149.5 -11.167 212.5 -33.5s117.833 -53 164.5 -92s84.5 -85.5 113.5 -139.5s48.833 -112.333 59.5 -175h-208zM767.997 1513l-131 143l-127 -143h-189l219 270h197l219 -270h-188z" />
    <glyph glyph-name="ccircumflex" unicode="&#x109;" horiz-adv-x="979" 
d="M522 162c60 0 107.332 14.1709 141.999 42.5039s57 67.5 67 117.5h193c-10 -52 -26.333 -98.667 -49 -140s-51.167 -76.333 -85.5 -105s-73.833 -50.667 -118.5 -66s-93.667 -23 -147 -23c-69.333 0 -131.666 11.5 -186.999 34.5s-102.5 56.167 -141.5 99.5
s-69 96.5 -90 159.5s-31.5 134.5 -31.5 214.5s10.833 151.667 32.5 215s52.167 116.833 91.5 160.5s86.333 77 141 100s115 34.5 181 34.5c57.333 0 109 -8.33301 155 -25s85.833 -39.834 119.5 -69.501s61 -64.834 82 -105.501s35.5 -85.334 43.5 -134.001h-193
c-11.333 49.333 -33.833 88.166 -67.5 116.499s-80.834 42.5 -141.501 42.5c-78 0 -139.833 -27.5 -185.5 -82.5s-68.5 -139.167 -68.5 -252.5c0 -114.667 21.833 -199 65.5 -253s107.834 -81 192.501 -81zM622.999 1110l-131 143l-127 -143h-189l219 270h197l219 -270h-188
z" />
    <glyph glyph-name="Cdotaccent" unicode="&#x10a;" horiz-adv-x="1272" 
d="M1004 965c-8.66699 37.333 -22.5029 71.3301 -41.5029 101.997s-42.833 56.834 -71.5 78.501s-62.167 38.5 -100.5 50.5s-81.166 18 -128.499 18c-63.333 0 -118.833 -11.5 -166.5 -34.5s-87.167 -56.667 -118.5 -101s-54.833 -99 -70.5 -164
s-23.5 -139.167 -23.5 -222.5c0 -170 31 -300.167 93 -390.5s156.333 -135.5 283 -135.5c96.667 0 173.667 22.5 231 67.5s97.333 109.167 120 192.5h207c-10.667 -65.333 -31 -125.666 -61 -180.999s-68.667 -103 -116 -143s-103 -71.167 -167 -93.5
s-135.333 -33.5 -214 -33.5c-95.333 0 -179.166 16.833 -251.499 50.5s-132.833 81.834 -181.5 144.501s-85.5 138 -110.5 226s-37.5 186.667 -37.5 296c0 108.667 12.667 207 38 295s62.833 163 112.5 225s110.834 109.667 183.501 143s156 50 250 50
c78.667 0 149.5 -11.167 212.5 -33.5s117.833 -53 164.5 -92s84.5 -85.5 113.5 -139.5s48.833 -112.333 59.5 -175h-208zM732.997 1548h-191v235h191v-235z" />
    <glyph glyph-name="cdotaccent" unicode="&#x10b;" horiz-adv-x="979" 
d="M522 162c60 0 107.332 14.1709 141.999 42.5039s57 67.5 67 117.5h193c-10 -52 -26.333 -98.667 -49 -140s-51.167 -76.333 -85.5 -105s-73.833 -50.667 -118.5 -66s-93.667 -23 -147 -23c-69.333 0 -131.666 11.5 -186.999 34.5s-102.5 56.167 -141.5 99.5
s-69 96.5 -90 159.5s-31.5 134.5 -31.5 214.5s10.833 151.667 32.5 215s52.167 116.833 91.5 160.5s86.333 77 141 100s115 34.5 181 34.5c57.333 0 109 -8.33301 155 -25s85.833 -39.834 119.5 -69.501s61 -64.834 82 -105.501s35.5 -85.334 43.5 -134.001h-193
c-11.333 49.333 -33.833 88.166 -67.5 116.499s-80.834 42.5 -141.501 42.5c-78 0 -139.833 -27.5 -185.5 -82.5s-68.5 -139.167 -68.5 -252.5c0 -114.667 21.833 -199 65.5 -253s107.834 -81 192.501 -81zM587.999 1145h-191v235h191v-235z" />
    <glyph glyph-name="Ccaron" unicode="&#x10c;" horiz-adv-x="1272" 
d="M1004 965c-8.66699 37.333 -22.5029 71.3301 -41.5029 101.997s-42.833 56.834 -71.5 78.501s-62.167 38.5 -100.5 50.5s-81.166 18 -128.499 18c-63.333 0 -118.833 -11.5 -166.5 -34.5s-87.167 -56.667 -118.5 -101s-54.833 -99 -70.5 -164
s-23.5 -139.167 -23.5 -222.5c0 -170 31 -300.167 93 -390.5s156.333 -135.5 283 -135.5c96.667 0 173.667 22.5 231 67.5s97.333 109.167 120 192.5h207c-10.667 -65.333 -31 -125.666 -61 -180.999s-68.667 -103 -116 -143s-103 -71.167 -167 -93.5
s-135.333 -33.5 -214 -33.5c-95.333 0 -179.166 16.833 -251.499 50.5s-132.833 81.834 -181.5 144.501s-85.5 138 -110.5 226s-37.5 186.667 -37.5 296c0 108.667 12.667 207 38 295s62.833 163 112.5 225s110.834 109.667 183.501 143s156 50 250 50
c78.667 0 149.5 -11.167 212.5 -33.5s117.833 -53 164.5 -92s84.5 -85.5 113.5 -139.5s48.833 -112.333 59.5 -175h-208zM517.997 1783l129 -145l129 145h188l-219 -270h-199l-217 270h189z" />
    <glyph glyph-name="ccaron" unicode="&#x10d;" horiz-adv-x="979" 
d="M522 162c60 0 107.332 14.1709 141.999 42.5039s57 67.5 67 117.5h193c-10 -52 -26.333 -98.667 -49 -140s-51.167 -76.333 -85.5 -105s-73.833 -50.667 -118.5 -66s-93.667 -23 -147 -23c-69.333 0 -131.666 11.5 -186.999 34.5s-102.5 56.167 -141.5 99.5
s-69 96.5 -90 159.5s-31.5 134.5 -31.5 214.5s10.833 151.667 32.5 215s52.167 116.833 91.5 160.5s86.333 77 141 100s115 34.5 181 34.5c57.333 0 109 -8.33301 155 -25s85.833 -39.834 119.5 -69.501s61 -64.834 82 -105.501s35.5 -85.334 43.5 -134.001h-193
c-11.333 49.333 -33.833 88.166 -67.5 116.499s-80.834 42.5 -141.501 42.5c-78 0 -139.833 -27.5 -185.5 -82.5s-68.5 -139.167 -68.5 -252.5c0 -114.667 21.833 -199 65.5 -253s107.834 -81 192.501 -81zM374.999 1386l129 -145l129 145h188l-219 -270h-199l-217 270h189z
" />
    <glyph glyph-name="Dcaron" unicode="&#x10e;" horiz-adv-x="1321" 
d="M658 1380c96.667 0 181.5 -16.999 254.5 -50.999s134 -81 183 -141s85.833 -130.667 110.5 -212s37 -169 37 -263c0 -108.667 -12.5 -206.834 -37.5 -294.501s-62.333 -162.5 -112 -224.5s-111.167 -109.833 -184.5 -143.5s-158.333 -50.5 -255 -50.5h-512v1380h516z
M344 1190l0.00195312 -999.999h318c128 0 222.833 44.167 284.5 132.5s92.5 217.166 92.5 386.499c0 72 -7.83301 137.5 -23.5 196.5s-39.334 109.667 -71.001 152s-71.334 75 -119.001 98s-103.5 34.5 -167.5 34.5h-314zM492.002 1783l129 -145l129 145h188l-219 -270h-199
l-217 270h189z" />
    <glyph glyph-name="dcaron" unicode="&#x10f;" horiz-adv-x="1354" 
d="M1139 989v391h174v-391h-174zM489 1006c48.667 0 93.834 -8.66602 135.501 -25.999s78.5 -43 110.5 -77v477h189v-1380h-189v94c-32 -34 -68.833 -60.167 -110.5 -78.5s-86.834 -27.5 -135.501 -27.5c-66 0 -124.667 12.5 -176 37.5s-94.833 60.5 -130.5 106.5
s-62.667 101.167 -81 165.5s-27.5 135.833 -27.5 214.5c0 70 9.5 135 28.5 195s46.333 112.167 82 156.5s79.167 79.166 130.5 104.499s109.333 38 174 38zM506 162.001c80.667 0 140.334 27.667 179.001 83s58 139 58 251c0 114 -20.333 198.333 -61 253
s-99.334 82 -176.001 82c-40 0 -75.167 -7.83301 -105.5 -23.5s-55.5 -37.667 -75.5 -66s-35.167 -62.333 -45.5 -102s-15.5 -83.5 -15.5 -131.5c0 -110.667 19.5 -196 58.5 -256s100.167 -90 183.5 -90z" />
    <glyph glyph-name="Dcroat" unicode="&#x110;" horiz-adv-x="1432" 
d="M768 1380c96.667 0 181.667 -16.999 255 -50.999s134.5 -81 183.5 -141s85.833 -130.667 110.5 -212s37 -169 37 -263c0 -108.667 -12.667 -206.834 -38 -294.501s-62.666 -162.5 -111.999 -224.5s-110.833 -109.833 -184.5 -143.5s-158.834 -50.5 -255.501 -50.5h-512
v614h-191v172h191v594h516zM455 1190l0.00195312 -403.999h235v-172h-235v-424h317c128 0 222.833 44.167 284.5 132.5s92.5 217.166 92.5 386.499c0 72 -7.83301 137.5 -23.5 196.5s-39.334 109.667 -71.001 152s-71.334 75 -119.001 98s-103.5 34.5 -167.5 34.5h-313z" />
    <glyph glyph-name="dcroat" unicode="&#x111;" horiz-adv-x="1057" 
d="M414 1239h313.001v139h188v-139h144v-168h-144v-1071h-188v94c-32 -34 -68.5 -60.5 -109.5 -79.5s-85.833 -28.5 -134.5 -28.5c-64.667 0 -122.334 12.667 -173.001 38s-93.5 61 -128.5 107s-61.667 101.333 -80 166s-27.5 136.334 -27.5 215.001c0 70 9 135 27 195
s44.167 112.167 78.5 156.5s77 79.166 128 104.499s109.5 38 175.5 38c48.667 0 93.5 -9.66699 134.5 -29s77.5 -46 109.5 -80v174h-313v168zM500.001 162c80 0 139.167 27.667 177.5 83s57.5 139 57.5 251c0 114 -20 198.833 -60 254.5s-98.333 83.5 -175 83.5
c-40 0 -74.833 -8 -104.5 -24s-54.5 -38.333 -74.5 -67s-34.833 -63 -44.5 -103s-14.5 -84 -14.5 -132c0 -110.667 19.667 -196 59 -256s99 -90 179 -90z" />
    <glyph glyph-name="Emacron" unicode="&#x112;" horiz-adv-x="1149" 
d="M1096 1190h-742v-391h611v-191h-611v-418h742v-190h-944v1380h944v-190zM310 1765h589v-168h-589v168z" />
    <glyph glyph-name="emacron" unicode="&#x113;" horiz-adv-x="1018" 
d="M922 301c-29.333 -101.333 -77.833 -178.83 -145.5 -232.497s-155.167 -80.5 -262.5 -80.5c-68.667 0 -130.167 11.333 -184.5 34s-100.5 55.5 -138.5 98.5s-67 96 -87 159s-30 135.167 -30 216.5s10.833 153.666 32.5 216.999s52 116.666 91 159.999
s85.333 76.333 139 99s112.167 34 175.5 34c72.667 0 136 -12.833 190 -38.5s99 -61 135 -106s62.833 -98.167 80.5 -159.5s26.5 -127.333 26.5 -198c0 -17.333 -0.666992 -33.333 -2 -48s-2 -22.667 -2 -24h-672c4 -50.667 13 -93.334 27 -128.001s31.833 -62.5 53.5 -83.5
s46.667 -36 75 -45s58.5 -13.5 90.5 -13.5c52 0 96.667 10.833 134 32.5s64.333 57.167 81 106.5h193zM510 834.003c-32 0 -61.834 -5.66699 -89.501 -17s-52 -27.5 -73 -48.5s-38 -46.333 -51 -76s-21.167 -62.5 -24.5 -98.5h476c-2.66699 34 -9.16699 65.5 -19.5 94.5
s-25.166 54.333 -44.499 76s-43.333 38.667 -72 51s-62.667 18.5 -102 18.5zM214.999 1380h589v-168h-589v168z" />
    <glyph glyph-name="Ebreve" unicode="&#x114;" horiz-adv-x="1149" 
d="M1096 1190h-742v-391h611v-191h-611v-418h742v-190h-944v1380h944v-190zM892 1769c0 -38 -6.83398 -72.833 -20.501 -104.5s-32 -58.834 -55 -81.501s-50.167 -40.334 -81.5 -53.001s-64.333 -19 -99 -19s-67.334 6.33301 -98.001 19s-57.5 30.334 -80.5 53.001
s-41.167 49.834 -54.5 81.501s-20 66.5 -20 104.5h141c0 -17.333 3 -33.5 9 -48.5s14 -27.833 24 -38.5s21.833 -19 35.5 -25s28.167 -9 43.5 -9c14.667 0 28.834 3 42.501 9s25.834 14.333 36.501 25s19 23.5 25 38.5s9 31.167 9 48.5h143z" />
    <glyph glyph-name="ebreve" unicode="&#x115;" horiz-adv-x="1018" 
d="M922 301c-29.333 -101.333 -77.833 -178.83 -145.5 -232.497s-155.167 -80.5 -262.5 -80.5c-68.667 0 -130.167 11.333 -184.5 34s-100.5 55.5 -138.5 98.5s-67 96 -87 159s-30 135.167 -30 216.5s10.833 153.666 32.5 216.999s52 116.666 91 159.999
s85.333 76.333 139 99s112.167 34 175.5 34c72.667 0 136 -12.833 190 -38.5s99 -61 135 -106s62.833 -98.167 80.5 -159.5s26.5 -127.333 26.5 -198c0 -17.333 -0.666992 -33.333 -2 -48s-2 -22.667 -2 -24h-672c4 -50.667 13 -93.334 27 -128.001s31.833 -62.5 53.5 -83.5
s46.667 -36 75 -45s58.5 -13.5 90.5 -13.5c52 0 96.667 10.833 134 32.5s64.333 57.167 81 106.5h193zM510 834.003c-32 0 -61.834 -5.66699 -89.501 -17s-52 -27.5 -73 -48.5s-38 -46.333 -51 -76s-21.167 -62.5 -24.5 -98.5h476c-2.66699 34 -9.16699 65.5 -19.5 94.5
s-25.166 54.333 -44.499 76s-43.333 38.667 -72 51s-62.667 18.5 -102 18.5zM771.999 1366c0 -38 -6.83398 -72.833 -20.501 -104.5s-32 -58.834 -55 -81.501s-50.167 -40.334 -81.5 -53.001s-64.333 -19 -99 -19s-67.334 6.33301 -98.001 19s-57.5 30.334 -80.5 53.001
s-41.167 49.834 -54.5 81.501s-20 66.5 -20 104.5h141c0 -17.333 3 -33.5 9 -48.5s14 -27.833 24 -38.5s21.833 -19 35.5 -25s28.167 -9 43.5 -9c14.667 0 28.834 3 42.501 9s25.834 14.333 36.501 25s19 23.5 25 38.5s9 31.167 9 48.5h143z" />
    <glyph glyph-name="Edotaccent" unicode="&#x116;" horiz-adv-x="1149" 
d="M1096 1190h-742v-391h611v-191h-611v-418h742v-190h-944v1380h944v-190zM723 1542h-191v235h191v-235z" />
    <glyph glyph-name="edotaccent" unicode="&#x117;" horiz-adv-x="1018" 
d="M922 301c-29.333 -101.333 -77.833 -178.83 -145.5 -232.497s-155.167 -80.5 -262.5 -80.5c-68.667 0 -130.167 11.333 -184.5 34s-100.5 55.5 -138.5 98.5s-67 96 -87 159s-30 135.167 -30 216.5s10.833 153.666 32.5 216.999s52 116.666 91 159.999
s85.333 76.333 139 99s112.167 34 175.5 34c72.667 0 136 -12.833 190 -38.5s99 -61 135 -106s62.833 -98.167 80.5 -159.5s26.5 -127.333 26.5 -198c0 -17.333 -0.666992 -33.333 -2 -48s-2 -22.667 -2 -24h-672c4 -50.667 13 -93.334 27 -128.001s31.833 -62.5 53.5 -83.5
s46.667 -36 75 -45s58.5 -13.5 90.5 -13.5c52 0 96.667 10.833 134 32.5s64.333 57.167 81 106.5h193zM510 834.003c-32 0 -61.834 -5.66699 -89.501 -17s-52 -27.5 -73 -48.5s-38 -46.333 -51 -76s-21.167 -62.5 -24.5 -98.5h476c-2.66699 34 -9.16699 65.5 -19.5 94.5
s-25.166 54.333 -44.499 76s-43.333 38.667 -72 51s-62.667 18.5 -102 18.5zM599.999 1159h-191v235h191v-235z" />
    <glyph glyph-name="Eogonek" unicode="&#x118;" horiz-adv-x="1149" 
d="M1096 1190h-742v-391h611v-191h-611v-418h742v-190h-944v1380h944v-190zM719 -225c0 -26 2.16602 -47.499 6.49902 -64.499s10.666 -30.167 18.999 -39.5s18.833 -15.833 31.5 -19.5s27 -5.5 43 -5.5h39v-115c-15.333 -1.33301 -30.166 -2.33301 -44.499 -3
s-24.166 -1 -29.499 -1c-42 0 -77.5 6.5 -106.5 19.5s-52.667 31 -71 54s-31.5 50.667 -39.5 83s-12 68.166 -12 107.499v100h164v-116z" />
    <glyph glyph-name="eogonek" unicode="&#x119;" horiz-adv-x="1018" 
d="M922 301c-29.333 -101.333 -77.833 -178.83 -145.5 -232.497s-155.167 -80.5 -262.5 -80.5c-68.667 0 -130.167 11.333 -184.5 34s-100.5 55.5 -138.5 98.5s-67 96 -87 159s-30 135.167 -30 216.5s10.833 153.666 32.5 216.999s52 116.666 91 159.999
s85.333 76.333 139 99s112.167 34 175.5 34c72.667 0 136 -12.833 190 -38.5s99 -61 135 -106s62.833 -98.167 80.5 -159.5s26.5 -127.333 26.5 -198c0 -17.333 -0.666992 -33.333 -2 -48s-2 -22.667 -2 -24h-672c4 -50.667 13 -93.334 27 -128.001s31.833 -62.5 53.5 -83.5
s46.667 -36 75 -45s58.5 -13.5 90.5 -13.5c52 0 96.667 10.833 134 32.5s64.333 57.167 81 106.5h193zM510 834.003c-32 0 -61.834 -5.66699 -89.501 -17s-52 -27.5 -73 -48.5s-38 -46.333 -51 -76s-21.167 -62.5 -24.5 -98.5h476c-2.66699 34 -9.16699 65.5 -19.5 94.5
s-25.166 54.333 -44.499 76s-43.333 38.667 -72 51s-62.667 18.5 -102 18.5zM618.999 -226.997c0 -26 2.16602 -47.499 6.49902 -64.499s10.666 -30.167 18.999 -39.5s18.833 -15.833 31.5 -19.5s27 -5.5 43 -5.5h39v-115c-15.333 -1.33301 -30.166 -2.33301 -44.499 -3
s-24.166 -1 -29.499 -1c-42 0 -77.5 6.5 -106.5 19.5s-52.667 31 -71 54s-31.5 50.667 -39.5 83s-12 68.166 -12 107.499v100h164v-116z" />
    <glyph glyph-name="Ecaron" unicode="&#x11a;" horiz-adv-x="1149" 
d="M1096 1190h-742v-391h611v-191h-611v-418h742v-190h-944v1380h944v-190zM502 1783l129 -145l129 145h188l-219 -270h-199l-217 270h189z" />
    <glyph glyph-name="ecaron" unicode="&#x11b;" horiz-adv-x="1018" 
d="M922 301c-29.333 -101.333 -77.833 -178.83 -145.5 -232.497s-155.167 -80.5 -262.5 -80.5c-68.667 0 -130.167 11.333 -184.5 34s-100.5 55.5 -138.5 98.5s-67 96 -87 159s-30 135.167 -30 216.5s10.833 153.666 32.5 216.999s52 116.666 91 159.999
s85.333 76.333 139 99s112.167 34 175.5 34c72.667 0 136 -12.833 190 -38.5s99 -61 135 -106s62.833 -98.167 80.5 -159.5s26.5 -127.333 26.5 -198c0 -17.333 -0.666992 -33.333 -2 -48s-2 -22.667 -2 -24h-672c4 -50.667 13 -93.334 27 -128.001s31.833 -62.5 53.5 -83.5
s46.667 -36 75 -45s58.5 -13.5 90.5 -13.5c52 0 96.667 10.833 134 32.5s64.333 57.167 81 106.5h193zM510 834.003c-32 0 -61.834 -5.66699 -89.501 -17s-52 -27.5 -73 -48.5s-38 -46.333 -51 -76s-21.167 -62.5 -24.5 -98.5h476c-2.66699 34 -9.16699 65.5 -19.5 94.5
s-25.166 54.333 -44.499 76s-43.333 38.667 -72 51s-62.667 18.5 -102 18.5zM382.999 1386l129 -145l129 145h188l-219 -270h-199l-217 270h189z" />
    <glyph glyph-name="Gcircumflex" unicode="&#x11c;" horiz-adv-x="1315" 
d="M1006 965c-8.66699 37.333 -22.335 71.334 -41.002 102.001s-42.167 56.834 -70.5 78.501s-61.166 38.5 -98.499 50.5s-79.333 18 -126 18c-65.333 0 -122.333 -11.5 -171 -34.5s-89 -56.667 -121 -101s-55.833 -99 -71.5 -164s-23.5 -139.167 -23.5 -222.5
c0 -170 33.167 -300.5 99.5 -391.5s163.5 -136.5 291.5 -136.5c61.333 0 113.833 9.66699 157.5 29s79.334 45.333 107.001 78s47.834 70.5 60.501 113.5s19 88.167 19 135.5v51h-430v189h633v-242c0 -76.667 -12.333 -148.167 -37 -214.5s-60.667 -124 -108 -173
s-105.166 -87.5 -173.499 -115.5s-145.833 -42 -232.5 -42c-96 0 -180.833 17 -254.5 51s-135.5 82.333 -185.5 145s-87.833 138.167 -113.5 226.5s-38.5 187.166 -38.5 296.499c0 108.667 12.833 207 38.5 295s63.5 163 113.5 225s111.833 109.667 185.5 143
s158.5 50 254.5 50c77.333 0 147.333 -11.333 210 -34s117.167 -53.834 163.5 -93.501s83.666 -86.167 111.999 -139.5s47.166 -111 56.499 -173h-206zM790.999 1513l-131 143l-127 -143h-189l219 270h197l219 -270h-188z" />
    <glyph glyph-name="gcircumflex" unicode="&#x11d;" horiz-adv-x="1061" 
d="M297 -76c11.333 -41.333 34 -73.1689 68 -95.502s83 -33.5 147 -33.5c41.333 0 76.333 5.33301 105 16s51.834 27.5 69.501 50.5s30.5 52.5 38.5 88.5s12 79.333 12 130v37c-32 -36 -70 -64.5 -114 -85.5s-92 -31.5 -144 -31.5c-65.333 0 -123 12.333 -173 37
s-92.333 59.334 -127 104.001s-60.834 98.5 -78.501 161.5s-26.5 132.833 -26.5 209.5c0 68.667 9.33301 133 28 193s45.834 112.333 81.501 157s79.5 79.834 131.5 105.501s111 38.5 177 38.5c51.333 0 97 -9 137 -27s76 -44 108 -78v90h189v-911
c0 -150.667 -35.333 -264.5 -106 -341.5s-173.334 -115.5 -308.001 -115.5c-58 0 -110.5 7.5 -157.5 22.5s-87.5 35.667 -121.5 62s-61.5 58 -82.5 95s-34.833 77.5 -41.5 121.5h188zM264 511.997c0 -111.333 19.167 -195.501 57.5 -252.501s97.833 -85.5 178.5 -85.5
c78.667 0 139.167 26.667 181.5 80s63.5 135.333 63.5 246c0 112 -19 195.667 -57 251s-96.667 83 -176 83c-40 0 -75.5 -7.66699 -106.5 -23s-57 -37.166 -78 -65.499s-36.833 -62.333 -47.5 -102s-16 -83.5 -16 -131.5zM668 1110l-131 143l-127 -143h-189l219 270h197
l219 -270h-188z" />
    <glyph glyph-name="Gbreve" unicode="&#x11e;" horiz-adv-x="1315" 
d="M1006 965c-8.66699 37.333 -22.335 71.334 -41.002 102.001s-42.167 56.834 -70.5 78.501s-61.166 38.5 -98.499 50.5s-79.333 18 -126 18c-65.333 0 -122.333 -11.5 -171 -34.5s-89 -56.667 -121 -101s-55.833 -99 -71.5 -164s-23.5 -139.167 -23.5 -222.5
c0 -170 33.167 -300.5 99.5 -391.5s163.5 -136.5 291.5 -136.5c61.333 0 113.833 9.66699 157.5 29s79.334 45.333 107.001 78s47.834 70.5 60.501 113.5s19 88.167 19 135.5v51h-430v189h633v-242c0 -76.667 -12.333 -148.167 -37 -214.5s-60.667 -124 -108 -173
s-105.166 -87.5 -173.499 -115.5s-145.833 -42 -232.5 -42c-96 0 -180.833 17 -254.5 51s-135.5 82.333 -185.5 145s-87.833 138.167 -113.5 226.5s-38.5 187.166 -38.5 296.499c0 108.667 12.833 207 38.5 295s63.5 163 113.5 225s111.833 109.667 185.5 143
s158.5 50 254.5 50c77.333 0 147.333 -11.333 210 -34s117.167 -53.834 163.5 -93.501s83.666 -86.167 111.999 -139.5s47.166 -111 56.499 -173h-206zM918.999 1769c0 -38 -6.83398 -72.833 -20.501 -104.5s-32 -58.834 -55 -81.501s-50.167 -40.334 -81.5 -53.001
s-64.333 -19 -99 -19s-67.334 6.33301 -98.001 19s-57.5 30.334 -80.5 53.001s-41.167 49.834 -54.5 81.501s-20 66.5 -20 104.5h141c0 -17.333 3 -33.5 9 -48.5s14 -27.833 24 -38.5s21.833 -19 35.5 -25s28.167 -9 43.5 -9c14.667 0 28.834 3 42.501 9
s25.834 14.333 36.501 25s19 23.5 25 38.5s9 31.167 9 48.5h143z" />
    <glyph glyph-name="gbreve" unicode="&#x11f;" horiz-adv-x="1061" 
d="M297 -76c11.333 -41.333 34 -73.1689 68 -95.502s83 -33.5 147 -33.5c41.333 0 76.333 5.33301 105 16s51.834 27.5 69.501 50.5s30.5 52.5 38.5 88.5s12 79.333 12 130v37c-32 -36 -70 -64.5 -114 -85.5s-92 -31.5 -144 -31.5c-65.333 0 -123 12.333 -173 37
s-92.333 59.334 -127 104.001s-60.834 98.5 -78.501 161.5s-26.5 132.833 -26.5 209.5c0 68.667 9.33301 133 28 193s45.834 112.333 81.501 157s79.5 79.834 131.5 105.501s111 38.5 177 38.5c51.333 0 97 -9 137 -27s76 -44 108 -78v90h189v-911
c0 -150.667 -35.333 -264.5 -106 -341.5s-173.334 -115.5 -308.001 -115.5c-58 0 -110.5 7.5 -157.5 22.5s-87.5 35.667 -121.5 62s-61.5 58 -82.5 95s-34.833 77.5 -41.5 121.5h188zM264 511.997c0 -111.333 19.167 -195.501 57.5 -252.501s97.833 -85.5 178.5 -85.5
c78.667 0 139.167 26.667 181.5 80s63.5 135.333 63.5 246c0 112 -19 195.667 -57 251s-96.667 83 -176 83c-40 0 -75.5 -7.66699 -106.5 -23s-57 -37.166 -78 -65.499s-36.833 -62.333 -47.5 -102s-16 -83.5 -16 -131.5zM792 1366c0 -38 -6.83398 -72.833 -20.501 -104.5
s-32 -58.834 -55 -81.501s-50.167 -40.334 -81.5 -53.001s-64.333 -19 -99 -19s-67.334 6.33301 -98.001 19s-57.5 30.334 -80.5 53.001s-41.167 49.834 -54.5 81.501s-20 66.5 -20 104.5h141c0 -17.333 3 -33.5 9 -48.5s14 -27.833 24 -38.5s21.833 -19 35.5 -25
s28.167 -9 43.5 -9c14.667 0 28.834 3 42.501 9s25.834 14.333 36.501 25s19 23.5 25 38.5s9 31.167 9 48.5h143z" />
    <glyph glyph-name="Gdotaccent" unicode="&#x120;" horiz-adv-x="1315" 
d="M1006 965c-8.66699 37.333 -22.335 71.334 -41.002 102.001s-42.167 56.834 -70.5 78.501s-61.166 38.5 -98.499 50.5s-79.333 18 -126 18c-65.333 0 -122.333 -11.5 -171 -34.5s-89 -56.667 -121 -101s-55.833 -99 -71.5 -164s-23.5 -139.167 -23.5 -222.5
c0 -170 33.167 -300.5 99.5 -391.5s163.5 -136.5 291.5 -136.5c61.333 0 113.833 9.66699 157.5 29s79.334 45.333 107.001 78s47.834 70.5 60.501 113.5s19 88.167 19 135.5v51h-430v189h633v-242c0 -76.667 -12.333 -148.167 -37 -214.5s-60.667 -124 -108 -173
s-105.166 -87.5 -173.499 -115.5s-145.833 -42 -232.5 -42c-96 0 -180.833 17 -254.5 51s-135.5 82.333 -185.5 145s-87.833 138.167 -113.5 226.5s-38.5 187.166 -38.5 296.499c0 108.667 12.833 207 38.5 295s63.5 163 113.5 225s111.833 109.667 185.5 143
s158.5 50 254.5 50c77.333 0 147.333 -11.333 210 -34s117.167 -53.834 163.5 -93.501s83.666 -86.167 111.999 -139.5s47.166 -111 56.499 -173h-206zM769.999 1548h-191v235h191v-235z" />
    <glyph glyph-name="gdotaccent" unicode="&#x121;" horiz-adv-x="1061" 
d="M297 -76c11.333 -41.333 34 -73.1689 68 -95.502s83 -33.5 147 -33.5c41.333 0 76.333 5.33301 105 16s51.834 27.5 69.501 50.5s30.5 52.5 38.5 88.5s12 79.333 12 130v37c-32 -36 -70 -64.5 -114 -85.5s-92 -31.5 -144 -31.5c-65.333 0 -123 12.333 -173 37
s-92.333 59.334 -127 104.001s-60.834 98.5 -78.501 161.5s-26.5 132.833 -26.5 209.5c0 68.667 9.33301 133 28 193s45.834 112.333 81.501 157s79.5 79.834 131.5 105.501s111 38.5 177 38.5c51.333 0 97 -9 137 -27s76 -44 108 -78v90h189v-911
c0 -150.667 -35.333 -264.5 -106 -341.5s-173.334 -115.5 -308.001 -115.5c-58 0 -110.5 7.5 -157.5 22.5s-87.5 35.667 -121.5 62s-61.5 58 -82.5 95s-34.833 77.5 -41.5 121.5h188zM264 511.997c0 -111.333 19.167 -195.501 57.5 -252.501s97.833 -85.5 178.5 -85.5
c78.667 0 139.167 26.667 181.5 80s63.5 135.333 63.5 246c0 112 -19 195.667 -57 251s-96.667 83 -176 83c-40 0 -75.5 -7.66699 -106.5 -23s-57 -37.166 -78 -65.499s-36.833 -62.333 -47.5 -102s-16 -83.5 -16 -131.5zM633 1145h-191v235h191v-235z" />
    <glyph glyph-name="Gcommaaccent" unicode="&#x122;" horiz-adv-x="1315" 
d="M1006 965c-8.66699 37.333 -22.335 71.334 -41.002 102.001s-42.167 56.834 -70.5 78.501s-61.166 38.5 -98.499 50.5s-79.333 18 -126 18c-65.333 0 -122.333 -11.5 -171 -34.5s-89 -56.667 -121 -101s-55.833 -99 -71.5 -164s-23.5 -139.167 -23.5 -222.5
c0 -170 33.167 -300.5 99.5 -391.5s163.5 -136.5 291.5 -136.5c61.333 0 113.833 9.66699 157.5 29s79.334 45.333 107.001 78s47.834 70.5 60.501 113.5s19 88.167 19 135.5v51h-430v189h633v-242c0 -76.667 -12.333 -148.167 -37 -214.5s-60.667 -124 -108 -173
s-105.166 -87.5 -173.499 -115.5s-145.833 -42 -232.5 -42c-96 0 -180.833 17 -254.5 51s-135.5 82.333 -185.5 145s-87.833 138.167 -113.5 226.5s-38.5 187.166 -38.5 296.499c0 108.667 12.833 207 38.5 295s63.5 163 113.5 225s111.833 109.667 185.5 143
s158.5 50 254.5 50c77.333 0 147.333 -11.333 210 -34s117.167 -53.834 163.5 -93.501s83.666 -86.167 111.999 -139.5s47.166 -111 56.499 -173h-206zM577.999 -110.999l162.001 -0.000976562v-100c0 -39.333 -4 -75.166 -12 -107.499s-21 -60 -39 -83s-41.5 -41 -70.5 -54
s-64.5 -19.5 -106.5 -19.5c-5.33301 0 -15 0.333008 -29 1s-28.667 1.66699 -44 3v115h39c16 0 30.333 1.83301 43 5.5s23.167 10.167 31.5 19.5s14.666 22.5 18.999 39.5s6.5 38.5 6.5 64.5v116z" />
    <glyph glyph-name="gcommaaccent" unicode="&#x123;" horiz-adv-x="1067" 
d="M297 -76c11.333 -41.333 34 -73.1689 68 -95.502s83 -33.5 147 -33.5c41.333 0 76.333 5.33301 105 16s51.834 27.5 69.501 50.5s30.5 52.5 38.5 88.5s12 79.333 12 130v37c-32 -36 -70 -64.5 -114 -85.5s-92 -31.5 -144 -31.5c-65.333 0 -123 12.333 -173 37
s-92.333 59.334 -127 104.001s-60.834 98.5 -78.501 161.5s-26.5 132.833 -26.5 209.5c0 68.667 9.33301 133 28 193s45.834 112.333 81.501 157s79.5 79.834 131.5 105.501s111 38.5 177 38.5c51.333 0 97 -9 137 -27s76 -44 108 -78v90h189v-911
c0 -150.667 -35.333 -264.5 -106 -341.5s-173.334 -115.5 -308.001 -115.5c-58 0 -110.5 7.5 -157.5 22.5s-87.5 35.667 -121.5 62s-61.5 58 -82.5 95s-34.833 77.5 -41.5 121.5h188zM264 511.997c0 -111.333 19.167 -195.501 57.5 -252.501s97.833 -85.5 178.5 -85.5
c78.667 0 139.167 26.667 181.5 80s63.5 135.333 63.5 246c0 112 -19 195.667 -57 251s-96.667 83 -176 83c-40 0 -75.5 -7.66699 -106.5 -23s-57 -37.166 -78 -65.499s-36.833 -62.333 -47.5 -102s-16 -83.5 -16 -131.5zM383 1116l199 264h223l-230 -264h-192z" />
    <glyph glyph-name="Hcircumflex" unicode="&#x124;" horiz-adv-x="1319" 
d="M1167 0h-202v608h-611v-608h-202v1380h202v-581h611v581h202v-1380zM789 1513l-131 143l-127 -143h-189l219 270h197l219 -270h-188z" />
    <glyph glyph-name="hcircumflex" unicode="&#x125;" horiz-adv-x="1055" 
d="M141 0l0.000976562 1380h189v-477c32 33.333 70.167 58.833 114.5 76.5s92.833 26.5 145.5 26.5c56 0 105.167 -9.33301 147.5 -28s78 -44.834 107 -78.501s50.833 -73.834 65.5 -120.501s22 -98 22 -154v-625h-189v610c0 38.667 -5.16699 72.334 -15.5 101.001
s-24.166 52.167 -41.499 70.5s-37.333 32 -60 41s-46.334 13.5 -71.001 13.5c-68.667 0 -123.334 -23.833 -164.001 -71.5s-61 -122.834 -61 -225.501v-539h-189zM656.001 1450l-131 143l-127 -143h-189l219 270h197l219 -270h-188z" />
    <glyph glyph-name="Hbar" unicode="&#x126;" horiz-adv-x="1319" 
d="M1167 1221h121v-172h-121v-1049h-200v608h-613v-608h-202v1049h-136v172h136v159h202v-159h613v159h200v-159zM967 799v250h-613v-250h613z" />
    <glyph glyph-name="hbar" unicode="&#x127;" horiz-adv-x="1044" 
d="M6 1239l135.001 0.00195312v141h189v-141h286v-168h-286v-168c64 67.333 149.333 101 256 101c56 0 105 -9.33301 147 -28s77 -44.834 105 -78.501s49 -73.834 63 -120.501s21 -98 21 -154v-623h-189v608c0 38.667 -4.83301 72.334 -14.5 101.001
s-22.834 52.167 -39.501 70.5s-36 32 -58 41s-45.333 13.5 -70 13.5c-68.667 0 -122.667 -23.833 -162 -71.5s-59 -122.834 -59 -225.501v-537h-189v1071h-135v168z" />
    <glyph glyph-name="Itilde" unicode="&#x128;" horiz-adv-x="506" 
d="M360 0h-202v1380h202v-1380zM602 1792c-5.33301 -33.333 -13.666 -64.499 -24.999 -93.499s-26 -54 -44 -75s-39.667 -37.5 -65 -49.5s-54.333 -18 -87 -18c-25.333 0 -50.166 4.33301 -74.499 13s-47.5 18.334 -69.5 29.001l-61.5 29c-19 8.66699 -35.833 13 -50.5 13
c-18.667 0 -33.667 -7.16699 -45 -21.5s-19.666 -33.833 -24.999 -58.5h-151c6.66699 32 15.834 62.167 27.501 90.5s26.5 53 44.5 74s39.5 37.5 64.5 49.5s54.5 18 88.5 18c23.333 0 46.666 -4.33301 69.999 -13s45.666 -18.334 66.999 -29.001
s41.666 -20.334 60.999 -29.001s36.666 -13 51.999 -13c10 0 19 2.66699 27 8s15 12 21 20s10.833 17 14.5 27s6.5 19.667 8.5 29h152z" />
    <glyph glyph-name="itilde" unicode="&#x129;" horiz-adv-x="459" 
d="M328 0h-189v991h189v-991zM580 1389c-5.33301 -33.333 -13.666 -64.499 -24.999 -93.499s-26 -54 -44 -75s-39.667 -37.5 -65 -49.5s-54.333 -18 -87 -18c-25.333 0 -50.166 4.33301 -74.499 13s-47.5 18.334 -69.5 29.001l-61.5 29c-19 8.66699 -35.833 13 -50.5 13
c-18.667 0 -33.667 -7.16699 -45 -21.5s-19.666 -33.833 -24.999 -58.5h-151c6.66699 32 15.834 62.167 27.501 90.5s26.5 53 44.5 74s39.5 37.5 64.5 49.5s54.5 18 88.5 18c23.333 0 46.666 -4.33301 69.999 -13s45.666 -18.334 66.999 -29.001
s41.666 -20.334 60.999 -29.001s36.666 -13 51.999 -13c10 0 19 2.66699 27 8s15 12 21 20s10.833 17 14.5 27s6.5 19.667 8.5 29h152z" />
    <glyph glyph-name="Imacron" unicode="&#x12a;" horiz-adv-x="506" 
d="M360 0h-202v1380h202v-1380zM-41 1765h589v-168h-589v168z" />
    <glyph glyph-name="imacron" unicode="&#x12b;" horiz-adv-x="459" 
d="M-65 1380h589v-168h-589v168zM328 0h-189v991h189v-991z" />
    <glyph glyph-name="Ibreve" unicode="&#x12c;" horiz-adv-x="506" 
d="M360 0h-202v1380h202v-1380zM507 1769c0 -38 -6.83398 -72.833 -20.501 -104.5s-32 -58.834 -55 -81.501s-50.167 -40.334 -81.5 -53.001s-64.333 -19 -99 -19s-67.334 6.33301 -98.001 19s-57.5 30.334 -80.5 53.001s-41.167 49.834 -54.5 81.501s-20 66.5 -20 104.5
h141c0 -17.333 3 -33.5 9 -48.5s14 -27.833 24 -38.5s21.833 -19 35.5 -25s28.167 -9 43.5 -9c14.667 0 28.834 3 42.501 9s25.834 14.333 36.501 25s19 23.5 25 38.5s9 31.167 9 48.5h143z" />
    <glyph glyph-name="ibreve" unicode="&#x12d;" horiz-adv-x="459" 
d="M328 0h-189v991h189v-991zM485 1366c0 -38 -6.83398 -72.833 -20.501 -104.5s-32 -58.834 -55 -81.501s-50.167 -40.334 -81.5 -53.001s-64.333 -19 -99 -19s-67.334 6.33301 -98.001 19s-57.5 30.334 -80.5 53.001s-41.167 49.834 -54.5 81.501s-20 66.5 -20 104.5h141
c0 -17.333 3 -33.5 9 -48.5s14 -27.833 24 -38.5s21.833 -19 35.5 -25s28.167 -9 43.5 -9c14.667 0 28.834 3 42.501 9s25.834 14.333 36.501 25s19 23.5 25 38.5s9 31.167 9 48.5h143z" />
    <glyph glyph-name="Iogonek" unicode="&#x12e;" horiz-adv-x="506" 
d="M354 0h-202v1380h202v-1380zM334 -225c0 -26 2.16602 -47.499 6.49902 -64.499s10.666 -30.167 18.999 -39.5s18.833 -15.833 31.5 -19.5s27 -5.5 43 -5.5h39v-115c-15.333 -1.33301 -30.166 -2.33301 -44.499 -3s-24.166 -1 -29.499 -1c-42 0 -77.5 6.5 -106.5 19.5
s-52.667 31 -71 54s-31.5 50.667 -39.5 83s-12 68.166 -12 107.499v100h164v-116z" />
    <glyph glyph-name="iogonek" unicode="&#x12f;" horiz-adv-x="467" 
d="M328 0h-189v991h189v-991zM330 1145h-193v235h193v-235zM318 -225c0 -26 2.16602 -47.499 6.49902 -64.499s10.666 -30.167 18.999 -39.5s18.833 -15.833 31.5 -19.5s27 -5.5 43 -5.5h39v-115c-15.333 -1.33301 -30.166 -2.33301 -44.499 -3s-24.166 -1 -29.499 -1
c-42 0 -77.5 6.5 -106.5 19.5s-52.667 31 -71 54s-31.5 50.667 -39.5 83s-12 68.166 -12 107.499v100h164v-116z" />
    <glyph glyph-name="Idotaccent" unicode="&#x130;" horiz-adv-x="506" 
d="M354 0h-202v1380h202v-1380zM348 1548h-191v235h191v-235z" />
    <glyph glyph-name="dotlessi" unicode="&#x131;" horiz-adv-x="465" 
d="M326 0h-189v991h189v-991z" />
    <glyph glyph-name="IJ" unicode="&#x132;" horiz-adv-x="1432" 
d="M354 0h-202v1380h202v-1380zM696 369c0.666992 -26 5.49805 -51.166 14.498 -75.499s21.833 -46.166 38.5 -65.499s36.834 -34.833 60.501 -46.5s50.834 -17.5 81.501 -17.5c32.667 0 61.334 5.5 86.001 16.5s45.167 26.167 61.5 45.5s28.5 42.166 36.5 68.499
s12 55.166 12 86.499v999h203v-999c0 -54 -8 -105.5 -24 -154.5s-40.5 -92.167 -73.5 -129.5s-74.5 -67 -124.5 -89s-109 -33 -177 -33c-65.333 0 -122.333 10.833 -171 32.5s-89.334 50.834 -122.001 87.501s-57.667 78.667 -75 126s-27.333 96.666 -30 147.999h203z" />
    <glyph glyph-name="ij" unicode="&#x133;" horiz-adv-x="934" 
d="M326 0h-189v991h189v-991zM328 1145h-193v235h193v-235zM799 1145h-193v235h193v-235zM797 -109c0 -56 -8 -101.332 -24 -135.999s-36.833 -61.667 -62.5 -81s-54.5 -32.333 -86.5 -39s-64 -10 -96 -10c-26 0 -47.333 1.66699 -64 5c-8.66699 1.33301 -16.667 3 -24 5
v160h54c16 0 31 0.833008 45 2.5s26.167 5.5 36.5 11.5s18.333 14.667 24 26s8.5 26.666 8.5 45.999v1110h189v-1100z" />
    <glyph glyph-name="Jcircumflex" unicode="&#x134;" horiz-adv-x="866" 
d="M135 369c0.666992 -26 5.49805 -51.166 14.498 -75.499s21.833 -46.166 38.5 -65.499s36.834 -34.833 60.501 -46.5s50.834 -17.5 81.501 -17.5c32.667 0 61.334 5.5 86.001 16.5s45.167 26.167 61.5 45.5s28.5 42.166 36.5 68.499s12 55.166 12 86.499v999h203v-999
c0 -54 -8 -105.5 -24 -154.5s-40.5 -92.167 -73.5 -129.5s-74.5 -67 -124.5 -89s-109 -33 -177 -33c-65.333 0 -122.333 10.833 -171 32.5s-89.334 50.834 -122.001 87.501s-57.667 78.667 -75 126s-27.333 96.666 -30 147.999h203zM749.998 1513l-131 143l-127 -143h-189
l219 270h197l219 -270h-188z" />
    <glyph glyph-name="jcircumflex" unicode="&#x135;" horiz-adv-x="467" 
d="M328 -109c0 -56 -8 -101.332 -24 -135.999s-36.833 -61.667 -62.5 -81s-54.5 -32.333 -86.5 -39s-64 -10 -96 -10c-26 0 -47.333 1.66699 -64 5c-8.66699 1.33301 -16.667 3 -24 5v160h54c16 0 31 0.833008 45 2.5s26.167 5.5 36.5 11.5s18.333 14.667 24 26
s8.5 26.666 8.5 45.999v1110h189v-1100zM363 1110l-131 143l-127 -143h-189l219 270h197l219 -270h-188z" />
    <glyph glyph-name="Kcommaaccent" unicode="&#x136;" horiz-adv-x="1257" 
d="M354 719l594 661h258l-504 -551l553 -829h-241l-449 680l-211 -231v-449h-202v1380h202v-661zM553 -111l162.001 -0.000976562v-100c0 -39.333 -4 -75.166 -12 -107.499s-21 -60 -39 -83s-41.5 -41 -70.5 -54s-64.5 -19.5 -106.5 -19.5c-5.33301 0 -15 0.333008 -29 1
s-28.667 1.66699 -44 3v115h39c16 0 30.333 1.83301 43 5.5s23.167 10.167 31.5 19.5s14.666 22.5 18.999 39.5s6.5 38.5 6.5 64.5v116z" />
    <glyph glyph-name="kcommaaccent" unicode="&#x137;" horiz-adv-x="965" 
d="M571 590l408 -590h-234l-307 457l-114 -119v-338h-189v1380h189v-802l385 413h233zM416 -111l162.001 -0.000976562v-100c0 -39.333 -4 -75.166 -12 -107.499s-21 -60 -39 -83s-41.5 -41 -70.5 -54s-64.5 -19.5 -106.5 -19.5c-5.33301 0 -15 0.333008 -29 1
s-28.667 1.66699 -44 3v115h39c16 0 30.333 1.83301 43 5.5s23.167 10.167 31.5 19.5s14.666 22.5 18.999 39.5s6.5 38.5 6.5 64.5v116z" />
    <glyph glyph-name="kgreenlandic" unicode="&#x138;" horiz-adv-x="971" 
d="M631 918c28.667 30.667 61.668 51.833 99.001 63.5s80.666 17.5 129.999 17.5c14.667 0 27.5 -0.5 38.5 -1.5s20.167 -2.16699 27.5 -3.5l22 -5v-164h-100c-19.333 0 -35 -1.83301 -47 -5.5s-23 -10.5 -33 -20.5l-207 -224l406 -575h-236l-301 446l-100 -100v-346h-189
v991h189v-401z" />
    <glyph glyph-name="Lacute" unicode="&#x139;" horiz-adv-x="1040" 
d="M354 190h711v-190h-913v1380h202v-1190zM168 1513l199 264h223l-230 -264h-192z" />
    <glyph glyph-name="lacute" unicode="&#x13a;" horiz-adv-x="502" 
d="M317 256c0 -19.333 1.83398 -35.001 5.50098 -47.001s9.16699 -21.333 16.5 -28s16.833 -11.167 28.5 -13.5s25.167 -3.5 40.5 -3.5h30v-160c-4 -2 -9.33301 -3.66699 -16 -5c-12 -3.33301 -30.333 -5 -55 -5c-30.667 0 -60.334 3.33301 -89.001 10
s-54 19.834 -76 39.501s-39.667 47 -53 82s-20 80.5 -20 136.5v1118h188v-1124zM143.001 1513l199 264h223l-230 -264h-192z" />
    <glyph glyph-name="Lcommaaccent" unicode="&#x13b;" horiz-adv-x="1040" 
d="M354 190h711v-190h-913v1380h202v-1190zM533 -111l162.001 -0.000976562v-100c0 -39.333 -4 -75.166 -12 -107.499s-21 -60 -39 -83s-41.5 -41 -70.5 -54s-64.5 -19.5 -106.5 -19.5c-5.33301 0 -15 0.333008 -29 1s-28.667 1.66699 -44 3v115h39
c16 0 30.333 1.83301 43 5.5s23.167 10.167 31.5 19.5s14.666 22.5 18.999 39.5s6.5 38.5 6.5 64.5v116z" />
    <glyph glyph-name="lcommaaccent" unicode="&#x13c;" horiz-adv-x="502" 
d="M317 256c0 -19.333 1.83398 -35.001 5.50098 -47.001s9.16699 -21.333 16.5 -28s16.833 -11.167 28.5 -13.5s25.167 -3.5 40.5 -3.5h30v-160c-4 -2 -9.33301 -3.66699 -16 -5c-12 -3.33301 -30.333 -5 -55 -5c-30.667 0 -60.334 3.33301 -89.001 10
s-54 19.834 -76 39.501s-39.667 47 -53 82s-20 80.5 -20 136.5v1118h188v-1124zM272.001 -111.001l162.001 -0.000976562v-100c0 -39.333 -4 -75.166 -12 -107.499s-21 -60 -39 -83s-41.5 -41 -70.5 -54s-64.5 -19.5 -106.5 -19.5c-5.33301 0 -15 0.333008 -29 1
s-28.667 1.66699 -44 3v115h39c16 0 30.333 1.83301 43 5.5s23.167 10.167 31.5 19.5s14.666 22.5 18.999 39.5s6.5 38.5 6.5 64.5v116z" />
    <glyph glyph-name="Lcaron" unicode="&#x13d;" horiz-adv-x="1040" 
d="M625 989v391h174v-391h-174zM354 190h711v-190h-913v1380h202v-1190z" />
    <glyph glyph-name="lcaron" unicode="&#x13e;" horiz-adv-x="741" 
d="M520 989v391h174v-391h-174zM317 256c0 -19.333 1.83398 -35.001 5.50098 -47.001s9.16699 -21.333 16.5 -28s16.833 -11.167 28.5 -13.5s25.167 -3.5 40.5 -3.5h30v-160c-4 -2 -9.33301 -3.66699 -16 -5c-12 -3.33301 -30.333 -5 -55 -5
c-30.667 0 -60.334 3.33301 -89.001 10s-54 19.834 -76 39.501s-39.667 47 -53 82s-20 80.5 -20 136.5v1118h188v-1124z" />
    <glyph glyph-name="Ldot" unicode="&#x13f;" horiz-adv-x="1040" 
d="M354 190h711v-190h-913v1380h202v-1190zM774 741v-272h-195v272h195z" />
    <glyph glyph-name="ldot" unicode="&#x140;" horiz-adv-x="901" 
d="M317 256c0 -19.333 1.83398 -35.001 5.50098 -47.001s9.16699 -21.333 16.5 -28s16.833 -11.167 28.5 -13.5s25.167 -3.5 40.5 -3.5h30v-160c-4 -2 -9.33301 -3.66699 -16 -5c-12 -3.33301 -30.333 -5 -55 -5c-30.667 0 -60.334 3.33301 -89.001 10
s-54 19.834 -76 39.501s-39.667 47 -53 82s-20 80.5 -20 136.5v1118h188v-1124zM783.001 744.999v-272h-195v272h195z" />
    <glyph glyph-name="Lslash" unicode="&#x141;" horiz-adv-x="1075" 
d="M360 776l414 178v-194l-414 -178v-392h691v-190h-893v498l-115 -52v195l115 49v690h202v-604z" />
    <glyph glyph-name="lslash" unicode="&#x142;" horiz-adv-x="651" 
d="M375 760l188 84v-193l-188 -84v-319c0 -18.667 1.83301 -33.5 5.5 -44.5s9 -19.5 16 -25.5s16 -9.83301 27 -11.5s24.167 -2.5 39.5 -2.5h55v-160c-10 -2 -20 -3.66699 -30 -5c-18.667 -3.33301 -38.667 -5 -60 -5c-31.333 0 -61.5 3.33301 -90.5 10
s-54.833 19.5 -77.5 38.5s-40.667 45.667 -54 80s-20 79.5 -20 135.5v227l-131 -57v193l131 57v684h189v-602z" />
    <glyph glyph-name="Nacute" unicode="&#x143;" horiz-adv-x="1321" 
d="M1169 0h-202l-613 1016v-1016h-202v1380h202l613 -1011v1011h202v-1380zM475 1513l199 264h223l-230 -264h-192z" />
    <glyph glyph-name="nacute" unicode="&#x144;" horiz-adv-x="1049" 
d="M135 0l0.00390625 991h189v-86c66 67.333 153.333 101 262 101c56 0 105.167 -9.33301 147.5 -28s77.666 -44.834 105.999 -78.501s49.833 -73.834 64.5 -120.501s22 -98 22 -154v-625h-189v610c0 30.667 -3.83301 59.667 -11.5 87s-19.334 51.333 -35.001 72
s-35.167 37 -58.5 49s-51 18 -83 18c-34 0 -64.833 -5.83301 -92.5 -17.5s-51.334 -29.667 -71.001 -54s-34.834 -55.166 -45.501 -92.499s-16 -81.666 -16 -132.999v-539h-189zM375.004 1116l199 264h223l-230 -264h-192z" />
    <glyph glyph-name="Ncommaaccent" unicode="&#x145;" horiz-adv-x="1321" 
d="M1169 0h-202l-613 1016v-1016h-202v1380h202l613 -1011v1011h202v-1380zM592 -111l162.001 -0.000976562v-100c0 -39.333 -4 -75.166 -12 -107.499s-21 -60 -39 -83s-41.5 -41 -70.5 -54s-64.5 -19.5 -106.5 -19.5c-5.33301 0 -15 0.333008 -29 1s-28.667 1.66699 -44 3
v115h39c16 0 30.333 1.83301 43 5.5s23.167 10.167 31.5 19.5s14.666 22.5 18.999 39.5s6.5 38.5 6.5 64.5v116z" />
    <glyph glyph-name="ncommaaccent" unicode="&#x146;" horiz-adv-x="1049" 
d="M135 0l0.00390625 991h189v-86c66 67.333 153.333 101 262 101c56 0 105.167 -9.33301 147.5 -28s77.666 -44.834 105.999 -78.501s49.833 -73.834 64.5 -120.501s22 -98 22 -154v-625h-189v610c0 30.667 -3.83301 59.667 -11.5 87s-19.334 51.333 -35.001 72
s-35.167 37 -58.5 49s-51 18 -83 18c-34 0 -64.833 -5.83301 -92.5 -17.5s-51.334 -29.667 -71.001 -54s-34.834 -55.166 -45.501 -92.499s-16 -81.666 -16 -132.999v-539h-189zM432.004 -111l162.001 -0.000976562v-100c0 -39.333 -4 -75.166 -12 -107.499s-21 -60 -39 -83
s-41.5 -41 -70.5 -54s-64.5 -19.5 -106.5 -19.5c-5.33301 0 -15 0.333008 -29 1s-28.667 1.66699 -44 3v115h39c16 0 30.333 1.83301 43 5.5s23.167 10.167 31.5 19.5s14.666 22.5 18.999 39.5s6.5 38.5 6.5 64.5v116z" />
    <glyph glyph-name="Ncaron" unicode="&#x147;" horiz-adv-x="1321" 
d="M1169 0h-202l-613 1016v-1016h-202v1380h202l613 -1011v1011h202v-1380zM531 1783l129 -145l129 145h188l-219 -270h-199l-217 270h189z" />
    <glyph glyph-name="ncaron" unicode="&#x148;" horiz-adv-x="1049" 
d="M135 0l0.00390625 991h189v-86c66 67.333 153.333 101 262 101c56 0 105.167 -9.33301 147.5 -28s77.666 -44.834 105.999 -78.501s49.833 -73.834 64.5 -120.501s22 -98 22 -154v-625h-189v610c0 30.667 -3.83301 59.667 -11.5 87s-19.334 51.333 -35.001 72
s-35.167 37 -58.5 49s-51 18 -83 18c-34 0 -64.833 -5.83301 -92.5 -17.5s-51.334 -29.667 -71.001 -54s-34.834 -55.166 -45.501 -92.499s-16 -81.666 -16 -132.999v-539h-189zM394.004 1386l129 -145l129 145h188l-219 -270h-199l-217 270h189z" />
    <glyph glyph-name="napostrophe" unicode="&#x149;" horiz-adv-x="1272" 
d="M47 989v391h174v-391h-174zM358 0l0.00390625 991h189v-86c66 67.333 153.333 101 262 101c56 0 105.167 -9.33301 147.5 -28s77.666 -44.834 105.999 -78.501s49.833 -73.834 64.5 -120.501s22 -98 22 -154v-625h-189v610c0 30.667 -3.83301 59.667 -11.5 87
s-19.334 51.333 -35.001 72s-35.167 37 -58.5 49s-51 18 -83 18c-34 0 -64.833 -5.83301 -92.5 -17.5s-51.334 -29.667 -71.001 -54s-34.834 -55.166 -45.501 -92.499s-16 -81.666 -16 -132.999v-539h-189z" />
    <glyph glyph-name="Eng" unicode="&#x14a;" horiz-adv-x="1300" 
d="M1149 -137c0 -56 -8.49902 -101.332 -25.499 -135.999s-38.833 -61.667 -65.5 -81s-56.334 -32.333 -89.001 -39s-65 -10 -97 -10c-26 0 -47.333 1.66699 -64 5c-8.66699 1.33301 -16.667 3 -24 5v160h54c16 0 31 0.833008 45 2.5s26.167 5.5 36.5 11.5
s18.333 14.667 24 26s8.5 26.666 8.5 45.999v135l-598 1028v-1016h-202v1380h204l592 -1013v1013h201v-1517z" />
    <glyph glyph-name="eng" unicode="&#x14b;" horiz-adv-x="1038" 
d="M135 0l-0.00195312 991.001h189v-90c32.667 33.333 70.167 58.833 112.5 76.5s90.833 26.5 145.5 26.5c56 0 104.833 -9.33301 146.5 -28s76.334 -44.834 104.001 -78.501s48.334 -73.834 62.001 -120.501s20.5 -98 20.5 -154v-760c0 -56 -8 -101.333 -24 -136
s-36.833 -61.667 -62.5 -81s-54.334 -32.333 -86.001 -39s-63.5 -10 -95.5 -10c-26 0 -47.333 1.66699 -64 5c-8.66699 1.33301 -16.667 3 -24 5v160h53c16.667 0 32 0.833008 46 2.5s26.167 5.5 36.5 11.5s18.333 14.667 24 26s8.5 26.666 8.5 45.999v755
c0 25.333 -3.83301 51.333 -11.5 78s-19 51 -34 73s-34 40 -57 54s-49.5 21 -79.5 21c-34 0 -64.5 -5.83301 -91.5 -17.5s-50.167 -29.667 -69.5 -54s-34.166 -55.166 -44.499 -92.499s-15.5 -81.666 -15.5 -132.999v-537h-189z" />
    <glyph glyph-name="Omacron" unicode="&#x14c;" horiz-adv-x="1321" 
d="M659 1405c98 0 183.499 -18.665 256.499 -55.998s133.833 -87.833 182.5 -151.5s85 -137.667 109 -222s36 -173.833 36 -268.5c0 -109.333 -12.167 -209 -36.5 -299s-61 -167.333 -110 -232s-110 -114.667 -183 -150s-157.833 -53 -254.5 -53
c-95.333 0 -179.166 17.5 -251.499 52.5s-132.833 84.167 -181.5 147.5s-85.5 139.666 -110.5 228.999s-37.5 188.666 -37.5 297.999c0 107.333 13 204.5 39 291.5s63.833 161.167 113.5 222.5s110.5 108.5 182.5 141.5s154 49.5 246 49.5zM656.999 1214
c-61.333 0 -115.334 -11.3291 -162.001 -33.9961s-85.667 -55.834 -117 -99.501s-55 -97.334 -71 -161.001s-24 -136.834 -24 -219.501c0 -85.333 7.66699 -161.333 23 -228s38.5 -122.834 69.5 -168.501s70 -80.334 117 -104.001s101.833 -35.5 164.5 -35.5
c64.667 0 120.834 12 168.501 36s87.167 59 118.5 105s54.833 102.333 70.5 169s23.5 142.667 23.5 228c0 74 -7.5 142.167 -22.5 204.5s-38.167 116.333 -69.5 162s-70.833 81.334 -118.5 107.001s-104.5 38.5 -170.5 38.5zM364.998 1765.01h589v-168h-589v168z" />
    <glyph glyph-name="omacron" unicode="&#x14d;" horiz-adv-x="1026" 
d="M514 1006c68.667 0 130 -12.667 184 -38s99.833 -60.333 137.5 -105s66.5 -97.667 86.5 -159s30 -128 30 -200c0 -81.333 -10.333 -153.833 -31 -217.5s-50 -117.667 -88 -162s-84 -78.166 -138 -101.499s-114.333 -35 -181 -35c-68.667 0 -130.167 11.667 -184.5 35
s-100.5 57.166 -138.5 101.499s-67 98.333 -87 162s-30 136.167 -30 217.5c0 78 10.667 148.167 32 210.5s51.5 115 90.5 158s85.333 76 139 99s113.167 34.5 178.5 34.5zM514 162c82.667 0 144.667 27.5 186 82.5s62 140.833 62 257.5
c0 50.667 -5.16699 96.334 -15.5 137.001s-26 75.167 -47 103.5s-47 50.166 -78 65.499s-66.833 23 -107.5 23c-77.333 0 -138.333 -27.167 -183 -81.5s-67 -136.833 -67 -247.5c0 -116.667 20.833 -202.5 62.5 -257.5s104.167 -82.5 187.5 -82.5zM218 1380h589v-168h-589
v168z" />
    <glyph glyph-name="Obreve" unicode="&#x14e;" horiz-adv-x="1321" 
d="M659 1405c98 0 183.499 -18.665 256.499 -55.998s133.833 -87.833 182.5 -151.5s85 -137.667 109 -222s36 -173.833 36 -268.5c0 -109.333 -12.167 -209 -36.5 -299s-61 -167.333 -110 -232s-110 -114.667 -183 -150s-157.833 -53 -254.5 -53
c-95.333 0 -179.166 17.5 -251.499 52.5s-132.833 84.167 -181.5 147.5s-85.5 139.666 -110.5 228.999s-37.5 188.666 -37.5 297.999c0 107.333 13 204.5 39 291.5s63.833 161.167 113.5 222.5s110.5 108.5 182.5 141.5s154 49.5 246 49.5zM656.999 1214
c-61.333 0 -115.334 -11.3291 -162.001 -33.9961s-85.667 -55.834 -117 -99.501s-55 -97.334 -71 -161.001s-24 -136.834 -24 -219.501c0 -85.333 7.66699 -161.333 23 -228s38.5 -122.834 69.5 -168.501s70 -80.334 117 -104.001s101.833 -35.5 164.5 -35.5
c64.667 0 120.834 12 168.501 36s87.167 59 118.5 105s54.833 102.333 70.5 169s23.5 142.667 23.5 228c0 74 -7.5 142.167 -22.5 204.5s-38.167 116.333 -69.5 162s-70.833 81.334 -118.5 107.001s-104.5 38.5 -170.5 38.5zM914.998 1769.01
c0 -38 -6.83398 -72.833 -20.501 -104.5s-32 -58.834 -55 -81.501s-50.167 -40.334 -81.5 -53.001s-64.333 -19 -99 -19s-67.334 6.33301 -98.001 19s-57.5 30.334 -80.5 53.001s-41.167 49.834 -54.5 81.501s-20 66.5 -20 104.5h141c0 -17.333 3 -33.5 9 -48.5
s14 -27.833 24 -38.5s21.833 -19 35.5 -25s28.167 -9 43.5 -9c14.667 0 28.834 3 42.501 9s25.834 14.333 36.501 25s19 23.5 25 38.5s9 31.167 9 48.5h143z" />
    <glyph glyph-name="obreve" unicode="&#x14f;" horiz-adv-x="1026" 
d="M514 1006c68.667 0 130 -12.667 184 -38s99.833 -60.333 137.5 -105s66.5 -97.667 86.5 -159s30 -128 30 -200c0 -81.333 -10.333 -153.833 -31 -217.5s-50 -117.667 -88 -162s-84 -78.166 -138 -101.499s-114.333 -35 -181 -35c-68.667 0 -130.167 11.667 -184.5 35
s-100.5 57.166 -138.5 101.499s-67 98.333 -87 162s-30 136.167 -30 217.5c0 78 10.667 148.167 32 210.5s51.5 115 90.5 158s85.333 76 139 99s113.167 34.5 178.5 34.5zM514 162c82.667 0 144.667 27.5 186 82.5s62 140.833 62 257.5
c0 50.667 -5.16699 96.334 -15.5 137.001s-26 75.167 -47 103.5s-47 50.166 -78 65.499s-66.833 23 -107.5 23c-77.333 0 -138.333 -27.167 -183 -81.5s-67 -136.833 -67 -247.5c0 -116.667 20.833 -202.5 62.5 -257.5s104.167 -82.5 187.5 -82.5zM768 1366
c0 -38 -6.83398 -72.833 -20.501 -104.5s-32 -58.834 -55 -81.501s-50.167 -40.334 -81.5 -53.001s-64.333 -19 -99 -19s-67.334 6.33301 -98.001 19s-57.5 30.334 -80.5 53.001s-41.167 49.834 -54.5 81.501s-20 66.5 -20 104.5h141c0 -17.333 3 -33.5 9 -48.5
s14 -27.833 24 -38.5s21.833 -19 35.5 -25s28.167 -9 43.5 -9c14.667 0 28.834 3 42.501 9s25.834 14.333 36.501 25s19 23.5 25 38.5s9 31.167 9 48.5h143z" />
    <glyph glyph-name="Ohungarumlaut" unicode="&#x150;" horiz-adv-x="1321" 
d="M659 1405c98 0 183.499 -18.665 256.499 -55.998s133.833 -87.833 182.5 -151.5s85 -137.667 109 -222s36 -173.833 36 -268.5c0 -109.333 -12.167 -209 -36.5 -299s-61 -167.333 -110 -232s-110 -114.667 -183 -150s-157.833 -53 -254.5 -53
c-95.333 0 -179.166 17.5 -251.499 52.5s-132.833 84.167 -181.5 147.5s-85.5 139.666 -110.5 228.999s-37.5 188.666 -37.5 297.999c0 107.333 13 204.5 39 291.5s63.833 161.167 113.5 222.5s110.5 108.5 182.5 141.5s154 49.5 246 49.5zM656.999 1214
c-61.333 0 -115.334 -11.3291 -162.001 -33.9961s-85.667 -55.834 -117 -99.501s-55 -97.334 -71 -161.001s-24 -136.834 -24 -219.501c0 -85.333 7.66699 -161.333 23 -228s38.5 -122.834 69.5 -168.501s70 -80.334 117 -104.001s101.833 -35.5 164.5 -35.5
c64.667 0 120.834 12 168.501 36s87.167 59 118.5 105s54.833 102.333 70.5 169s23.5 142.667 23.5 228c0 74 -7.5 142.167 -22.5 204.5s-38.167 116.333 -69.5 162s-70.833 81.334 -118.5 107.001s-104.5 38.5 -170.5 38.5zM328.998 1506.01l209 270h211l-254 -270h-166z
M652.998 1506.01l207 270h213l-256 -270h-164z" />
    <glyph glyph-name="ohungarumlaut" unicode="&#x151;" horiz-adv-x="1026" 
d="M514 1006c68.667 0 130 -12.667 184 -38s99.833 -60.333 137.5 -105s66.5 -97.667 86.5 -159s30 -128 30 -200c0 -81.333 -10.333 -153.833 -31 -217.5s-50 -117.667 -88 -162s-84 -78.166 -138 -101.499s-114.333 -35 -181 -35c-68.667 0 -130.167 11.667 -184.5 35
s-100.5 57.166 -138.5 101.499s-67 98.333 -87 162s-30 136.167 -30 217.5c0 78 10.667 148.167 32 210.5s51.5 115 90.5 158s85.333 76 139 99s113.167 34.5 178.5 34.5zM514 162c82.667 0 144.667 27.5 186 82.5s62 140.833 62 257.5
c0 50.667 -5.16699 96.334 -15.5 137.001s-26 75.167 -47 103.5s-47 50.166 -78 65.499s-66.833 23 -107.5 23c-77.333 0 -138.333 -27.167 -183 -81.5s-67 -136.833 -67 -247.5c0 -116.667 20.833 -202.5 62.5 -257.5s104.167 -82.5 187.5 -82.5zM202 1106l209 270h211
l-254 -270h-166zM526 1106l207 270h213l-256 -270h-164z" />
    <glyph glyph-name="OE" unicode="&#x152;" horiz-adv-x="1901" 
d="M1817 1190l-664 0.000976562v-391h549v-191h-549v-418h664v-190h-865v49c-41.333 -24.667 -86.333 -43.5 -135 -56.5s-101.334 -19.5 -158.001 -19.5c-95.333 0 -179.166 17.5 -251.499 52.5s-132.833 84.167 -181.5 147.5s-85.5 139.666 -110.5 228.999
s-37.5 188.666 -37.5 297.999c0 107.333 13 204.5 39 291.5s63.833 161.167 113.5 222.5s110.5 108.5 182.5 141.5s154 49.5 246 49.5c56 0 109 -7.16699 159 -21.5s94.667 -33.166 134 -56.499v53h865v-190zM659 166.001c67.333 0 125.333 12.501 174 37.501
s88.334 61.5 119.001 109.5v752c-30.667 47.333 -70.334 84 -119.001 110s-106.667 39 -174 39c-61.333 0 -115.333 -11.333 -162 -34s-85.667 -55.834 -117 -99.501s-55 -97.334 -71 -161.001s-24 -136.834 -24 -219.501c0 -85.333 7.83301 -161.166 23.5 -227.499
s39 -122.166 70 -167.499s70 -79.833 117 -103.5s101.5 -35.5 163.5 -35.5z" />
    <glyph glyph-name="oe" unicode="&#x153;" horiz-adv-x="1694" 
d="M510 1006c80.667 0 149.17 -17.1641 205.503 -51.4971s101.166 -80.833 134.499 -139.5c34 62 79.667 109.333 137 142s126.333 49 207 49c74 0 137.833 -12 191.5 -36s97.834 -57.5 132.501 -100.5s60.334 -93.833 77.001 -152.5s25 -123 25 -193
c0 -22.667 -0.333008 -41.167 -1 -55.5s-1.66699 -25.833 -3 -34.5h-664c3.33301 -50.667 11.166 -93.5 23.499 -128.5s28.833 -63.167 49.5 -84.5s45.167 -36.833 73.5 -46.5s60.166 -14.5 95.499 -14.5c47.333 0 89.833 11.167 127.5 33.5s64.834 58.166 81.501 107.499
h194c-28.667 -101.333 -76 -178.833 -142 -232.5s-153 -80.5 -261 -80.5c-160.667 0 -275.334 62 -344.001 186c-34 -60.667 -79.333 -106.834 -136 -138.501s-124.667 -47.5 -204 -47.5c-68.667 0 -130 11.667 -184 35s-99.667 57.166 -137 101.499
s-65.833 98.333 -85.5 162s-29.5 136.167 -29.5 217.5c0 78 10.5 148.167 31.5 210.5s50.667 115 89 158s84.166 76 137.499 99s112.666 34.5 177.999 34.5zM510.003 162.003c82.667 0 144.332 27.499 184.999 82.499s61 140.833 61 257.5
c0 50.667 -5.16699 96.5 -15.5 137.5s-25.666 75.833 -45.999 104.5s-46 50.834 -77 66.501s-66.833 23.5 -107.5 23.5c-76 0 -136.333 -27.667 -181 -83s-67 -138.333 -67 -249c0 -116.667 20.5 -202.5 61.5 -257.5s103.167 -82.5 186.5 -82.5zM1194 836.002
c-66.667 0 -121.668 -21 -165.001 -63s-68.333 -101 -75 -177h471c-2 34 -7.5 65.5 -16.5 94.5s-22.667 54.333 -41 76s-41.666 38.667 -69.999 51s-62.833 18.5 -103.5 18.5z" />
    <glyph glyph-name="Racute" unicode="&#x154;" horiz-adv-x="1278" 
d="M737 1380c76 0 141.668 -12.833 197.001 -38.5s100.666 -58.667 135.999 -99s61.5 -85 78.5 -134s25.5 -96.833 25.5 -143.5c0 -36 -5.5 -73.167 -16.5 -111.5s-27.833 -75 -50.5 -110s-51.5 -66.667 -86.5 -95s-76.167 -50.5 -123.5 -66.5l338 -582h-231l-320 557h-330
v-557h-202v1380h585zM354.001 1190v-441.998h383c41.333 0 76.666 7 105.999 21s53.333 31.833 72 53.5s32.334 45.167 41.001 70.5s13 49.333 13 72c0 23.333 -4.33301 48.166 -13 74.499s-22.334 50.666 -41.001 72.999s-42.667 40.833 -72 55.5s-64.666 22 -105.999 22
h-383zM410.001 1513l199 264h223l-230 -264h-192z" />
    <glyph glyph-name="racute" unicode="&#x155;" horiz-adv-x="668" 
d="M135 0v990.999h189v-137c30.667 48 66.667 85.333 108 112s87 40 137 40c14 0 26.5 -0.666992 37.5 -2s20.5 -2.66602 28.5 -3.99902c8.66699 -2 16.667 -3.66699 24 -5v-188h-61c-40 0 -76.833 -5 -110.5 -15s-62.5 -27.5 -86.5 -52.5s-42.833 -58.5 -56.5 -100.5
s-20.5 -94.667 -20.5 -158v-481h-189zM166 1116l199 264h223l-230 -264h-192z" />
    <glyph glyph-name="Rcommaaccent" unicode="&#x156;" horiz-adv-x="1278" 
d="M737 1380c76 0 141.668 -12.833 197.001 -38.5s100.666 -58.667 135.999 -99s61.5 -85 78.5 -134s25.5 -96.833 25.5 -143.5c0 -36 -5.5 -73.167 -16.5 -111.5s-27.833 -75 -50.5 -110s-51.5 -66.667 -86.5 -95s-76.167 -50.5 -123.5 -66.5l338 -582h-231l-320 557h-330
v-557h-202v1380h585zM354.001 1190v-441.998h383c41.333 0 76.666 7 105.999 21s53.333 31.833 72 53.5s32.334 45.167 41.001 70.5s13 49.333 13 72c0 23.333 -4.33301 48.166 -13 74.499s-22.334 50.666 -41.001 72.999s-42.667 40.833 -72 55.5s-64.666 22 -105.999 22
h-383zM584.001 -108.998l162.001 -0.000976562v-100c0 -39.333 -4 -75.166 -12 -107.499s-21 -60 -39 -83s-41.5 -41 -70.5 -54s-64.5 -19.5 -106.5 -19.5c-5.33301 0 -15 0.333008 -29 1s-28.667 1.66699 -44 3v115h39c16 0 30.333 1.83301 43 5.5s23.167 10.167 31.5 19.5
s14.666 22.5 18.999 39.5s6.5 38.5 6.5 64.5v116z" />
    <glyph glyph-name="rcommaaccent" unicode="&#x157;" horiz-adv-x="668" 
d="M135 0v990.999h189v-137c30.667 48 66.667 85.333 108 112s87 40 137 40c14 0 26.5 -0.666992 37.5 -2s20.5 -2.66602 28.5 -3.99902c8.66699 -2 16.667 -3.66699 24 -5v-188h-61c-40 0 -76.833 -5 -110.5 -15s-62.5 -27.5 -86.5 -52.5s-42.833 -58.5 -56.5 -100.5
s-20.5 -94.667 -20.5 -158v-481h-189zM148 -109.001l162.001 -0.000976562v-100c0 -39.333 -4 -75.166 -12 -107.499s-21 -60 -39 -83s-41.5 -41 -70.5 -54s-64.5 -19.5 -106.5 -19.5c-5.33301 0 -15 0.333008 -29 1s-28.667 1.66699 -44 3v115h39
c16 0 30.333 1.83301 43 5.5s23.167 10.167 31.5 19.5s14.666 22.5 18.999 39.5s6.5 38.5 6.5 64.5v116z" />
    <glyph glyph-name="Rcaron" unicode="&#x158;" horiz-adv-x="1278" 
d="M737 1380c76 0 141.668 -12.833 197.001 -38.5s100.666 -58.667 135.999 -99s61.5 -85 78.5 -134s25.5 -96.833 25.5 -143.5c0 -36 -5.5 -73.167 -16.5 -111.5s-27.833 -75 -50.5 -110s-51.5 -66.667 -86.5 -95s-76.167 -50.5 -123.5 -66.5l338 -582h-231l-320 557h-330
v-557h-202v1380h585zM354.001 1190v-441.998h383c41.333 0 76.666 7 105.999 21s53.333 31.833 72 53.5s32.334 45.167 41.001 70.5s13 49.333 13 72c0 23.333 -4.33301 48.166 -13 74.499s-22.334 50.666 -41.001 72.999s-42.667 40.833 -72 55.5s-64.666 22 -105.999 22
h-383zM484.001 1783l129 -145l129 145h188l-219 -270h-199l-217 270h189z" />
    <glyph glyph-name="rcaron" unicode="&#x159;" horiz-adv-x="668" 
d="M135 0v990.999h189v-137c30.667 48 66.667 85.333 108 112s87 40 137 40c14 0 26.5 -0.666992 37.5 -2s20.5 -2.66602 28.5 -3.99902c8.66699 -2 16.667 -3.66699 24 -5v-188h-61c-40 0 -76.833 -5 -110.5 -15s-62.5 -27.5 -86.5 -52.5s-42.833 -58.5 -56.5 -100.5
s-20.5 -94.667 -20.5 -158v-481h-189zM289 1386l129 -145l129 145h188l-219 -270h-199l-217 270h189z" />
    <glyph glyph-name="Sacute" unicode="&#x15a;" horiz-adv-x="1180" 
d="M872 987c-2.66699 28.667 -9.33008 56.8291 -19.9971 84.4961s-27.167 52.5 -49.5 74.5s-51.333 39.667 -87 53s-79.5 20 -131.5 20c-41.333 0 -78.833 -4.16699 -112.5 -12.5s-62.5 -20.833 -86.5 -37.5s-42.667 -37 -56 -61s-20 -52 -20 -84
c0 -36.667 8 -66.167 24 -88.5s42 -41.5 78 -57.5s83 -31.333 141 -46l212 -54c46.667 -12 90.5 -28.333 131.5 -49s76.667 -46.667 107 -78s54.166 -69.166 71.499 -113.499s26 -96.5 26 -156.5c0 -60.667 -12.5 -116 -37.5 -166s-60.333 -93 -106 -129
s-100.334 -63.833 -164.001 -83.5s-134.5 -29.5 -212.5 -29.5c-62.667 0 -118.667 6.5 -168 19.5s-93 30.833 -131 53.5s-70.667 48.834 -98 78.501s-50.166 61 -68.499 94s-32.333 66.833 -42 101.5s-16.167 68 -19.5 100h211c4 -32.667 12.5 -64.5 25.5 -95.5
s32 -58.5 57 -82.5s56.5 -43.333 94.5 -58s83.667 -22 137 -22c46.667 0 89.5 5 128.5 15s72.5 24.333 100.5 43s49.667 41.667 65 69s23 58 23 92c0 42.667 -8 76.5 -24 101.5s-42.333 46.5 -79 64.5s-84.834 34.5 -144.501 49.5l-219.5 56.5
c-46.667 12 -89.667 28.667 -129 50s-73.333 47.333 -102 78s-51 66.167 -67 106.5s-24 85.833 -24 136.5c0 56 11.667 107.333 35 154s56.166 86.834 98.499 120.501s92.833 59.834 151.5 78.501s123 28 193 28c92.667 0 170 -13.167 232 -39.5
s111.833 -59.833 149.5 -100.5s65.167 -85.667 82.5 -135s28.333 -97 33 -143h-209zM402.004 1513l199 264h223l-230 -264h-192z" />
    <glyph glyph-name="sacute" unicode="&#x15b;" horiz-adv-x="924" 
d="M649 682c-4 48 -21.6689 86.6631 -53.002 115.996s-79.666 44 -144.999 44c-30 0 -55.5 -3.83301 -76.5 -11.5s-38.333 -17.334 -52 -29.001s-23.667 -24.667 -30 -39s-9.5 -28.166 -9.5 -41.499c0 -23.333 5.16699 -41.333 15.5 -54s28 -24 53 -34s58.167 -20 99.5 -30
s93 -23.333 155 -40c36.667 -10 70.167 -22.333 100.5 -37s56.333 -33 78 -55s38.334 -48.167 50.001 -78.5s17.5 -66.166 17.5 -107.499c0 -42 -8.66699 -81.167 -26 -117.5s-42.666 -67.666 -75.999 -93.999s-74.166 -47.166 -122.499 -62.499s-103.833 -23 -166.5 -23
c-58 0 -110.5 8.16699 -157.5 24.5s-87.333 38.833 -121 67.5s-60 62.667 -79 102s-29.5 81.666 -31.5 126.999h190c3.33301 -47.333 21.666 -84.666 54.999 -111.999s82 -41 146 -41c66 0 116.333 11 151 33s52 50.333 52 85c0 22.667 -4 40.667 -12 54
s-23.333 25.333 -46 36s-54.5 21.334 -95.5 32.001l-160.5 42c-37.333 10 -71.666 22.5 -102.999 37.5s-58.333 33.333 -81 55s-40.334 47.167 -53.001 76.5s-19 63.333 -19 102c0 34 7 68.667 21 104s35.667 67.333 65 96s66.666 52 111.999 70s99.666 27 162.999 27
c60 0 113.333 -8.16699 160 -24.5s86 -39 118 -68s56.833 -63.167 74.5 -102.5s27.834 -82.333 30.501 -129h-191zM286.998 1116l199 264h223l-230 -264h-192z" />
    <glyph glyph-name="Scircumflex" unicode="&#x15c;" horiz-adv-x="1180" 
d="M872 987c-2.66699 28.667 -9.33008 56.8291 -19.9971 84.4961s-27.167 52.5 -49.5 74.5s-51.333 39.667 -87 53s-79.5 20 -131.5 20c-41.333 0 -78.833 -4.16699 -112.5 -12.5s-62.5 -20.833 -86.5 -37.5s-42.667 -37 -56 -61s-20 -52 -20 -84
c0 -36.667 8 -66.167 24 -88.5s42 -41.5 78 -57.5s83 -31.333 141 -46l212 -54c46.667 -12 90.5 -28.333 131.5 -49s76.667 -46.667 107 -78s54.166 -69.166 71.499 -113.499s26 -96.5 26 -156.5c0 -60.667 -12.5 -116 -37.5 -166s-60.333 -93 -106 -129
s-100.334 -63.833 -164.001 -83.5s-134.5 -29.5 -212.5 -29.5c-62.667 0 -118.667 6.5 -168 19.5s-93 30.833 -131 53.5s-70.667 48.834 -98 78.501s-50.166 61 -68.499 94s-32.333 66.833 -42 101.5s-16.167 68 -19.5 100h211c4 -32.667 12.5 -64.5 25.5 -95.5
s32 -58.5 57 -82.5s56.5 -43.333 94.5 -58s83.667 -22 137 -22c46.667 0 89.5 5 128.5 15s72.5 24.333 100.5 43s49.667 41.667 65 69s23 58 23 92c0 42.667 -8 76.5 -24 101.5s-42.333 46.5 -79 64.5s-84.834 34.5 -144.501 49.5l-219.5 56.5
c-46.667 12 -89.667 28.667 -129 50s-73.333 47.333 -102 78s-51 66.167 -67 106.5s-24 85.833 -24 136.5c0 56 11.667 107.333 35 154s56.166 86.834 98.499 120.501s92.833 59.834 151.5 78.501s123 28 193 28c92.667 0 170 -13.167 232 -39.5
s111.833 -59.833 149.5 -100.5s65.167 -85.667 82.5 -135s28.333 -97 33 -143h-209zM725.004 1513l-131 143l-127 -143h-189l219 270h197l219 -270h-188z" />
    <glyph glyph-name="scircumflex" unicode="&#x15d;" horiz-adv-x="924" 
d="M649 682c-4 48 -21.6689 86.6631 -53.002 115.996s-79.666 44 -144.999 44c-30 0 -55.5 -3.83301 -76.5 -11.5s-38.333 -17.334 -52 -29.001s-23.667 -24.667 -30 -39s-9.5 -28.166 -9.5 -41.499c0 -23.333 5.16699 -41.333 15.5 -54s28 -24 53 -34s58.167 -20 99.5 -30
s93 -23.333 155 -40c36.667 -10 70.167 -22.333 100.5 -37s56.333 -33 78 -55s38.334 -48.167 50.001 -78.5s17.5 -66.166 17.5 -107.499c0 -42 -8.66699 -81.167 -26 -117.5s-42.666 -67.666 -75.999 -93.999s-74.166 -47.166 -122.499 -62.499s-103.833 -23 -166.5 -23
c-58 0 -110.5 8.16699 -157.5 24.5s-87.333 38.833 -121 67.5s-60 62.667 -79 102s-29.5 81.666 -31.5 126.999h190c3.33301 -47.333 21.666 -84.666 54.999 -111.999s82 -41 146 -41c66 0 116.333 11 151 33s52 50.333 52 85c0 22.667 -4 40.667 -12 54
s-23.333 25.333 -46 36s-54.5 21.334 -95.5 32.001l-160.5 42c-37.333 10 -71.666 22.5 -102.999 37.5s-58.333 33.333 -81 55s-40.334 47.167 -53.001 76.5s-19 63.333 -19 102c0 34 7 68.667 21 104s35.667 67.333 65 96s66.666 52 111.999 70s99.666 27 162.999 27
c60 0 113.333 -8.16699 160 -24.5s86 -39 118 -68s56.833 -63.167 74.5 -102.5s27.834 -82.333 30.501 -129h-191zM593.998 1110l-131 143l-127 -143h-189l219 270h197l219 -270h-188z" />
    <glyph glyph-name="Scedilla" unicode="&#x15e;" horiz-adv-x="1180" 
d="M872 987c-2.66699 28.667 -9.33008 56.8291 -19.9971 84.4961s-27.167 52.5 -49.5 74.5s-51.333 39.667 -87 53s-79.5 20 -131.5 20c-41.333 0 -78.833 -4.16699 -112.5 -12.5s-62.5 -20.833 -86.5 -37.5s-42.667 -37 -56 -61s-20 -52 -20 -84
c0 -36.667 8 -66.167 24 -88.5s42 -41.5 78 -57.5s83 -31.333 141 -46l212 -54c46.667 -12 90.5 -28.333 131.5 -49s76.667 -46.667 107 -78s54.166 -69.166 71.499 -113.499s26 -96.5 26 -156.5c0 -60.667 -12.5 -116 -37.5 -166s-60.333 -93 -106 -129
s-100.334 -63.833 -164.001 -83.5s-134.5 -29.5 -212.5 -29.5c-62.667 0 -118.667 6.5 -168 19.5s-93 30.833 -131 53.5s-70.667 48.834 -98 78.501s-50.166 61 -68.499 94s-32.333 66.833 -42 101.5s-16.167 68 -19.5 100h211c4 -32.667 12.5 -64.5 25.5 -95.5
s32 -58.5 57 -82.5s56.5 -43.333 94.5 -58s83.667 -22 137 -22c46.667 0 89.5 5 128.5 15s72.5 24.333 100.5 43s49.667 41.667 65 69s23 58 23 92c0 42.667 -8 76.5 -24 101.5s-42.333 46.5 -79 64.5s-84.834 34.5 -144.501 49.5l-219.5 56.5
c-46.667 12 -89.667 28.667 -129 50s-73.333 47.333 -102 78s-51 66.167 -67 106.5s-24 85.833 -24 136.5c0 56 11.667 107.333 35 154s56.166 86.834 98.499 120.501s92.833 59.834 151.5 78.501s123 28 193 28c92.667 0 170 -13.167 232 -39.5
s111.833 -59.833 149.5 -100.5s65.167 -85.667 82.5 -135s28.333 -97 33 -143h-209zM487.004 -109.005l162.001 -0.000976562v-100c0 -39.333 -4 -75.166 -12 -107.499s-21 -60 -39 -83s-41.5 -41 -70.5 -54s-64.5 -19.5 -106.5 -19.5c-5.33301 0 -15 0.333008 -29 1
s-28.667 1.66699 -44 3v115h39c16 0 30.333 1.83301 43 5.5s23.167 10.167 31.5 19.5s14.666 22.5 18.999 39.5s6.5 38.5 6.5 64.5v116z" />
    <glyph glyph-name="scedilla" unicode="&#x15f;" horiz-adv-x="924" 
d="M649 682c-4 48 -21.6689 86.6631 -53.002 115.996s-79.666 44 -144.999 44c-30 0 -55.5 -3.83301 -76.5 -11.5s-38.333 -17.334 -52 -29.001s-23.667 -24.667 -30 -39s-9.5 -28.166 -9.5 -41.499c0 -23.333 5.16699 -41.333 15.5 -54s28 -24 53 -34s58.167 -20 99.5 -30
s93 -23.333 155 -40c36.667 -10 70.167 -22.333 100.5 -37s56.333 -33 78 -55s38.334 -48.167 50.001 -78.5s17.5 -66.166 17.5 -107.499c0 -42 -8.66699 -81.167 -26 -117.5s-42.666 -67.666 -75.999 -93.999s-74.166 -47.166 -122.499 -62.499s-103.833 -23 -166.5 -23
c-58 0 -110.5 8.16699 -157.5 24.5s-87.333 38.833 -121 67.5s-60 62.667 -79 102s-29.5 81.666 -31.5 126.999h190c3.33301 -47.333 21.666 -84.666 54.999 -111.999s82 -41 146 -41c66 0 116.333 11 151 33s52 50.333 52 85c0 22.667 -4 40.667 -12 54
s-23.333 25.333 -46 36s-54.5 21.334 -95.5 32.001l-160.5 42c-37.333 10 -71.666 22.5 -102.999 37.5s-58.333 33.333 -81 55s-40.334 47.167 -53.001 76.5s-19 63.333 -19 102c0 34 7 68.667 21 104s35.667 67.333 65 96s66.666 52 111.999 70s99.666 27 162.999 27
c60 0 113.333 -8.16699 160 -24.5s86 -39 118 -68s56.833 -63.167 74.5 -102.5s27.834 -82.333 30.501 -129h-191zM394.998 -109.004l162.001 -0.000976562v-100c0 -39.333 -4 -75.166 -12 -107.499s-21 -60 -39 -83s-41.5 -41 -70.5 -54s-64.5 -19.5 -106.5 -19.5
c-5.33301 0 -15 0.333008 -29 1s-28.667 1.66699 -44 3v115h39c16 0 30.333 1.83301 43 5.5s23.167 10.167 31.5 19.5s14.666 22.5 18.999 39.5s6.5 38.5 6.5 64.5v116z" />
    <glyph glyph-name="Scaron" unicode="&#x160;" horiz-adv-x="1180" 
d="M872 987c-2.66699 28.667 -9.33008 56.8291 -19.9971 84.4961s-27.167 52.5 -49.5 74.5s-51.333 39.667 -87 53s-79.5 20 -131.5 20c-41.333 0 -78.833 -4.16699 -112.5 -12.5s-62.5 -20.833 -86.5 -37.5s-42.667 -37 -56 -61s-20 -52 -20 -84
c0 -36.667 8 -66.167 24 -88.5s42 -41.5 78 -57.5s83 -31.333 141 -46l212 -54c46.667 -12 90.5 -28.333 131.5 -49s76.667 -46.667 107 -78s54.166 -69.166 71.499 -113.499s26 -96.5 26 -156.5c0 -60.667 -12.5 -116 -37.5 -166s-60.333 -93 -106 -129
s-100.334 -63.833 -164.001 -83.5s-134.5 -29.5 -212.5 -29.5c-62.667 0 -118.667 6.5 -168 19.5s-93 30.833 -131 53.5s-70.667 48.834 -98 78.501s-50.166 61 -68.499 94s-32.333 66.833 -42 101.5s-16.167 68 -19.5 100h211c4 -32.667 12.5 -64.5 25.5 -95.5
s32 -58.5 57 -82.5s56.5 -43.333 94.5 -58s83.667 -22 137 -22c46.667 0 89.5 5 128.5 15s72.5 24.333 100.5 43s49.667 41.667 65 69s23 58 23 92c0 42.667 -8 76.5 -24 101.5s-42.333 46.5 -79 64.5s-84.834 34.5 -144.501 49.5l-219.5 56.5
c-46.667 12 -89.667 28.667 -129 50s-73.333 47.333 -102 78s-51 66.167 -67 106.5s-24 85.833 -24 136.5c0 56 11.667 107.333 35 154s56.166 86.834 98.499 120.501s92.833 59.834 151.5 78.501s123 28 193 28c92.667 0 170 -13.167 232 -39.5
s111.833 -59.833 149.5 -100.5s65.167 -85.667 82.5 -135s28.333 -97 33 -143h-209zM449.004 1788l129 -145l129 145h188l-219 -270h-199l-217 270h189z" />
    <glyph glyph-name="scaron" unicode="&#x161;" horiz-adv-x="924" 
d="M649 682c-4 48 -21.6689 86.6631 -53.002 115.996s-79.666 44 -144.999 44c-30 0 -55.5 -3.83301 -76.5 -11.5s-38.333 -17.334 -52 -29.001s-23.667 -24.667 -30 -39s-9.5 -28.166 -9.5 -41.499c0 -23.333 5.16699 -41.333 15.5 -54s28 -24 53 -34s58.167 -20 99.5 -30
s93 -23.333 155 -40c36.667 -10 70.167 -22.333 100.5 -37s56.333 -33 78 -55s38.334 -48.167 50.001 -78.5s17.5 -66.166 17.5 -107.499c0 -42 -8.66699 -81.167 -26 -117.5s-42.666 -67.666 -75.999 -93.999s-74.166 -47.166 -122.499 -62.499s-103.833 -23 -166.5 -23
c-58 0 -110.5 8.16699 -157.5 24.5s-87.333 38.833 -121 67.5s-60 62.667 -79 102s-29.5 81.666 -31.5 126.999h190c3.33301 -47.333 21.666 -84.666 54.999 -111.999s82 -41 146 -41c66 0 116.333 11 151 33s52 50.333 52 85c0 22.667 -4 40.667 -12 54
s-23.333 25.333 -46 36s-54.5 21.334 -95.5 32.001l-160.5 42c-37.333 10 -71.666 22.5 -102.999 37.5s-58.333 33.333 -81 55s-40.334 47.167 -53.001 76.5s-19 63.333 -19 102c0 34 7 68.667 21 104s35.667 67.333 65 96s66.666 52 111.999 70s99.666 27 162.999 27
c60 0 113.333 -8.16699 160 -24.5s86 -39 118 -68s56.833 -63.167 74.5 -102.5s27.834 -82.333 30.501 -129h-191zM329.998 1386l129 -145l129 145h188l-219 -270h-199l-217 270h189z" />
    <glyph glyph-name="Tcommaaccent" unicode="&#x162;" horiz-adv-x="1073" 
d="M1049 1190h-406v-1190h-203v1190h-409v190h1018v-190zM457 -109l162.001 -0.000976562v-100c0 -39.333 -4 -75.166 -12 -107.499s-21 -60 -39 -83s-41.5 -41 -70.5 -54s-64.5 -19.5 -106.5 -19.5c-5.33301 0 -15 0.333008 -29 1s-28.667 1.66699 -44 3v115h39
c16 0 30.333 1.83301 43 5.5s23.167 10.167 31.5 19.5s14.666 22.5 18.999 39.5s6.5 38.5 6.5 64.5v116z" />
    <glyph glyph-name="tcommaaccent" unicode="&#x163;" horiz-adv-x="688" 
d="M389 991l213 -0.000976562v-172h-213v-563c0 -19.333 2.5 -35 7.5 -47s12.167 -21.333 21.5 -28s20.5 -11.167 33.5 -13.5s27.167 -3.5 42.5 -3.5h67v-160c-10 -2 -21 -3.66699 -33 -5c-10 -1.33301 -21.167 -2.5 -33.5 -3.5s-24.833 -1.5 -37.5 -1.5
c-32 0 -63.333 3.33301 -94 10s-58 19.834 -82 39.501s-43.333 47 -58 82s-22 80.5 -22 136.5v557h-158v172h158v383h188v-383zM397 -109.001l162.001 -0.000976562v-100c0 -39.333 -4 -75.166 -12 -107.499s-21 -60 -39 -83s-41.5 -41 -70.5 -54s-64.5 -19.5 -106.5 -19.5
c-5.33301 0 -15 0.333008 -29 1s-28.667 1.66699 -44 3v115h39c16 0 30.333 1.83301 43 5.5s23.167 10.167 31.5 19.5s14.666 22.5 18.999 39.5s6.5 38.5 6.5 64.5v116z" />
    <glyph glyph-name="Tcaron" unicode="&#x164;" horiz-adv-x="1073" 
d="M1049 1190h-406v-1190h-203v1190h-409v190h1018v-190zM414 1783l129 -145l129 145h188l-219 -270h-199l-217 270h189z" />
    <glyph glyph-name="tcaron" unicode="&#x165;" horiz-adv-x="924" 
d="M735 989v391h174v-391h-174zM389 991l213 -0.000976562v-172h-213v-563c0 -19.333 2.5 -35 7.5 -47s12.167 -21.333 21.5 -28s20.5 -11.167 33.5 -13.5s27.167 -3.5 42.5 -3.5h67v-160c-10 -2 -21 -3.66699 -33 -5c-10 -1.33301 -21.167 -2.5 -33.5 -3.5
s-24.833 -1.5 -37.5 -1.5c-32 0 -63.333 3.33301 -94 10s-58 19.834 -82 39.501s-43.333 47 -58 82s-22 80.5 -22 136.5v557h-158v172h158v383h188v-383z" />
    <glyph glyph-name="Tbar" unicode="&#x166;" horiz-adv-x="1073" 
d="M221 776h217v414h-397v190h995v-190h-391v-414h207v-172h-207v-604h-207v604h-217v172z" />
    <glyph glyph-name="tbar" unicode="&#x167;" horiz-adv-x="668" 
d="M387 991l213 -0.000976562v-172h-213v-153h213v-170h-213v-240c0 -19.333 2.5 -35 7.5 -47s12.167 -21.333 21.5 -28s20.5 -11.167 33.5 -13.5s27.167 -3.5 42.5 -3.5h67v-160c-10 -2 -21 -3.66699 -33 -5c-10 -1.33301 -21.167 -2.5 -33.5 -3.5s-24.833 -1.5 -37.5 -1.5
c-32 0 -63.333 3.33301 -94 10s-58 19.834 -82 39.501s-43.333 47 -58 82s-22 80.5 -22 136.5v234h-158v170h158v153h-158v172h158v383h188v-383z" />
    <glyph glyph-name="Utilde" unicode="&#x168;" horiz-adv-x="1296" 
d="M1161 518c0 -96 -13.167 -178.5 -39.5 -247.5s-62.666 -125.5 -108.999 -169.5s-100.833 -76.333 -163.5 -97s-130 -31 -202 -31s-138.833 10 -200.5 30s-115.334 51.833 -161.001 95.5s-81.5 100 -107.5 169s-39 152.5 -39 250.5v862h203v-856
c0 -122 25.5 -212.167 76.5 -270.5s127.167 -87.5 228.5 -87.5c103.333 0 181 29.167 233 87.5s78 148.5 78 270.5v856h203v-862zM987 1792c-5.33301 -33.333 -13.666 -64.499 -24.999 -93.499s-26 -54 -44 -75s-39.667 -37.5 -65 -49.5s-54.333 -18 -87 -18
c-25.333 0 -50.166 4.33301 -74.499 13s-47.5 18.334 -69.5 29.001l-61.5 29c-19 8.66699 -35.833 13 -50.5 13c-18.667 0 -33.667 -7.16699 -45 -21.5s-19.666 -33.833 -24.999 -58.5h-151c6.66699 32 15.834 62.167 27.501 90.5s26.5 53 44.5 74s39.5 37.5 64.5 49.5
s54.5 18 88.5 18c23.333 0 46.666 -4.33301 69.999 -13s45.666 -18.334 66.999 -29.001s41.666 -20.334 60.999 -29.001s36.666 -13 51.999 -13c10 0 19 2.66699 27 8s15 12 21 20s10.833 17 14.5 27s6.5 19.667 8.5 29h152z" />
    <glyph glyph-name="utilde" unicode="&#x169;" horiz-adv-x="1049" 
d="M123 991l187.994 0.000976562v-608c0 -39.333 5.16699 -73 15.5 -101s24.333 -51.333 42 -70s37.834 -32.334 60.501 -41.001s46.334 -13 71.001 -13c34.667 0 65.834 6 93.501 18s51.334 30.667 71.001 56s34.667 57.666 45 96.999s15.5 86.666 15.5 141.999v520h188
v-991h-188v90c-33.333 -34 -72.166 -59.5 -116.499 -76.5s-92.166 -25.5 -143.499 -25.5c-56 0 -105.167 9.16699 -147.5 27.5s-78 44.333 -107 78s-50.833 73.834 -65.5 120.501s-22 98.334 -22 155.001v622zM874.994 1389
c-5.33301 -33.333 -13.666 -64.499 -24.999 -93.499s-26 -54 -44 -75s-39.667 -37.5 -65 -49.5s-54.333 -18 -87 -18c-25.333 0 -50.166 4.33301 -74.499 13s-47.5 18.334 -69.5 29.001l-61.5 29c-19 8.66699 -35.833 13 -50.5 13c-18.667 0 -33.667 -7.16699 -45 -21.5
s-19.666 -33.833 -24.999 -58.5h-151c6.66699 32 15.834 62.167 27.501 90.5s26.5 53 44.5 74s39.5 37.5 64.5 49.5s54.5 18 88.5 18c23.333 0 46.666 -4.33301 69.999 -13s45.666 -18.334 66.999 -29.001s41.666 -20.334 60.999 -29.001s36.666 -13 51.999 -13
c10 0 19 2.66699 27 8s15 12 21 20s10.833 17 14.5 27s6.5 19.667 8.5 29h152z" />
    <glyph glyph-name="Umacron" unicode="&#x16a;" horiz-adv-x="1300" 
d="M1161 518c0 -96 -13.167 -178.5 -39.5 -247.5s-62.666 -125.5 -108.999 -169.5s-100.833 -76.333 -163.5 -97s-130 -31 -202 -31s-138.833 10 -200.5 30s-115.334 51.833 -161.001 95.5s-81.5 100 -107.5 169s-39 152.5 -39 250.5v862h203v-856
c0 -122 25.5 -212.167 76.5 -270.5s127.167 -87.5 228.5 -87.5c103.333 0 181 29.167 233 87.5s78 148.5 78 270.5v856h203v-862zM355 1765h589v-168h-589v168z" />
    <glyph glyph-name="umacron" unicode="&#x16b;" horiz-adv-x="1049" 
d="M123 991l187.994 0.000976562v-608c0 -39.333 5.16699 -73 15.5 -101s24.333 -51.333 42 -70s37.834 -32.334 60.501 -41.001s46.334 -13 71.001 -13c34.667 0 65.834 6 93.501 18s51.334 30.667 71.001 56s34.667 57.666 45 96.999s15.5 86.666 15.5 141.999v520h188
v-991h-188v90c-33.333 -34 -72.166 -59.5 -116.499 -76.5s-92.166 -25.5 -143.499 -25.5c-56 0 -105.167 9.16699 -147.5 27.5s-78 44.333 -107 78s-50.833 73.834 -65.5 120.501s-22 98.334 -22 155.001v622zM227.994 1380h589v-168h-589v168z" />
    <glyph glyph-name="Ubreve" unicode="&#x16c;" horiz-adv-x="1296" 
d="M1161 518c0 -96 -13.167 -178.5 -39.5 -247.5s-62.666 -125.5 -108.999 -169.5s-100.833 -76.333 -163.5 -97s-130 -31 -202 -31s-138.833 10 -200.5 30s-115.334 51.833 -161.001 95.5s-81.5 100 -107.5 169s-39 152.5 -39 250.5v862h203v-856
c0 -122 25.5 -212.167 76.5 -270.5s127.167 -87.5 228.5 -87.5c103.333 0 181 29.167 233 87.5s78 148.5 78 270.5v856h203v-862zM892 1769c0 -38 -6.83398 -72.833 -20.501 -104.5s-32 -58.834 -55 -81.501s-50.167 -40.334 -81.5 -53.001s-64.333 -19 -99 -19
s-67.334 6.33301 -98.001 19s-57.5 30.334 -80.5 53.001s-41.167 49.834 -54.5 81.501s-20 66.5 -20 104.5h141c0 -17.333 3 -33.5 9 -48.5s14 -27.833 24 -38.5s21.833 -19 35.5 -25s28.167 -9 43.5 -9c14.667 0 28.834 3 42.501 9s25.834 14.333 36.501 25
s19 23.5 25 38.5s9 31.167 9 48.5h143z" />
    <glyph glyph-name="ubreve" unicode="&#x16d;" horiz-adv-x="1049" 
d="M123 991l187.994 0.000976562v-608c0 -39.333 5.16699 -73 15.5 -101s24.333 -51.333 42 -70s37.834 -32.334 60.501 -41.001s46.334 -13 71.001 -13c34.667 0 65.834 6 93.501 18s51.334 30.667 71.001 56s34.667 57.666 45 96.999s15.5 86.666 15.5 141.999v520h188
v-991h-188v90c-33.333 -34 -72.166 -59.5 -116.499 -76.5s-92.166 -25.5 -143.499 -25.5c-56 0 -105.167 9.16699 -147.5 27.5s-78 44.333 -107 78s-50.833 73.834 -65.5 120.501s-22 98.334 -22 155.001v622zM777.994 1366c0 -38 -6.83398 -72.833 -20.501 -104.5
s-32 -58.834 -55 -81.501s-50.167 -40.334 -81.5 -53.001s-64.333 -19 -99 -19s-67.334 6.33301 -98.001 19s-57.5 30.334 -80.5 53.001s-41.167 49.834 -54.5 81.501s-20 66.5 -20 104.5h141c0 -17.333 3 -33.5 9 -48.5s14 -27.833 24 -38.5s21.833 -19 35.5 -25
s28.167 -9 43.5 -9c14.667 0 28.834 3 42.501 9s25.834 14.333 36.501 25s19 23.5 25 38.5s9 31.167 9 48.5h143z" />
    <glyph glyph-name="Uring" unicode="&#x16e;" horiz-adv-x="1300" 
d="M1161 518c0 -96 -13.167 -178.5 -39.5 -247.5s-62.666 -125.5 -108.999 -169.5s-100.833 -76.333 -163.5 -97s-130 -31 -202 -31s-138.833 10 -200.5 30s-115.334 51.833 -161.001 95.5s-81.5 100 -107.5 169s-39 152.5 -39 250.5v862h203v-856
c0 -122 25.5 -212.167 76.5 -270.5s127.167 -87.5 228.5 -87.5c103.333 0 181 29.167 233 87.5s78 148.5 78 270.5v856h203v-862zM553 1721c0 -14 2.66699 -27.167 8 -39.5s12.5 -23 21.5 -32s19.5 -16.167 31.5 -21.5s24.333 -8 37 -8c13.333 0 26.166 2.66699 38.499 8
s23.166 12.5 32.499 21.5s16.666 19.667 21.999 32s8 25.5 8 39.5c0 13.333 -2.66699 25.833 -8 37.5s-12.666 22 -21.999 31s-20.166 16.167 -32.499 21.5s-25.166 8 -38.499 8c-12.667 0 -25 -2.66699 -37 -8s-22.5 -12.5 -31.5 -21.5s-16.167 -19.333 -21.5 -31
s-8 -24.167 -8 -37.5zM445 1721c0 28 5.33301 54.333 16 79s25.334 46.334 44.001 65.001s40.5 33.334 65.5 44.001s51.833 16 80.5 16c29.333 0 56.666 -5.33301 81.999 -16s47.5 -25.334 66.5 -44.001s33.833 -40.334 44.5 -65.001s16 -51 16 -79
c0 -28.667 -5.33301 -55.667 -16 -81s-25.5 -47.333 -44.5 -66s-41.167 -33.334 -66.5 -44.001s-52.666 -16 -81.999 -16c-28.667 0 -55.5 5.33301 -80.5 16s-46.833 25.334 -65.5 44.001s-33.334 40.667 -44.001 66s-16 52.333 -16 81z" />
    <glyph glyph-name="uring" unicode="&#x16f;" horiz-adv-x="1049" 
d="M123 991l187.994 0.000976562v-608c0 -39.333 5.16699 -73 15.5 -101s24.333 -51.333 42 -70s37.834 -32.334 60.501 -41.001s46.334 -13 71.001 -13c34.667 0 65.834 6 93.501 18s51.334 30.667 71.001 56s34.667 57.666 45 96.999s15.5 86.666 15.5 141.999v520h188
v-991h-188v90c-33.333 -34 -72.166 -59.5 -116.499 -76.5s-92.166 -25.5 -143.499 -25.5c-56 0 -105.167 9.16699 -147.5 27.5s-78 44.333 -107 78s-50.833 73.834 -65.5 120.501s-22 98.334 -22 155.001v622zM423.994 1319c0 -14 2.66699 -27.167 8 -39.5
s12.5 -23 21.5 -32s19.5 -16.167 31.5 -21.5s24.333 -8 37 -8c13.333 0 26.166 2.66699 38.499 8s23.166 12.5 32.499 21.5s16.666 19.667 21.999 32s8 25.5 8 39.5c0 13.333 -2.66699 25.833 -8 37.5s-12.666 22 -21.999 31s-20.166 16.167 -32.499 21.5
s-25.166 8 -38.499 8c-12.667 0 -25 -2.66699 -37 -8s-22.5 -12.5 -31.5 -21.5s-16.167 -19.333 -21.5 -31s-8 -24.167 -8 -37.5zM315.994 1319c0 28 5.33301 54.333 16 79s25.334 46.334 44.001 65.001s40.5 33.334 65.5 44.001s51.833 16 80.5 16
c29.333 0 56.666 -5.33301 81.999 -16s47.5 -25.334 66.5 -44.001s33.833 -40.334 44.5 -65.001s16 -51 16 -79c0 -28.667 -5.33301 -55.667 -16 -81s-25.5 -47.333 -44.5 -66s-41.167 -33.334 -66.5 -44.001s-52.666 -16 -81.999 -16c-28.667 0 -55.5 5.33301 -80.5 16
s-46.833 25.334 -65.5 44.001s-33.334 40.667 -44.001 66s-16 52.333 -16 81z" />
    <glyph glyph-name="Uhungarumlaut" unicode="&#x170;" horiz-adv-x="1300" 
d="M1161 518c0 -96 -13.167 -178.5 -39.5 -247.5s-62.666 -125.5 -108.999 -169.5s-100.833 -76.333 -163.5 -97s-130 -31 -202 -31s-138.833 10 -200.5 30s-115.334 51.833 -161.001 95.5s-81.5 100 -107.5 169s-39 152.5 -39 250.5v862h203v-856
c0 -122 25.5 -212.167 76.5 -270.5s127.167 -87.5 228.5 -87.5c103.333 0 181 29.167 233 87.5s78 148.5 78 270.5v856h203v-862zM299 1506l209 270h211l-254 -270h-166zM623 1506l207 270h213l-256 -270h-164z" />
    <glyph glyph-name="uhungarumlaut" unicode="&#x171;" horiz-adv-x="1049" 
d="M123 991l187.994 0.000976562v-608c0 -39.333 5.16699 -73 15.5 -101s24.333 -51.333 42 -70s37.834 -32.334 60.501 -41.001s46.334 -13 71.001 -13c34.667 0 65.834 6 93.501 18s51.334 30.667 71.001 56s34.667 57.666 45 96.999s15.5 86.666 15.5 141.999v520h188
v-991h-188v90c-33.333 -34 -72.166 -59.5 -116.499 -76.5s-92.166 -25.5 -143.499 -25.5c-56 0 -105.167 9.16699 -147.5 27.5s-78 44.333 -107 78s-50.833 73.834 -65.5 120.501s-22 98.334 -22 155.001v622zM212.994 1106l209 270h211l-254 -270h-166zM536.994 1106
l207 270h213l-256 -270h-164z" />
    <glyph glyph-name="Uogonek" unicode="&#x172;" horiz-adv-x="1300" 
d="M1161 518c0 -96 -13.167 -178.5 -39.5 -247.5s-62.666 -125.5 -108.999 -169.5s-100.833 -76.333 -163.5 -97s-130 -31 -202 -31s-138.833 10 -200.5 30s-115.334 51.833 -161.001 95.5s-81.5 100 -107.5 169s-39 152.5 -39 250.5v862h203v-856
c0 -122 25.5 -212.167 76.5 -270.5s127.167 -87.5 228.5 -87.5c103.333 0 181 29.167 233 87.5s78 148.5 78 270.5v856h203v-862zM746 -225c0 -26 2.16602 -47.499 6.49902 -64.499s10.666 -30.167 18.999 -39.5s18.833 -15.833 31.5 -19.5s27 -5.5 43 -5.5h39v-115
c-15.333 -1.33301 -30.166 -2.33301 -44.499 -3s-24.166 -1 -29.499 -1c-42 0 -77.5 6.5 -106.5 19.5s-52.667 31 -71 54s-31.5 50.667 -39.5 83s-12 68.166 -12 107.499v100h164v-116z" />
    <glyph glyph-name="uogonek" unicode="&#x173;" horiz-adv-x="1049" 
d="M123 991l187.994 0.000976562v-608c0 -39.333 5.16699 -73 15.5 -101s24.333 -51.333 42 -70s37.834 -32.334 60.501 -41.001s46.334 -13 71.001 -13c34.667 0 65.834 6 93.501 18s51.334 30.667 71.001 56s34.667 57.666 45 96.999s15.5 86.666 15.5 141.999v520h188
v-991h-188v90c-33.333 -34 -72.166 -59.5 -116.499 -76.5s-92.166 -25.5 -143.499 -25.5c-56 0 -105.167 9.16699 -147.5 27.5s-78 44.333 -107 78s-50.833 73.834 -65.5 120.501s-22 98.334 -22 155.001v622zM907.994 -226.999c0 -26 2.16602 -47.499 6.49902 -64.499
s10.666 -30.167 18.999 -39.5s18.833 -15.833 31.5 -19.5s27 -5.5 43 -5.5h39v-115c-15.333 -1.33301 -30.166 -2.33301 -44.499 -3s-24.166 -1 -29.499 -1c-42 0 -77.5 6.5 -106.5 19.5s-52.667 31 -71 54s-31.5 50.667 -39.5 83s-12 68.166 -12 107.499v100h164v-116z" />
    <glyph glyph-name="Wcircumflex" unicode="&#x174;" horiz-adv-x="1638" 
d="M1280 0h-186l-277 1049l-284 -1049h-181l-356 1380h211l248 -1018l272 1018h178l275 -1015l248 1015h208zM951 1513l-131 143l-127 -143h-189l219 270h197l219 -270h-188z" />
    <glyph glyph-name="wcircumflex" unicode="&#x175;" horiz-adv-x="1358" 
d="M1049 0h-166l-205 686l-203 -686h-166l-291 991h205l174 -680l199 680h166l199 -680l176 680h202zM807 1110l-131 143l-127 -143h-189l219 270h197l219 -270h-188z" />
    <glyph glyph-name="Ycircumflex" unicode="&#x176;" horiz-adv-x="1102" 
d="M-4 1380h229l326 -616l330 616h225l-453 -825v-555h-202v555zM676 1513l-131 143l-127 -143h-189l219 270h197l219 -270h-188z" />
    <glyph glyph-name="ycircumflex" unicode="&#x177;" horiz-adv-x="907" 
d="M481 -199c-19.333 -57.333 -48.501 -100.667 -87.501 -130s-94.5 -44 -166.5 -44c-23.333 0 -41 1 -53 3c-7.33301 0.666992 -13.333 1.66699 -18 3v166l71 2c14 0 25.833 1.83301 35.5 5.5s18 9 25 16s12.833 15.5 17.5 25.5s9.33398 21.667 14.001 35l41 115l-352 993
h207l242 -729l237 729h205zM583.999 1110l-131 143l-127 -143h-189l219 270h197l219 -270h-188z" />
    <glyph glyph-name="Ydieresis" unicode="&#x178;" horiz-adv-x="1102" 
d="M-4 1380h229l326 -616l330 616h225l-453 -825v-555h-202v555zM452 1562h-178v221h178v-221zM823 1562h-180v221h180v-221z" />
    <glyph glyph-name="Zacute" unicode="&#x179;" horiz-adv-x="1108" 
d="M1030 1204l-719 -1014h719v-190h-958v174l719 1016h-687v190h926v-176zM412 1513l199 264h223l-230 -264h-192z" />
    <glyph glyph-name="zacute" unicode="&#x17a;" horiz-adv-x="920" 
d="M844 834l-537 -662h533v-172h-770v162l542 657h-520v172h752v-157zM303 1116l199 264h223l-230 -264h-192z" />
    <glyph glyph-name="Zdotaccent" unicode="&#x17b;" horiz-adv-x="1108" 
d="M1030 1204l-719 -1014h719v-190h-958v174l719 1016h-687v190h926v-176zM664 1585h-191v235h191v-235z" />
    <glyph glyph-name="zdotaccent" unicode="&#x17c;" horiz-adv-x="920" 
d="M844 834l-537 -662h533v-172h-770v162l542 657h-520v172h752v-157zM561 1188h-191v235h191v-235z" />
    <glyph glyph-name="Zcaron" unicode="&#x17d;" horiz-adv-x="1108" 
d="M1030 1204l-719 -1014h719v-190h-958v174l719 1016h-687v190h926v-176zM443 1788l129 -145l129 145h188l-219 -270h-199l-217 270h189z" />
    <glyph glyph-name="zcaron" unicode="&#x17e;" horiz-adv-x="920" 
d="M844 834l-537 -662h533v-172h-770v162l542 657h-520v172h752v-157zM342 1386l129 -145l129 145h188l-219 -270h-199l-217 270h189z" />
    <glyph glyph-name="longs" unicode="&#x17f;" horiz-adv-x="657" 
d="M608 1225l-106 -0.000976562c-36 0 -62.167 -8.83301 -78.5 -26.5s-24.5 -48.5 -24.5 -92.5v-1106h-188v819h-162v172h162v96c0 58.667 6 107.834 18 147.501s30 71.667 54 96s54.167 41.833 90.5 52.5s78.5 16 126.5 16c14 0 27.5 -0.5 40.5 -1.5
s24.5 -2.16699 34.5 -3.5c12 -2 23 -3.66699 33 -5v-164z" />
    <glyph glyph-name="uni018F" unicode="&#x18f;" horiz-adv-x="1315" 
d="M102 965c9.33301 62 28.333 119.666 57 172.999s66.167 99.833 112.5 139.5s100.833 70.834 163.5 93.501s132.667 34 210 34c96 0 180.833 -16.667 254.5 -50s135.5 -81 185.5 -143s87.833 -137 113.5 -225s38.5 -186.333 38.5 -295
c0 -109.333 -12.833 -208.166 -38.5 -296.499s-63.5 -163.833 -113.5 -226.5s-111.833 -111 -185.5 -145s-158.5 -51 -254.5 -51c-87.333 0 -165 14 -233 42s-125.667 66.5 -173 115.5s-83.333 106.667 -108 173s-37 137.833 -37 214.5v242h936
c-8 145.333 -43.667 257.333 -107 336s-156 118 -278 118c-46.667 0 -88.667 -6 -126 -18s-70.166 -28.833 -98.499 -50.5s-51.833 -47.834 -70.5 -78.501s-32.334 -64.667 -41.001 -102h-207zM297 519.999c0 -47.333 6.33105 -92.5 18.998 -135.5
s32.834 -80.833 60.501 -113.5s63.334 -58.667 107.001 -78s96.167 -29 157.5 -29c112 0 200.333 34.667 265 104s104.667 170.333 120 303h-729v-51z" />
    <glyph glyph-name="florin" unicode="&#x192;" horiz-adv-x="674" 
d="M614 1217h-106c-35.333 0 -60.5 -8.66699 -75.5 -26s-22.5 -47 -22.5 -89v-111h198v-176h-198v-903c0 -58.667 -6 -107.667 -18 -147s-30 -71 -54 -95s-54 -41.167 -90 -51.5s-77.667 -15.5 -125 -15.5c-14.667 0 -28.5 0.333008 -41.5 1s-24.5 1.66699 -34.5 3
c-12 1.33301 -23 2.66602 -33 3.99902v166h107c34.667 0 59.667 8.66699 75 26s23 47.666 23 90.999v921h-162v176h162v90c0 58.667 6 107.834 18 147.501s30 71.667 54 96s53.833 41.833 89.5 52.5s77.5 16 125.5 16c14 0 27.5 -0.666992 40.5 -2
s24.5 -2.66602 34.5 -3.99902c12 -2 23 -3.66699 33 -5v-165z" />
    <glyph glyph-name="uni01DD" unicode="&#x1dd;" horiz-adv-x="1018" 
d="M96 692c29.333 101.333 77.833 178.83 145.5 232.497s155.167 80.5 262.5 80.5c68.667 0 130.167 -11.333 184.5 -34s100.5 -55.5 138.5 -98.5s67 -96.167 87 -159.5s30 -135.333 30 -216c0 -81.333 -10.833 -153.666 -32.5 -216.999s-52 -116.666 -91 -159.999
s-85.333 -76.333 -139 -99s-112.167 -34 -175.5 -34c-72.667 0 -136 12.833 -190 38.5s-99 61 -135 106s-62.833 98 -80.5 159s-26.5 127.167 -26.5 198.5c0 17.333 0.666992 33.333 2 48s2 22.667 2 24h672c-4 50.667 -13 93.334 -27 128.001s-31.833 62.5 -53.5 83.5
s-46.667 36 -75 45s-58.5 13.5 -90.5 13.5c-52 0 -96.667 -10.833 -134 -32.5s-64.333 -57.167 -81 -106.5h-193zM508 158.997c32 0 61.834 5.66699 89.501 17s52 27.5 73 48.5s38 46.333 51 76s21.167 62.5 24.5 98.5h-476c2.66699 -34 9.16699 -65.5 19.5 -94.5
s25.166 -54.333 44.499 -76s43.333 -38.667 72 -51s62.667 -18.5 102 -18.5z" />
    <glyph glyph-name="AEacute" unicode="&#x1fc;" horiz-adv-x="1649" 
d="M719 340h-404l-125 -340h-206l524 1380h1057v-190h-643v-391h526v-191h-526v-418h643v-190h-846v340zM387 528h332v662h-86zM793 1505l199 264h223l-230 -264h-192z" />
    </font>
</defs>
</svg>
