<?xml version="1.0" standalone="no"?>
<!DOCTYPE svg PUBLIC "-//W3C//DTD SVG 1.1//EN" "http://www.w3.org/Graphics/SVG/1.1/DTD/svg11.dtd" >
<svg>
<metadata>
Created by FontForge 20090914 at Mon Sep 14 10:57:40 2015
 By www-data
Copyright (c) by Binnenland, 2007. All rights reserved. This software may not be reproduced, used, displayed, modified, disclosed or transferred without the express written approval of (Binnenland). 
</metadata>
<defs>
<font id="MINISansSerif-Bold" horiz-adv-x="1122" >
  <font-face 
    font-family="MINI Sans Serif"
    font-weight="700"
    font-stretch="normal"
    units-per-em="2048"
    panose-1="2 0 10 6 3 0 0 2 0 4"
    ascent="1536"
    descent="-512"
    x-height="1004"
    cap-height="1380"
    bbox="-197 -489.006 2552 1972"
    underline-thickness="102"
    underline-position="-103"
    unicode-range="U+000D-U+FB02"
  />
<missing-glyph horiz-adv-x="614" 
 />
    <glyph glyph-name=".notdef" horiz-adv-x="614" 
 />
    <glyph glyph-name=".null" horiz-adv-x="0" 
 />
    <glyph glyph-name=".null" horiz-adv-x="0" 
 />
    <glyph glyph-name="nonmarkingreturn" unicode="&#xd;" horiz-adv-x="532" 
 />
    <glyph glyph-name="space" unicode=" " horiz-adv-x="524" 
 />
    <glyph glyph-name="exclam" unicode="!" horiz-adv-x="537" 
d="M385 389h-231l-27 997h285zM397 299v-299h-256v299h256z" />
    <glyph glyph-name="quotedbl" unicode="&#x22;" horiz-adv-x="934" 
d="M555 942v438h252v-438h-252zM123 942v438h254v-438h-254z" />
    <glyph glyph-name="numbersign" unicode="#" horiz-adv-x="1440" 
d="M1135 1044h202v-227h-239l-39 -248h192v-227h-229l-53 -342h-234l56 342h-230l-53 -342h-234l56 342h-209v227h244l41 248h-199v227h235l54 336h231l-53 -336h229l53 336h232zM598 569h227l41 248h-229z" />
    <glyph glyph-name="dollar" unicode="$" horiz-adv-x="1300" 
d="M733 1403c78.667 -5.33301 145.664 -21.3311 200.997 -47.998s101 -59.834 137 -99.501s63.667 -83.5 83 -131.5s32 -95.667 38 -143h-295c-6 41.333 -22.833 77.333 -50.5 108s-65.5 51.334 -113.5 62.001v-311l166 -37c106 -23.333 186.833 -68.333 242.5 -135
s83.5 -151.334 83.5 -254.001c0 -60.667 -11.833 -116.5 -35.5 -167.5s-57 -95.5 -100 -133.5s-94.667 -68.667 -155 -92s-127.5 -38 -201.5 -44v-149h-155v147c-91.333 3.33301 -168.5 18.833 -231.5 46.5s-114.667 63 -155 106s-70.666 91.333 -90.999 145
s-33.5 108.167 -39.5 163.5h299c3.33301 -27.333 10.333 -53 21 -77s25 -45.333 43 -64s39.833 -33.834 65.5 -45.501s55.167 -19.167 88.5 -22.5v359c-30 6 -60 12.333 -90 19s-59.667 14.667 -89 24c-38 12 -74.5 28.333 -109.5 49s-66.167 46.334 -93.5 77.001
s-49.166 66 -65.499 106s-24.5 85.333 -24.5 136c0 58.667 11.333 112.334 34 161.001s54.834 90.667 96.501 126s91.5 63.166 149.5 83.499s122 32.166 192 35.499v147h155v-147zM732.997 567.002v-337.997c30 4 57.5 11.167 82.5 21.5s46.5 23.166 64.5 38.499
s31.833 33 41.5 53s14.5 42 14.5 66c0 23.333 -4.16699 43.166 -12.5 59.499s-19.833 30.333 -34.5 42s-31.667 21.167 -51 28.5s-40 13.666 -62 18.999zM577.997 862.005v293c-26 -2.66699 -50.167 -8 -72.5 -16s-41.5 -18.5 -57.5 -31.5s-28.5 -28.5 -37.5 -46.5
s-13.5 -38 -13.5 -60c0 -18.667 3.5 -34.667 10.5 -48s16.5 -25 28.5 -35s26.5 -18.333 43.5 -25s35.5 -13 55.5 -19z" />
    <glyph glyph-name="percent" unicode="%" horiz-adv-x="1935" 
d="M754 0h-226l641 1380h224zM1477 588c-23.333 0 -42.833 -6.66992 -58.5 -20.0029s-28.334 -30.666 -38.001 -51.999s-16.5 -45 -20.5 -71s-6 -51.333 -6 -76c0 -20.667 1.33301 -43.667 4 -69s8.33398 -49.166 17.001 -71.499s21.167 -41 37.5 -56
s37.833 -22.5 64.5 -22.5c38 0 67.167 18.667 87.5 56s30.5 91.666 30.5 162.999c0 22 -1.83301 45.833 -5.5 71.5s-10 49.334 -19 71.001s-21.167 39.834 -36.5 54.501s-34.333 22 -57 22zM1477 771.997c57.333 0 106.502 -11.667 147.502 -35s74.667 -53.833 101 -91.5
s45.666 -80.667 57.999 -129s18.5 -97.5 18.5 -147.5c0 -28.667 -2.33301 -58.5 -7 -89.5s-12.334 -61.5 -23.001 -91.5s-24.5 -58.5 -41.5 -85.5s-37.5 -50.667 -61.5 -71s-51.833 -36.5 -83.5 -48.5s-67.834 -18 -108.501 -18c-59.333 0 -109.833 11.667 -151.5 35
s-75.667 54 -102 92s-45.666 81.167 -57.999 129.5s-18.5 97.5 -18.5 147.5c0 44 5.5 89.667 16.5 137s29.5 90.833 55.5 130.5s60 72.167 102 97.5s94 38 156 38zM463.002 1217c-23.333 0 -42.8359 -6.66992 -58.5029 -20.0029s-28.167 -30.666 -37.5 -51.999
s-16.166 -45 -20.499 -71s-6.5 -51.667 -6.5 -77c0 -20.667 1.33301 -43.667 4 -69s8.33398 -49.166 17.001 -71.499s21.167 -41 37.5 -56s37.833 -22.5 64.5 -22.5c38 0 67.333 18.833 88 56.5s31 91.834 31 162.501c0 22 -1.83301 45.833 -5.5 71.5
s-10.167 49.5 -19.5 71.5s-21.666 40.333 -36.999 55s-34.333 22 -57 22zM462.999 1400.99c57.333 0 106.504 -11.6689 147.504 -35.002s74.667 -54 101 -92s45.666 -81.167 57.999 -129.5s18.5 -97.5 18.5 -147.5c0 -28.667 -2.33301 -58.5 -7 -89.5
s-12.334 -61.5 -23.001 -91.5s-24.334 -58.333 -41.001 -85s-37 -50.167 -61 -70.5s-52 -36.5 -84 -48.5s-68.333 -18 -109 -18c-59.333 0 -109.833 11.667 -151.5 35s-75.667 53.833 -102 91.5s-45.666 80.667 -57.999 129s-18.5 97.5 -18.5 147.5
c0 29.333 2.33301 59.833 7 91.5s12.334 62.334 23.001 92.001s24.667 57.834 42 84.501s38.166 50.167 62.499 70.5s52.666 36.333 84.999 48s69.166 17.5 110.499 17.5z" />
    <glyph glyph-name="ampersand" unicode="&#x26;" horiz-adv-x="1298" 
d="M1169 725c-4 -85.333 -15.499 -166.336 -34.499 -243.003s-43.5 -141.667 -73.5 -195l266 -287h-334l-96 98c-49.333 -36 -102.833 -64 -160.5 -84s-118.834 -30 -183.501 -30c-78 0 -146.333 11.167 -205 33.5s-107.667 52.5 -147 90.5s-69 82.333 -89 133
s-30 104 -30 160c0 36.667 6.5 71.167 19.5 103.5s30.333 62.5 52 90.5s46.167 54.167 73.5 78.5s55.333 46.833 84 67.5c-17.333 20 -34.833 42.833 -52.5 68.5s-33.667 52.334 -48 80.001s-26 54.834 -35 81.501s-13.5 51 -13.5 73c0 46.667 8.83301 91.167 26.5 133.5
s43 79.666 76 111.999s73 58 120 77s99.833 28.5 158.5 28.5c54 0 104.333 -9.16699 151 -27.5s87.167 -43.5 121.5 -75.5s61.333 -69.5 81 -112.5s29.5 -89.5 29.5 -139.5c0 -35.333 -6.66699 -69.333 -20 -102s-30.833 -63.667 -52.5 -93s-46.5 -57.166 -74.5 -83.499
s-57 -50.833 -87 -73.5l180 -194c9.33301 32.667 16.833 69.834 22.5 111.501s9.16699 81.5 10.5 119.5h264zM553.001 212.997c32 0 63.333 6.66992 94 20.0029s60 28.666 88 45.999l-266 284c-38 -24.667 -66.667 -49.167 -86 -73.5s-29 -53.166 -29 -86.499
c0 -24.667 3.83301 -48.334 11.5 -71.001s19.667 -42.834 36 -60.501s37 -31.834 62 -42.501s54.833 -16 89.5 -16zM424.001 1044c0 -24.667 8.16699 -49.168 24.5 -73.501s34.166 -48.833 53.499 -73.5l26 -33c50 27.333 87.5 56.166 112.5 86.499s37.5 61.5 37.5 93.5
c0 16.667 -3.5 32.334 -10.5 47.001s-16.667 27.334 -29 38.001s-26.666 19 -42.999 25s-33.833 9 -52.5 9c-18 0 -34.333 -3.16699 -49 -9.5s-27.167 -14.833 -37.5 -25.5s-18.333 -23.167 -24 -37.5s-8.5 -29.833 -8.5 -46.5z" />
    <glyph glyph-name="quotesingle" unicode="'" horiz-adv-x="502" 
d="M123 942v438h252v-438h-252z" />
    <glyph glyph-name="parenleft" unicode="(" horiz-adv-x="664" 
d="M98 592c0 78 5.66699 152.835 17 224.502s26 138.834 44 201.501s37.833 120.667 59.5 174s42.667 100.333 63 141s39 74.667 56 102s29.5 46.666 37.5 57.999h284l-43.5 -67.5c-19 -29.667 -39.667 -65.167 -62 -106.5s-45 -88.5 -68 -141.5s-44 -110.167 -63 -171.5
s-34.5 -126.833 -46.5 -196.5s-18 -142.167 -18 -217.5c0 -70 6.16699 -138.667 18.5 -206s28.166 -131.833 47.499 -193.5s40.833 -119.834 64.5 -174.501s46.667 -103.667 69 -147s43 -80.333 62 -111l42.5 -67h-289c-51.333 82.667 -97.333 172 -138 268
c-17.333 40.667 -34.166 85.167 -50.499 133.5s-31 99.166 -44 152.499s-23.333 109 -31 167s-11.5 117.333 -11.5 178z" />
    <glyph glyph-name="parenright" unicode=")" horiz-adv-x="662" 
d="M563 592c0 -78.667 -6.16992 -154.507 -18.5029 -227.507s-28 -141.833 -47 -206.5s-39.833 -124.167 -62.5 -178.5s-44.167 -101.666 -64.5 -141.999s-38 -73 -53 -98s-24.5 -40.5 -28.5 -46.5h-291c10 14 24.333 36.333 43 67s39.334 67.667 62.001 111
s45.834 92.333 69.501 147s45.167 112.834 64.5 174.501s35.166 126.334 47.499 194.001s18.5 136.167 18.5 205.5c0 72.667 -5.83301 142.834 -17.5 210.501s-26.667 132 -45 193s-38.833 117.833 -61.5 170.5s-45.167 100.334 -67.5 143.001s-43.5 79.5 -63.5 110.5
l-48 73.5h287c4.66699 -6.66699 14.834 -22.334 30.501 -47.001s33.834 -56.667 54.501 -96s42.167 -85.666 64.5 -138.999s42.833 -112.166 61.5 -176.499s34.167 -133.666 46.5 -207.999s18.5 -152.5 18.5 -234.5z" />
    <glyph glyph-name="asterisk" unicode="*" horiz-adv-x="1081" 
d="M641 1229l225 86l70 -174l-240 -86l142 -195l-154 -119l-141 199l-137 -195l-170 115l139 197l-234 88l68 170l225 -84v237h207v-239z" />
    <glyph glyph-name="plus" unicode="+" 
d="M432 61v383h-369v236h369v381h260v-381h367v-236h-367v-383h-260z" />
    <glyph glyph-name="comma" unicode="," horiz-adv-x="518" 
d="M152 279l233.002 -0.000976562v-218c0 -54.667 -6.66699 -99.667 -20 -135s-31 -63.166 -53 -83.499s-47.5 -34.333 -76.5 -42s-59.167 -11.5 -90.5 -11.5c-6 0 -16.833 0.5 -32.5 1.5s-32.834 3.16699 -51.501 6.5v144h25c21.333 0 37.666 5.83301 48.999 17.5
s17 30.167 17 55.5v265z" />
    <glyph glyph-name="hyphen" unicode="-" horiz-adv-x="885" 
d="M123 680h641v-236h-641v236z" />
    <glyph glyph-name="period" unicode="." horiz-adv-x="516" 
d="M391 313v-313h-266v313h266z" />
    <glyph glyph-name="slash" unicode="/" horiz-adv-x="915" 
d="M260 -49h-268l233 508l445 962h262z" />
    <glyph glyph-name="zero" unicode="0" 
d="M563 1120c-30 0 -56.334 -6.50195 -79.001 -19.502s-42.167 -30.667 -58.5 -53s-29.833 -48.333 -40.5 -78s-19.167 -61 -25.5 -94s-10.833 -66.667 -13.5 -101s-4 -67.166 -4 -98.499c0 -27.333 0.666992 -57.166 2 -89.499s4.5 -65.166 9.5 -98.499
s12.333 -65.5 22 -96.5s22.667 -58.5 39 -82.5s36.666 -43.333 60.999 -58s53.5 -22 87.5 -22c38.667 0 71.834 10.333 99.501 31s50.334 50.167 68.001 88.5s30.667 85.166 39 140.499s12.5 117.666 12.5 186.999c0 28 -1.16699 58.333 -3.5 91s-6.5 65.5 -12.5 98.5
s-14.167 64.833 -24.5 95.5s-23.5 57.834 -39.5 81.501s-35.5 42.5 -58.5 56.5s-49.833 21 -80.5 21zM562.999 1374c64.667 0 121.998 -9.50098 171.998 -28.501s93.667 -45 131 -78s68.833 -71.833 94.5 -116.5s46.334 -92.834 62.001 -144.501s27 -105.667 34 -162
s10.5 -112.5 10.5 -168.5c0 -48 -3 -98.667 -9 -152s-16.333 -106 -31 -158s-34.334 -101.667 -59.001 -149s-55.667 -88.833 -93 -124.5s-81.666 -64.167 -132.999 -85.5s-111 -32 -179 -32c-65.333 0 -123.166 9.5 -173.499 28.5s-94.166 45.333 -131.499 79
s-68.833 73 -94.5 118s-46.334 93.5 -62.001 145.5s-27 106.167 -34 162.5s-10.5 112.166 -10.5 167.499c0 48.667 3 99.834 9 153.501s16.167 106.334 30.5 158.001s33.833 100.834 58.5 147.501s55.667 87.667 93 123s82 63.5 134 84.5s112.333 31.5 181 31.5z" />
    <glyph glyph-name="one" unicode="1" 
d="M981 0h-811v254h283v774l-236 -119v281l303 160h209v-1096h252v-254z" />
    <glyph glyph-name="two" unicode="2" 
d="M989 0l-885.002 -0.00292969v252l181 150l76.5 66.5l77 69.5l71.5 68.5c22.667 22.333 43 43.5 61 63.5c41.333 46 72.5 90.833 93.5 134.5s31.5 88.167 31.5 133.5c0 26 -3.16699 50 -9.5 72s-15.833 41 -28.5 57s-28.667 28.5 -48 37.5s-41.666 13.5 -66.999 13.5
c-49.333 0 -90.5 -14.5 -123.5 -43.5s-52.167 -73.167 -57.5 -132.5h-282c6 61.333 20.333 118.333 43 171s53.5 98.334 92.5 137.001s85.667 69 140 91s116.166 33 185.499 33c72 0 135.333 -11.667 190 -35s100.5 -54.666 137.5 -93.999s65 -85.166 84 -137.499
s28.5 -107.5 28.5 -165.5c0 -45.333 -5.66699 -88 -17 -128s-27.166 -78.167 -47.499 -114.5s-44.5 -71 -72.5 -104s-58.667 -64.833 -92 -95.5c-35.333 -32 -68.166 -60.167 -98.499 -84.5l-84.5 -65.5l-71.5 -52c-21.667 -15.333 -41.5 -30 -59.5 -44h551v-254z" />
    <glyph glyph-name="three" unicode="3" 
d="M977 971c0 -32 -3.83203 -61.3311 -11.499 -87.998s-18.334 -50.834 -32.001 -72.501s-29.834 -40.834 -48.501 -57.501s-38.667 -31.334 -60 -44.001c28 -11.333 54 -27.166 78 -47.499s44.833 -43.833 62.5 -70.5s31.5 -55.667 41.5 -87s15 -63.333 15 -96
c0 -68 -13.5 -128.667 -40.5 -182s-63.5 -98.666 -109.5 -135.999s-99.167 -65.833 -159.5 -85.5s-123.833 -29.5 -190.5 -29.5c-60.667 0 -117.667 8.66699 -171 26s-101 42.666 -143 75.999s-77.333 74.5 -106 123.5s-49 105.167 -61 168.5h285
c6 -26 15.5 -47.667 28.5 -65s28.333 -31.5 46 -42.5s37.167 -18.833 58.5 -23.5s43.666 -7 66.999 -7c30 0 57.833 3.5 83.5 10.5s48 17.833 67 32.5s33.833 33.167 44.5 55.5s16 48.5 16 78.5c0 52 -17.5 93.333 -52.5 124s-82.833 46 -143.5 46h-133v229h118
c26.667 0 50.334 3.83301 71.001 11.5s38 18.5 52 32.5s24.667 30.5 32 49.5s11 39.833 11 62.5c0 25.333 -4.66699 47.833 -14 67.5s-21.833 36.167 -37.5 49.5s-34 23.333 -55 30s-42.833 10 -65.5 10c-20 0 -39.667 -2.83301 -59 -8.5s-37 -14.167 -53 -25.5
s-29.833 -25.333 -41.5 -42s-19.834 -35.667 -24.501 -57h-285c6.66699 62 24.334 117 53.001 165s64.334 88.5 107.001 121.5s90 58 142 75s105 25.5 159 25.5c65.333 0 126 -9.83301 182 -29.5s104.5 -47.334 145.5 -83.001s73.167 -78.167 96.5 -127.5
s35 -103.666 35 -162.999z" />
    <glyph glyph-name="four" unicode="4" 
d="M907 1350v-844h170v-238h-170v-268h-272v268h-602v215l585 867h289zM635 1030l-348 -524h348v524z" />
    <glyph glyph-name="five" unicode="5" 
d="M559 -25c-65.333 0 -125.168 8.83398 -179.501 26.501s-102 43.167 -143 76.5s-74.833 74.333 -101.5 123s-45 104 -55 166h276c13.333 -46.667 37.166 -81 71.499 -103s75.5 -33 123.5 -33c62.667 0 111.5 19.5 146.5 58.5s52.5 96.833 52.5 173.5
c0 75.333 -18 131 -54 167s-84.333 54 -145 54c-40 0 -76 -8.33301 -108 -25s-59 -44.667 -81 -84h-243l69 775h766v-254h-542l-21 -217c31.333 17.333 63.333 30.5 96 39.5s69.667 13.5 111 13.5c64.667 0 123.334 -11.333 176.001 -34s97.834 -54.334 135.501 -95.001
s66.834 -89.667 87.501 -147s31 -120.333 31 -189c0 -72 -11.167 -138.167 -33.5 -198.5s-54 -112.333 -95 -156s-90.333 -77.5 -148 -101.5s-121.834 -36 -192.501 -36z" />
    <glyph glyph-name="six" unicode="6" 
d="M584 1374c55.333 0 107.331 -8.50195 155.998 -25.502s92.167 -41.5 130.5 -73.5s70.333 -71 96 -117s43.5 -98.333 53.5 -157h-277c-11.333 39.333 -31.666 69.666 -60.999 90.999s-62 32 -98 32c-26.667 0 -51.5 -7.16699 -74.5 -21.5s-43.167 -34.666 -60.5 -60.999
s-31.833 -57.833 -43.5 -94.5s-19.834 -77.334 -24.501 -122.001c30.667 22.667 65.167 40 103.5 52s75.5 18 111.5 18c66.667 0 127.834 -11.167 183.501 -33.5s103.167 -53.166 142.5 -92.499s70 -86.166 92 -140.499s33 -113.5 33 -177.5
c0 -70.667 -11.667 -135.167 -35 -193.5s-56 -108.5 -98 -150.5s-92.167 -74.5 -150.5 -97.5s-122.5 -34.5 -192.5 -34.5c-81.333 0 -152.666 15.833 -213.999 47.5s-112.666 76.334 -153.999 134.001s-72.5 126.667 -93.5 207s-31.5 169.5 -31.5 267.5
c0 100 10.333 194.833 31 284.5s52 168.5 94 236.5s94.667 122 158 162s137.666 60 222.999 60zM570.998 228.998c27.333 0 52.832 4.32812 76.499 12.9951s44.334 21.834 62.001 39.501s31.5 40 41.5 67s15 58.833 15 95.5c0 32.667 -4.66699 62.5 -14 89.5
s-22.5 50 -39.5 69s-37.5 33.667 -61.5 44s-50.667 15.5 -80 15.5c-18.667 0 -39.334 -3.33301 -62.001 -10s-43.667 -18.167 -63 -34.5s-35.666 -38.666 -48.999 -66.999s-20 -63.833 -20 -106.5c0 -29.333 5 -57.166 15 -83.499s23.667 -49.166 41 -68.499
s37.833 -34.666 61.5 -45.999s49.167 -17 76.5 -17z" />
    <glyph glyph-name="seven" unicode="7" 
d="M995 1350v-228l-518 -1122h-299l522 1092h-624v258h919z" />
    <glyph glyph-name="eight" unicode="8" 
d="M1010 985c0 -28.667 -4.17383 -56.1611 -12.5068 -82.4941s-19.166 -51 -32.499 -74s-28.666 -44.167 -45.999 -63.5s-35 -36 -53 -50c26 -16 50.333 -35.333 73 -58s42.334 -47.334 59.001 -74.001s29.667 -54.834 39 -84.501s14 -59.834 14 -90.501
c0 -71.333 -13.167 -134.166 -39.5 -188.499s-62 -99.666 -107 -135.999s-97.167 -63.833 -156.5 -82.5s-121.666 -28 -186.999 -28c-66 0 -128.667 9.33301 -188 28s-111.166 46.167 -155.499 82.5s-79.666 81.666 -105.999 135.999s-39.5 117.166 -39.5 188.499
c0 30.667 4.66699 61.167 14 91.5s22.166 59.166 38.499 86.499s35.333 52.166 57 74.499s45.167 41.166 70.5 56.499c-18 14 -35.5 30.667 -52.5 50s-32.333 40.333 -46 63s-24.5 47.167 -32.5 73.5s-12 53.5 -12 81.5c0 63.333 11.667 119.333 35 168
s55.333 89.5 96 122.5s88.5 58 143.5 75s114.167 25.5 177.5 25.5c62.667 0 121.334 -8.5 176.001 -25.5s102.334 -42 143.001 -75s72.5 -73.833 95.5 -122.5s34.5 -104.667 34.5 -168zM562.993 213.006c28 0 54.167 4.33301 78.5 13s45.833 21 64.5 37
s33.334 35.833 44.001 59.5s16 50.5 16 80.5c0 26.667 -4.5 51.667 -13.5 75s-22.167 43.5 -39.5 60.5s-38.666 30.5 -63.999 40.5s-54 15 -86 15c-32.667 0 -61.834 -5 -87.501 -15s-47.334 -23.5 -65.001 -40.5s-31.167 -37.167 -40.5 -60.5s-14 -48.333 -14 -75
c0 -30 5.5 -56.833 16.5 -80.5s26 -43.5 45 -59.5s41 -28.333 66 -37s51.5 -13 79.5 -13zM562.993 1137.01c-24.667 0 -47.501 -3.33301 -68.501 -10s-39.333 -16.667 -55 -30s-28 -29.833 -37 -49.5s-13.5 -42.5 -13.5 -68.5c0 -23.333 4.16699 -45 12.5 -65
s20 -37.333 35 -52s33.167 -26.167 54.5 -34.5s44.666 -12.5 69.999 -12.5s48.333 4.16699 69 12.5s38.334 19.833 53.001 34.5s26 32 34 52s12 41.667 12 65c0 26 -4.16699 48.833 -12.5 68.5s-20 36.167 -35 49.5s-32.667 23.333 -53 30s-42.166 10 -65.499 10z" />
    <glyph glyph-name="nine" unicode="9" 
d="M541 -25c-55.333 0 -107.502 8.5 -156.502 25.5s-92.667 41.5 -131 73.5s-70.333 71.167 -96 117.5s-43.5 98.5 -53.5 156.5h277c11.333 -39.333 31.833 -69.666 61.5 -90.999s62.5 -32 98.5 -32c26.667 0 51.334 7.16699 74.001 21.5s42.667 34.666 60 60.999
s31.833 57.833 43.5 94.5s19.834 77.334 24.501 122.001c-30.667 -22.667 -65.167 -39.834 -103.5 -51.501s-75.5 -17.5 -111.5 -17.5c-67.333 0 -128.5 11.167 -183.5 33.5s-102.333 53.166 -142 92.499s-70.334 86.166 -92.001 140.499s-32.5 113.5 -32.5 177.5
c0 70.667 11.5 135.167 34.5 193.5s55.5 108.333 97.5 150s92.167 74 150.5 97s122.5 34.5 192.5 34.5c81.333 0 152.833 -15.833 214.5 -47.5s113.167 -76.167 154.5 -133.5s72.5 -126.166 93.5 -206.499s31.5 -169.5 31.5 -267.5c0 -65.333 -4.5 -129.166 -13.5 -191.499
s-22.833 -121 -41.5 -176s-42 -105.667 -70 -152s-60.667 -86 -98 -119s-79.666 -58.833 -126.999 -77.5s-99.333 -28 -156 -28zM552.998 1120c-27.333 0 -52.8311 -4.33301 -76.498 -13s-44.334 -21.667 -62.001 -39s-31.5 -39.666 -41.5 -66.999s-15 -59.333 -15 -96
c0 -32.667 4.66699 -62.334 14 -89.001s22.5 -49.5 39.5 -68.5s37.5 -33.667 61.5 -44s50.667 -15.5 80 -15.5c18.667 0 39.5 3.16699 62.5 9.5s44.167 17.833 63.5 34.5s35.666 38.834 48.999 66.501s20 63.167 20 106.5c0 30 -5 58 -15 84s-23.667 48.667 -41 68
s-37.833 34.666 -61.5 45.999s-49.5 17 -77.5 17z" />
    <glyph glyph-name="colon" unicode=":" horiz-adv-x="545" 
d="M397 1006v-314h-250v314h250zM397 313v-313h-250v313h250z" />
    <glyph glyph-name="semicolon" unicode=";" horiz-adv-x="545" 
d="M401 1006v-314h-249v314h249zM162 279l233.002 -0.000976562v-218c0 -54.667 -6.66699 -99.667 -20 -135s-31 -63.166 -53 -83.499s-47.5 -34.333 -76.5 -42s-59.167 -11.5 -90.5 -11.5c-6 0 -16.833 0.5 -32.5 1.5s-32.834 3.16699 -51.501 6.5v144h25
c21.333 0 37.666 5.83301 48.999 17.5s17 30.167 17 55.5v265z" />
    <glyph glyph-name="less" unicode="&#x3c;" 
d="M1024 63l-930 404v195l930 399v-256l-627 -240l627 -250v-252z" />
    <glyph glyph-name="equal" unicode="=" 
d="M1028 647h-934v232h934v-232zM1028 248h-934v231h934v-231z" />
    <glyph glyph-name="greater" unicode="&#x3e;" 
d="M98 315l627 250l-627 240v256l930 -399v-195l-930 -404v252z" />
    <glyph glyph-name="question" unicode="?" horiz-adv-x="932" 
d="M35 991c4.66699 58.667 17.667 113.167 39 163.5s50 94 86 131s79 66.167 129 87.5s106 32 168 32c64.667 0 122.5 -10.333 173.5 -31s94.167 -48.834 129.5 -84.501s62.5 -77 81.5 -124s28.5 -96.833 28.5 -149.5c0 -41.333 -6.5 -80.333 -19.5 -117
s-29.833 -71.834 -50.5 -105.501s-43.834 -65.5 -69.501 -95.5l-75.5 -86c-29.333 -31.333 -54.666 -61 -75.999 -89s-32 -54.333 -32 -79v-49h-252v64c0 47.333 11.667 94.333 35 141s58.666 96 105.999 148c20 20.667 39.333 42 58 64s35.334 44.5 50.001 67.5
s26.334 46.5 35.001 70.5s13 48.667 13 74c0 18.667 -3 36.5 -9 53.5s-15 32 -27 45s-26.833 23.333 -44.5 31s-37.834 11.5 -60.501 11.5c-21.333 0 -40.5 -4.16699 -57.5 -12.5s-31.5 -20.166 -43.5 -35.499s-21.667 -33.666 -29 -54.999s-12 -45 -14 -71h-272zM549 299
v-299h-256v299h256z" />
    <glyph glyph-name="at" unicode="@" horiz-adv-x="2015" 
d="M911 176c34.667 0 66.001 7.33398 94.001 22.001s52.833 34.167 74.5 58.5s40.167 52.333 55.5 84s28 64.5 38 98.5s17.333 67.833 22 101.5s7 65.167 7 94.5c0 22 -2.33301 43.167 -7 63.5s-12.667 38.166 -24 53.499s-26.833 27.666 -46.5 36.999
s-44.834 14 -75.501 14c-32 0 -61.333 -6.33301 -88 -19s-50.834 -29.667 -72.501 -51s-40.667 -46 -57 -74s-29.833 -57.5 -40.5 -88.5s-18.834 -62.333 -24.501 -94s-8.5 -61.5 -8.5 -89.5c0 -25.333 2.33301 -50.666 7 -75.999s12.834 -48 24.501 -68
s27.334 -36.167 47.001 -48.5s44.5 -18.5 74.5 -18.5zM1731 -99.999c-50 -52 -102.662 -98.4961 -157.995 -139.496s-112.833 -76 -172.5 -105s-121.167 -51.167 -184.5 -66.5s-127.333 -23 -192 -23c-90.667 0 -176.667 10.667 -258 32s-156.5 51.5 -225.5 90.5
s-131 86.333 -186 142s-101.833 117.834 -140.5 186.501s-68.334 143 -89.001 223s-31 164 -31 252c0 84.667 11 166.334 33 245.001s53.167 152 93.5 220s88.833 130 145.5 186s119.5 104 188.5 144s143 71 222 93s161.5 33 247.5 33c84.667 0 165.834 -10 243.501 -30
s149.667 -48 216 -84s126.5 -79 180.5 -129s100 -104.667 138 -164s67.333 -122.833 88 -190.5s31 -136.834 31 -207.501c0 -108.667 -14.5 -203.334 -43.5 -284.001s-67.167 -147.834 -114.5 -201.501s-101.5 -93.667 -162.5 -120s-123.5 -39.5 -187.5 -39.5
c-30.667 0 -58.5 3.5 -83.5 10.5s-47.167 16 -66.5 27s-36.166 23.667 -50.499 38s-25.833 28.833 -34.5 43.5c-18.667 -17.333 -38.167 -33 -58.5 -47s-42.5 -26.333 -66.5 -37s-50.333 -18.834 -79 -24.501s-60.334 -8.5 -95.001 -8.5
c-62.667 0 -115.834 12.167 -159.501 36.5s-79.167 56.666 -106.5 96.999s-47.166 86.5 -59.499 138.5s-18.5 105.333 -18.5 160c0 46.667 5.33301 94.167 16 142.5s26.167 95 46.5 140s45.666 87.5 75.999 127.5s65 74.833 104 104.5s82.167 53.167 129.5 70.5
s98.666 26 153.999 26c37.333 0 73 -7 107 -21s61.667 -32.333 83 -55l13 61h227l-150 -741c-2.66699 -11.333 -3.33398 -22.5 -2.00098 -33.5s5 -20.833 11 -29.5s14.667 -15.667 26 -21s25.666 -8 42.999 -8c38 0 74.667 9.33301 110 28s66.5 46.5 93.5 83.5
s48.667 83.5 65 139.5s24.5 121 24.5 195c0 80.667 -17.167 157.167 -51.5 229.5s-82 136 -143 191s-133.5 98.667 -217.5 131s-176 48.5 -276 48.5c-98.667 0 -191.167 -18.5 -277.5 -55.5s-161.5 -87.833 -225.5 -152.5s-114.333 -140.334 -151 -227.001
s-55 -179.667 -55 -279c0 -66.667 8 -130.5 24 -191.5s39 -118.167 69 -171.5s66.167 -101.833 108.5 -145.5s89.833 -81.167 142.5 -112.5s109.667 -55.5 171 -72.5s126 -25.5 194 -25.5c77.333 0 149.166 10.667 215.499 32s128.833 53 187.5 95h304z" />
    <glyph glyph-name="A" unicode="A" horiz-adv-x="1264" 
d="M877 309h-490l-111 -309h-301l527 1380h262l524 -1380h-299zM479 569h303l-151 418z" />
    <glyph glyph-name="B" unicode="B" horiz-adv-x="1286" 
d="M731 1380c82 0 151.332 -11.1689 207.999 -33.502s102.834 -51.666 138.501 -87.999s61.334 -77.666 77.001 -123.999s23.5 -93.5 23.5 -141.5s-11.167 -96.5 -33.5 -145.5s-55.833 -93.167 -100.5 -132.5c52 -40 92.333 -85.5 121 -136.5s43 -102.5 43 -154.5
c0 -48 -8.16699 -97.167 -24.5 -147.5s-42.333 -96 -78 -137s-81.834 -74.5 -138.501 -100.5s-125 -39 -205 -39h-633v1380h602zM417.999 1130l0.000976562 -300.999h321c28 0 51.667 4.33301 71 13s35 20 47 34s20.667 30.333 26 49s8 38 8 58
c0 43.333 -13.833 78.666 -41.5 105.999s-71.834 41 -132.501 41h-299zM418 585.999v-336h332c28.667 0 53.667 5.33301 75 16s38.833 24.5 52.5 41.5s23.834 35.833 30.501 56.5s10 40.667 10 60c0 18.667 -3.33301 37.5 -10 56.5s-16.834 36.333 -30.501 52
s-31.167 28.5 -52.5 38.5s-46.333 15 -75 15h-332z" />
    <glyph glyph-name="C" unicode="C" horiz-adv-x="1311" 
d="M1262 463c-12 -68.667 -32.335 -132.67 -61.002 -192.003s-66.167 -111 -112.5 -155s-102.166 -78.5 -167.499 -103.5s-140.333 -37.5 -225 -37.5c-99.333 0 -187.666 16.833 -264.999 50.5s-142.666 81.834 -195.999 144.501s-93.833 138 -121.5 226
s-41.5 186.667 -41.5 296c0 108.667 13.667 207 41 295s67.333 163 120 225s117 109.667 193 143s162.667 50 260 50c82 0 155.167 -12 219.5 -36s119.666 -57.167 165.999 -99.5s83.833 -92.333 112.5 -150s48.334 -120.167 59.001 -187.5h-295
c-13.333 70 -42.333 123.333 -87 160s-102.334 55 -173.001 55c-104 0 -184.333 -38.5 -241 -115.5s-85 -190.167 -85 -339.5c0 -75.333 7.66699 -141.666 23 -198.999s37.5 -105.166 66.5 -143.499s64 -67.333 105 -87s87.5 -29.5 139.5 -29.5c72.667 0 132 19 178 57
s76.333 95.667 91 173h297z" />
    <glyph glyph-name="D" unicode="D" horiz-adv-x="1341" 
d="M662 1380c100 0 188 -16.999 264 -50.999s139.5 -81 190.5 -141s89.333 -130.667 115 -212s38.5 -169 38.5 -263c0 -108.667 -12.833 -206.834 -38.5 -294.501s-64 -162.5 -115 -224.5s-114.5 -109.833 -190.5 -143.5s-164 -50.5 -264 -50.5h-533v1380h533zM418 1122
v-864h244c211.333 0 317 150.333 317 451c0 63.333 -6.66699 120.5 -20 171.5s-33.333 94.333 -60 130s-59.667 63.167 -99 82.5s-85.333 29 -138 29h-244z" />
    <glyph glyph-name="E" unicode="E" horiz-adv-x="1204" 
d="M1114 1116h-696v-285h588v-264h-588v-303h696v-264h-985v1380h985v-264z" />
    <glyph glyph-name="F" unicode="F" horiz-adv-x="1135" 
d="M1098 1114h-680v-280h571v-265h-571v-569h-287v1380h967v-266z" />
    <glyph glyph-name="G" unicode="G" horiz-adv-x="1337" 
d="M948 942c-5.33301 32.667 -15.501 61.832 -30.501 87.499s-34.167 47.334 -57.5 65.001s-50.166 31.167 -80.499 40.5s-62.833 14 -97.5 14c-106 0 -185.833 -38.833 -239.5 -116.5s-80.5 -191.167 -80.5 -340.5c0 -151.333 26.167 -266 78.5 -344s131.5 -117 237.5 -117
c48.667 0 91 6.83301 127 20.5s65.667 31.5 89 53.5s40.666 47.167 51.999 75.5s17 57.166 17 86.499v63h-371v258h659v-266c0 -74 -11 -144 -33 -210s-56.333 -124 -103 -174s-106.167 -89.667 -178.5 -119s-158.5 -44 -258.5 -44c-99.333 0 -186.666 16.833 -261.999 50.5
s-138.5 81.834 -189.5 144.501s-89.5 138 -115.5 226s-39 186.667 -39 296c0 108.667 13.333 207 40 295s65.834 163 117.501 225s115.5 109.667 191.5 143s163 50 261 50c80.667 0 153.5 -12.167 218.5 -36.5s121.167 -57.333 168.5 -99s85.666 -90.667 114.999 -147
s48.333 -116.5 57 -180.5h-293z" />
    <glyph glyph-name="H" unicode="H" horiz-adv-x="1325" 
d="M1196 0h-289v569h-489v-569h-289v1380h289v-542h489v542h289v-1380z" />
    <glyph glyph-name="I" unicode="I" horiz-adv-x="551" 
d="M420 0h-289v1380h289v-1380z" />
    <glyph glyph-name="J" unicode="J" horiz-adv-x="1008" 
d="M311 383c2 -48 14.167 -86 36.5 -114s57.5 -42 105.5 -42c46 0 80.667 14.5 104 43.5s35 68.5 35 118.5v991h289v-991c0 -48 -8.16699 -96.5 -24.5 -145.5s-41.833 -93.5 -76.5 -133.5s-79 -72.5 -133 -97.5s-118.667 -37.5 -194 -37.5c-68 0 -128 11 -180 33
s-95.667 51.833 -131 89.5s-62.333 81.167 -81 130.5s-28.667 101 -30 155h280z" />
    <glyph glyph-name="K" unicode="K" horiz-adv-x="1317" 
d="M813 827l504 -827h-338l-356 604l-205 -239v-365h-289v1380h289v-608l510 608h360z" />
    <glyph glyph-name="L" unicode="L" horiz-adv-x="1073" 
d="M418 268h639v-268h-928v1380h289v-1112z" />
    <glyph glyph-name="M" unicode="M" horiz-adv-x="1575" 
d="M1446 0h-287v762l-268 -621h-203l-272 621v-762h-287v1380h295l367 -874l360 874h295v-1380z" />
    <glyph glyph-name="N" unicode="N" horiz-adv-x="1327" 
d="M1198 0h-278l-502 844v-844h-289v1380h277l503 -845v845h289v-1380z" />
    <glyph glyph-name="O" unicode="O" horiz-adv-x="1352" 
d="M676 1405c102 0 190.833 -18.668 266.5 -56.001s138.5 -88 188.5 -152s87.333 -138.167 112 -222.5s37 -173.5 37 -267.5c0 -108.667 -12.833 -208 -38.5 -298s-63.834 -167.167 -114.501 -231.5s-114 -114.166 -190 -149.499s-164.333 -53 -265 -53
c-98 0 -184.5 17.333 -259.5 52s-137.667 83.667 -188 147s-88.333 139.5 -114 228.5s-38.5 188.167 -38.5 297.5c0 107.333 13.667 204.5 41 291.5s67 161.167 119 222.5s115.333 108.5 190 141.5s159.334 49.5 254.001 49.5zM676 1147
c-100 0 -177.334 -37.666 -232.001 -112.999s-82 -186.666 -82 -333.999c0 -153.333 25.833 -269.5 77.5 -348.5s129.167 -118.5 232.5 -118.5c106.667 0 186.167 40 238.5 120s78.5 196.333 78.5 349c0 65.333 -6.16699 125.166 -18.5 179.499
s-31.166 101.166 -56.499 140.499s-57.833 70 -97.5 92s-86.5 33 -140.5 33z" />
    <glyph glyph-name="P" unicode="P" horiz-adv-x="1251" 
d="M750 1380c54.667 0 104.001 -6.49902 148.001 -19.499s83.167 -30.5 117.5 -52.5s63.666 -47.833 87.999 -77.5s44.5 -61 60.5 -94s27.667 -66.833 35 -101.5s11 -68.334 11 -101.001c0 -46.667 -8.5 -95.5 -25.5 -146.5s-44 -98 -81 -141s-84.667 -78.5 -143 -106.5
s-128.5 -42 -210.5 -42h-332v-498h-289v1380h621zM418.001 1116v-353.999h330c29.333 0 54.833 5.66699 76.5 17s39.5 25.5 53.5 42.5s24.5 35.667 31.5 56s10.5 39.833 10.5 58.5c0 19.333 -3.5 39.666 -10.5 60.999s-17.5 40.833 -31.5 58.5s-31.833 32.167 -53.5 43.5
s-47.167 17 -76.5 17h-330z" />
    <glyph glyph-name="Q" unicode="Q" horiz-adv-x="1352" 
d="M672 1405c102 0 191.002 -18.667 267.002 -56s139.167 -88 189.5 -152s88.166 -138.167 113.499 -222.5s38 -173.5 38 -267.5c0 -96 -10 -184.833 -30 -266.5s-49.667 -153.5 -89 -215.5s-88.666 -113.333 -147.999 -154s-128 -68.334 -206 -83.001
c0 -40 7.16699 -67.5 21.5 -82.5s36.5 -22.5 66.5 -22.5h158v-219c-18.667 -3.33301 -38 -6.33301 -58 -9c-17.333 -2.66699 -36 -4.83398 -56 -6.50098s-38.667 -2.5 -56 -2.5c-67.333 0 -124 7 -170 21s-83.5 35.333 -112.5 64s-50.333 64.834 -64 108.501
s-21.834 95.167 -24.501 154.5c-72 16.667 -135.5 45.334 -190.5 86.001s-101 91.5 -138 152.5s-64.833 130.833 -83.5 209.5s-28 164.667 -28 258c0 107.333 13.5 204.5 40.5 291.5s66.167 161.167 117.5 222.5s114.166 108.5 188.499 141.5s158.833 49.5 253.5 49.5z
M672.002 1147c-100 0 -176.168 -37.666 -228.501 -112.999s-78.5 -186.666 -78.5 -333.999c0 -153.333 25.333 -269 76 -347s127.667 -117 231 -117c106.667 0 185.834 39.5 237.501 118.5s77.5 194.833 77.5 347.5c0 65.333 -6.16699 125.166 -18.5 179.499
s-31.5 101.166 -57.5 140.499s-58.833 70 -98.5 92s-86.5 33 -140.5 33z" />
    <glyph glyph-name="R" unicode="R" horiz-adv-x="1319" 
d="M760 1380c54.667 0 104.165 -6.49902 148.498 -19.499s83.5 -30.5 117.5 -52.5s63.333 -47.833 88 -77.5s45 -61 61 -94s27.667 -66.833 35 -101.5s11 -68.334 11 -101.001c0 -34 -4.66699 -69.667 -14 -107s-23.666 -73.333 -42.999 -108s-44.166 -67 -74.499 -97
s-66.5 -55 -108.5 -75l317 -547h-333l-283 500h-264v-500h-289v1380h631zM417.998 1116v-353.999h340c30 0 55.833 5.66699 77.5 17s39.5 25.5 53.5 42.5s24.333 35.667 31 56s10 39.833 10 58.5c0 19.333 -3.33301 39.666 -10 60.999s-17 40.833 -31 58.5
s-31.833 32.167 -53.5 43.5s-47.5 17 -77.5 17h-340z" />
    <glyph glyph-name="S" unicode="S" horiz-adv-x="1239" 
d="M836 981c-4 24 -11.3301 46.6709 -21.9971 68.0039s-25.167 40 -43.5 56s-40.5 28.667 -66.5 38s-56 14 -90 14c-30.667 0 -59.167 -3.5 -85.5 -10.5s-49.333 -17.167 -69 -30.5s-35 -29.666 -46 -48.999s-16.5 -41.333 -16.5 -66c0 -32 10.167 -57 30.5 -75
s49 -33.167 86 -45.5s81.167 -23.666 132.5 -33.999s108.333 -23.5 171 -39.5c58.667 -15.333 109.667 -34.666 153 -57.999s79.333 -51 108 -83s50 -68.833 64 -110.5s21 -88.834 21 -141.501c0 -64.667 -13.5 -123.834 -40.5 -177.501s-64.833 -99.834 -113.5 -138.501
s-107.334 -68.834 -176.001 -90.501s-144.334 -32.5 -227.001 -32.5c-90 0 -168 13.5 -234 40.5s-121 62.167 -165 105.5s-77.833 92.666 -101.5 147.999s-38.5 111 -44.5 167h299c4 -30 12.667 -57.667 26 -83s30.666 -47.333 51.999 -66s46.666 -33.334 75.999 -44.001
s62 -16 98 -16c38.667 0 74 4.16699 106 12.5s59.5 20.333 82.5 36s41 34.667 54 57s19.5 47.5 19.5 75.5c0 34.667 -9 61.834 -27 81.501s-44.833 36 -80.5 49s-80 25 -133 36s-114.5 25.5 -184.5 43.5c-39.333 10 -79.333 24.5 -120 43.5s-77.5 43.667 -110.5 74
s-60 67 -81 110s-31.5 93.5 -31.5 151.5c0 61.333 12.333 117.166 37 167.499s59.334 93.333 104.001 129s98.167 63.167 160.5 82.5s131.166 29 206.499 29c89.333 0 165.333 -12.5 228 -37.5s114.334 -57.667 155.001 -98s71.5 -85.833 92.5 -136.5
s34.5 -101.334 40.5 -152.001h-294z" />
    <glyph glyph-name="T" unicode="T" horiz-adv-x="1108" 
d="M1087 1112h-387v-1112h-288v1112h-392v268h1067v-268z" />
    <glyph glyph-name="U" unicode="U" horiz-adv-x="1317" 
d="M1192 528c0 -101.333 -13.502 -187.166 -40.502 -257.499s-64.5 -127.333 -112.5 -171s-105 -75.334 -171 -95.001s-137.667 -29.5 -215 -29.5c-74.667 0 -144.167 9.83301 -208.5 29.5s-120.166 51.334 -167.499 95.001s-84.5 100.667 -111.5 171
s-40.5 156.166 -40.5 257.499v852h289v-837c0 -56 5.33301 -103.667 16 -143s26.334 -71.333 47.001 -96s45.667 -42.667 75 -54s63 -17 101 -17c40.667 0 76.5 5.66699 107.5 17s57 29.333 78 54s37 56.667 48 96s16.5 87 16.5 143v837h289v-852z" />
    <glyph glyph-name="V" unicode="V" horiz-adv-x="1190" 
d="M598 401l311 979h301l-483 -1380h-264l-483 1380h299z" />
    <glyph glyph-name="W" unicode="W" horiz-adv-x="1665" 
d="M1313 0h-260l-219 877l-232 -877h-252l-350 1380h295l205 -876l209 876h243l215 -876l207 876h291z" />
    <glyph glyph-name="X" unicode="X" horiz-adv-x="1145" 
d="M-47 0l446 719l-411 661h325l258 -422l258 422h322l-408 -657l449 -723h-324l-297 479l-292 -479h-326z" />
    <glyph glyph-name="Y" unicode="Y" horiz-adv-x="1176" 
d="M733 561v-561h-291v563l-465 817h316l297 -534l293 534h315z" />
    <glyph glyph-name="Z" unicode="Z" horiz-adv-x="1112" 
d="M1055 1176l-641 -910h657v-266h-1022v205l647 911h-604v264h963v-204z" />
    <glyph glyph-name="bracketleft" unicode="[" horiz-adv-x="666" 
d="M649 1380h-254v-1470h254v-217h-518v1904h518v-217z" />
    <glyph glyph-name="backslash" unicode="\" horiz-adv-x="930" 
d="M8 1376h273l649 -1376h-273z" />
    <glyph glyph-name="bracketright" unicode="]" horiz-adv-x="666" 
d="M541 -307h-518v217h249v1470h-249v217h518v-1904z" />
    <glyph glyph-name="asciicircum" unicode="^" horiz-adv-x="1108" 
d="M100 655l361 811h196l347 -811h-240l-211 484l-215 -484h-238z" />
    <glyph glyph-name="underscore" unicode="_" horiz-adv-x="920" 
d="M-31 -49h977v-219h-977v219z" />
    <glyph glyph-name="grave" unicode="`" horiz-adv-x="719" 
d="M295 1110l-248 315h293l219 -315h-264z" />
    <glyph glyph-name="a" unicode="a" horiz-adv-x="1106" 
d="M61 516c0 72 10.9971 138.832 32.9971 200.499s52.167 115 90.5 160s84 80.167 137 105.5s110.5 38 172.5 38c42 0 79.333 -6.66699 112 -20s61.334 -31.333 86.001 -54l4 58h260v-728c0 -16 4.5 -29.5 13.5 -40.5s21.167 -16.5 36.5 -16.5h47v-207
c-15.333 -5.33301 -31.666 -9.66602 -48.999 -12.999s-40.666 -5 -69.999 -5c-41.333 0 -77 6.33301 -107 19s-56.333 33.667 -79 63c-37.333 -31.333 -76.333 -54.166 -117 -68.499s-83 -21.5 -127 -21.5c-70 0 -132.5 12.5 -187.5 37.5s-101.5 60.667 -139.5 107
s-66.833 102.166 -86.5 167.499s-29.5 138 -29.5 218zM327.997 509.999c0 -100 15.332 -173.501 45.999 -220.501s79.334 -70.5 146.001 -70.5c62.667 0 109.167 22.833 139.5 68.5s45.5 117.834 45.5 216.501c0 98 -15.167 169.5 -45.5 214.5s-76.833 67.5 -139.5 67.5
c-32.667 0 -61 -6.33301 -85 -19s-44 -31 -60 -55s-27.833 -53 -35.5 -87s-11.5 -72.333 -11.5 -115z" />
    <glyph glyph-name="b" unicode="b" horiz-adv-x="1069" 
d="M1008 514c0 -92 -11.834 -171.167 -35.501 -237.5s-54.5 -121 -92.5 -164s-81.167 -74.833 -129.5 -95.5s-97.166 -31 -146.499 -31c-27.333 0 -52.166 2.5 -74.499 7.5s-42.833 11.333 -61.5 19s-35.334 16.167 -50.001 25.5s-27.667 18.666 -39 27.999l-4 -66h-260
v1384h264v-440c14 10.667 28.167 20.667 42.5 30s30.333 17.333 48 24s37.667 12 60 16s48.5 6 78.5 6c60 0 114.5 -13.333 163.5 -40s91 -63 126 -109s62.167 -99.667 81.5 -161s29 -126.666 29 -195.999zM552.999 219c66.667 0 114.667 23.834 144 71.501
s44 120.167 44 217.5c0 40.667 -3.5 78.167 -10.5 112.5s-18 63.666 -33 87.999s-34.167 43.333 -57.5 57s-51 20.5 -83 20.5c-60.667 0 -107.167 -22.833 -139.5 -68.5s-48.5 -118.167 -48.5 -217.5c0 -96 14.167 -166.833 42.5 -212.5s75.5 -68.5 141.5 -68.5z" />
    <glyph glyph-name="c" unicode="c" horiz-adv-x="1006" 
d="M684 657c-11.333 46.667 -30.4971 79.835 -57.4971 99.502s-60.5 29.5 -100.5 29.5c-64.667 0 -113.834 -22.833 -147.501 -68.5s-50.5 -116.834 -50.5 -213.501c0 -190 69 -285 207 -285c40.667 0 74 9.33301 100 28s45 49.667 57 93h266
c-11.333 -54 -29 -102.833 -53 -146.5s-54 -80.834 -90 -111.501s-77.5 -54.334 -124.5 -71.001s-98.833 -25 -155.5 -25c-72.667 0 -138.334 11.833 -197.001 35.5s-108.5 57.667 -149.5 102s-72.5 98.5 -94.5 162.5s-33 136.667 -33 218c0 80 11 152 33 216
s53.167 118.167 93.5 162.5s89.166 78.333 146.499 102s121.333 35.5 192 35.5c60.667 0 115.5 -9 164.5 -27s91.5 -43 127.5 -75s65.333 -70.167 88 -114.5s38 -93.166 46 -146.499h-268z" />
    <glyph glyph-name="d" unicode="d" horiz-adv-x="1069" 
d="M61 514c0 69.333 9.50195 134.666 28.502 195.999s46 115 81 161s77.167 82.333 126.5 109s104 40 164 40c30 0 56.167 -2 78.5 -6s42.333 -9.33301 60 -16s33.667 -14.667 48 -24s28.5 -19.333 42.5 -30v440h264v-1384h-260l-4 66
c-11.333 -9.33301 -24.333 -18.666 -39 -27.999s-31.334 -17.833 -50.001 -25.5s-39.334 -14 -62.001 -19s-47.334 -7.5 -74.001 -7.5c-49.333 0 -98.166 10.333 -146.499 31s-91.5 52.5 -129.5 95.5s-68.833 97.667 -92.5 164s-35.5 145.5 -35.5 237.5zM516.002 219
c66 0 113.167 22.832 141.5 68.499s42.5 116.5 42.5 212.5c0 99.333 -16.167 171.833 -48.5 217.5s-78.833 68.5 -139.5 68.5c-32 0 -59.667 -6.83301 -83 -20.5s-42.5 -32.667 -57.5 -57s-26 -53.666 -33 -87.999s-10.5 -71.833 -10.5 -112.5
c0 -97.333 14.667 -169.833 44 -217.5s77.333 -71.5 144 -71.5z" />
    <glyph glyph-name="e" unicode="e" horiz-adv-x="1038" 
d="M952 322c-15.333 -51.333 -35.4971 -97.665 -60.4971 -138.998s-55.333 -76.666 -91 -105.999s-76.667 -51.833 -123 -67.5s-98.166 -23.5 -155.499 -23.5c-70.667 0 -134.334 11.667 -191.001 35s-105 57.166 -145 101.499s-70.833 98.666 -92.5 162.999
s-32.5 137.166 -32.5 218.499c0 79.333 10.667 150.833 32 214.5s52 117.834 92 162.501s88.667 79 146 103s121.666 36 192.999 36c72.667 0 137.167 -13.167 193.5 -39.5s103.666 -62.166 141.999 -107.499s67.5 -98.333 87.5 -159s30 -125.334 30 -194.001
c0 -26.667 -1.33301 -51 -4 -73s-4.66699 -35.667 -6 -41h-635c4 -36.667 12 -67 24 -91s26.5 -43.167 43.5 -57.5s36.167 -24.333 57.5 -30s43.666 -8.5 66.999 -8.5c16 0 31.833 1.5 47.5 4.5s30.5 8.5 44.5 16.5s26.833 18.667 38.5 32s21.5 30.666 29.5 51.999z
M522.003 791.001c-54 0 -96.333 -16.332 -127 -48.999s-51 -79.334 -61 -140.001h371c-2 27.333 -7.5 52.5 -16.5 75.5s-21 43 -36 60s-33.5 30.167 -55.5 39.5s-47 14 -75 14z" />
    <glyph glyph-name="f" unicode="f" horiz-adv-x="684" 
d="M651 1163h-107.999c-31.333 0 -53.5 -6.16699 -66.5 -18.5s-19.5 -35.5 -19.5 -69.5v-71h194v-230h-194v-774h-264v774h-156v230h156v53c0 62.667 7 115.667 21 159s34.667 78.5 62 105.5s61.166 46.333 101.499 58s86.5 17.5 138.5 17.5
c28.667 0 54.167 -1.66699 76.5 -5s41.833 -7.33301 58.5 -12v-217z" />
    <glyph glyph-name="g" unicode="g" horiz-adv-x="1069" 
d="M356 -78c4 -14 10.334 -27.165 19.001 -39.498s19.667 -23.333 33 -33s28.666 -17.334 45.999 -23.001s36.666 -8.5 57.999 -8.5c32.667 0 60.334 4.33301 83.001 13s41 23 55 43s24.167 46 30.5 78s9.5 71.333 9.5 118c-21.333 -18.667 -48.666 -35 -81.999 -49
s-75 -21 -125 -21c-67.333 0 -127.166 12.5 -179.499 37.5s-96.5 60.167 -132.5 105.5s-63.333 99.833 -82 163.5s-28 134.167 -28 211.5c0 70 10.167 135.667 30.5 197s49 114.5 86 159.5s81.667 80.5 134 106.5s110.166 39 173.499 39c42 0 80 -7.83301 114 -23.5
s64.333 -35.834 91 -60.501l4 68h260v-916c0 -165.333 -37.5 -288.5 -112.5 -369.5s-184.833 -121.5 -329.5 -121.5c-63.333 0 -119 8.33301 -167 25s-89 39.5 -123 68.5s-61.833 63.333 -83.5 103s-37.834 82.5 -48.501 128.5h266zM328.001 510.002
c0 -97.333 15.168 -168.831 45.501 -214.498s77.833 -68.5 142.5 -68.5c61.333 0 107 22.333 137 67s45 115.334 45 212.001s-14.833 167.167 -44.5 211.5s-75.5 66.5 -137.5 66.5c-32 0 -59.833 -6.33301 -83.5 -19s-43.334 -30.834 -59.001 -54.501
s-27.167 -52.334 -34.5 -86.001s-11 -71.834 -11 -114.501z" />
    <glyph glyph-name="h" unicode="h" horiz-adv-x="1067" 
d="M115 0l-0.000976562 1384h264v-452c35.333 25.333 74 45.666 116 60.999s83 23 123 23c54.667 0 103.5 -9.66699 146.5 -29s79.333 -46.333 109 -81s52.334 -76.334 68.001 -125.001s23.5 -102 23.5 -160v-621h-265v604c0 34 -4.5 62.333 -13.5 85
s-20.5 40.834 -34.5 54.501s-29.5 23.5 -46.5 29.5s-33.833 9 -50.5 9c-28 0 -53 -4.33301 -75 -13s-40.5 -23.334 -55.5 -44.001s-26.333 -48.334 -34 -83.001s-11.5 -78 -11.5 -130v-512h-264z" />
    <glyph glyph-name="i" unicode="i" horiz-adv-x="506" 
d="M385 0h-264v1004h264v-1004zM387 1102h-268v282h268v-282z" />
    <glyph glyph-name="j" unicode="j" horiz-adv-x="508" 
d="M391 1102h-268v282h268v-282zM-55 -162h100c30 0 50.833 6.5 62.5 19.5s17.5 36.5 17.5 70.5v1076h264v-1057c0 -63.333 -7 -116.5 -21 -159.5s-34.833 -78 -62.5 -105s-61.5 -46.333 -101.5 -58s-86 -17.5 -138 -17.5c-29.333 0 -52.833 1.66699 -70.5 5
s-34.5 7 -50.5 11v215z" />
    <glyph glyph-name="k" unicode="k" horiz-adv-x="1034" 
d="M672 596l387 -596h-307l-265 412l-108 -119v-293h-264v1384h264v-766l340 386h305z" />
    <glyph glyph-name="l" unicode="l" horiz-adv-x="537" 
d="M369 287c0 -25.333 7.99902 -43.335 23.999 -54.002s33 -16 51 -16h48v-199c-10.667 -4.66699 -22 -8.66699 -34 -12c-10.667 -3.33301 -23.167 -6.16602 -37.5 -8.49902s-29.5 -3.5 -45.5 -3.5c-34 0 -67.167 3.66699 -99.5 11s-61.166 21.5 -86.499 42.5
s-45.833 50.333 -61.5 88s-23.5 86.834 -23.5 147.501v1101h265v-1097z" />
    <glyph glyph-name="m" unicode="m" horiz-adv-x="1544" 
d="M115 0v1004h260l4 -70c14.667 12 31 23.167 49 33.5s36.167 19 54.5 26s36.333 12.5 54 16.5s33.5 6 47.5 6c55.333 0 105.833 -10 151.5 -30s82.5 -47.667 110.5 -83c36 38 74.167 66.333 114.5 85s88.833 28 145.5 28c60.667 0 112.167 -9.66699 154.5 -29
s77 -46.333 104 -81s46.667 -76 59 -124s18.5 -101 18.5 -159v-623h-264v610c0 61.333 -10.5 105.333 -31.5 132s-49.5 40 -85.5 40c-28 0 -51.333 -5.5 -70 -16.5s-33.834 -28.5 -45.501 -52.5s-20 -54.833 -25 -92.5s-7.5 -82.834 -7.5 -135.501v-485h-262v610
c0 61.333 -10.667 105.333 -32 132s-49.333 40 -84 40c-53.333 0 -92.666 -20.833 -117.999 -62.5s-38 -110.167 -38 -205.5v-514h-264z" />
    <glyph glyph-name="n" unicode="n" horiz-adv-x="1067" 
d="M115 0l-0.000976562 1004h260l4 -70c35.333 25.333 74 45.333 116 60s83 22 123 22c54.667 0 103.5 -9.66699 146.5 -29s79.333 -46.333 109 -81s52.334 -76.334 68.001 -125.001s23.5 -102 23.5 -160v-621h-265v604c0 34.667 -4.66699 63.5 -14 86.5
s-21.166 41.167 -35.499 54.5s-30.166 22.833 -47.499 28.5s-34 8.5 -50 8.5c-28 0 -52.833 -4.33301 -74.5 -13s-39.834 -23.334 -54.501 -44.001s-25.834 -48.334 -33.501 -83.001s-11.5 -78 -11.5 -130v-512h-264z" />
    <glyph glyph-name="o" unicode="o" horiz-adv-x="1036" 
d="M518 -14c-72 0 -136.169 11.833 -192.502 35.5s-104.166 58 -143.499 103s-69.333 100 -90 165s-31 139.167 -31 222.5c0 74 10 142 30 204s49.5 115.5 88.5 160.5s86.833 80.167 143.5 105.5s121.667 38 195 38s138.333 -12.667 195 -38s104.5 -60.5 143.5 -105.5
s68.5 -98.5 88.5 -160.5s30 -130 30 -204c0 -83.333 -10.333 -157.5 -31 -222.5s-50.667 -120 -90 -165s-87.166 -79.333 -143.499 -103s-120.5 -35.5 -192.5 -35.5zM517.998 219c65.333 0 113.501 23 144.501 69s46.5 119.333 46.5 220
c0 43.333 -3.83301 82.166 -11.5 116.499s-19.334 63.5 -35.001 87.5s-35.5 42.333 -59.5 55s-52.333 19 -85 19s-61 -6.33301 -85 -19s-43.667 -31 -59 -55s-26.833 -53.167 -34.5 -87.5s-11.5 -73.166 -11.5 -116.499c0 -100.667 15.333 -174 46 -220s78.667 -69 144 -69z
" />
    <glyph glyph-name="p" unicode="p" horiz-adv-x="1069" 
d="M1008 489c0 -69.333 -9.66602 -134.501 -28.999 -195.501s-46.5 -114.5 -81.5 -160.5s-77 -82.333 -126 -109s-103.5 -40 -163.5 -40c-30 0 -56.167 1.83301 -78.5 5.5s-42.333 8.83398 -60 15.501s-33.667 14.667 -48 24s-28.5 19.333 -42.5 30v-440h-264v1385h264v-66
c11.333 9.33301 24.333 18.666 39 27.999s31.334 17.833 50.001 25.5s39.167 14 61.5 19s47.166 7.5 74.499 7.5c49.333 0 98.166 -10.333 146.499 -31s91.5 -52.667 129.5 -96s68.833 -98.166 92.5 -164.499s35.5 -145.5 35.5 -237.5zM553.001 783.999
c-66 0 -113.167 -22.835 -141.5 -68.502s-42.5 -116.167 -42.5 -211.5c0 -100 16.167 -172.833 48.5 -218.5s78.833 -68.5 139.5 -68.5c32 0 59.667 6.83301 83 20.5s42.5 32.834 57.5 57.501s26 54 33 88s10.5 71.667 10.5 113c0 96.667 -14.667 168.834 -44 216.501
s-77.333 71.5 -144 71.5z" />
    <glyph glyph-name="q" unicode="q" horiz-adv-x="1069" 
d="M61 489c0 92 11.8311 171.168 35.498 237.501s54.5 121.166 92.5 164.499s81.167 75.333 129.5 96s97.166 31 146.499 31c26.667 0 51.334 -2.5 74.001 -7.5s43.334 -11.333 62.001 -19s35.334 -16.167 50.001 -25.5s27.667 -18.666 39 -27.999v66h264v-1385h-264v440
c-14 -10.667 -28.167 -20.667 -42.5 -30s-30.333 -17.333 -48 -24s-37.667 -11.834 -60 -15.501s-48.5 -5.5 -78.5 -5.5c-60 0 -114.667 13.333 -164 40s-91.5 63 -126.5 109s-62 99.5 -81 160.5s-28.5 126.167 -28.5 195.5zM515.998 784.001
c-66.667 0 -114.667 -23.8311 -144 -71.498s-44 -119.834 -44 -216.501c0 -41.333 3.5 -79 10.5 -113s18 -63.333 33 -88s34.167 -43.834 57.5 -57.501s51 -20.5 83 -20.5c60.667 0 107.167 22.833 139.5 68.5s48.5 118.5 48.5 218.5c0 95.333 -14.167 165.833 -42.5 211.5
s-75.5 68.5 -141.5 68.5z" />
    <glyph glyph-name="r" unicode="r" horiz-adv-x="729" 
d="M117 0l-0.000976562 1004h260l4 -103c14 20 30 37.333 48 52s36.5 26.834 55.5 36.501s37.833 16.834 56.5 21.501s36.334 7 53.001 7c22.667 0 41.5 -0.833008 56.5 -2.5s29.5 -5.5 43.5 -11.5v-236h-110c-30 0 -57.5 -5.16699 -82.5 -15.5s-46.5 -27 -64.5 -50
s-31.833 -53 -41.5 -90s-14.5 -82.167 -14.5 -135.5v-477h-264z" />
    <glyph glyph-name="s" unicode="s" horiz-adv-x="963" 
d="M319 324c6.66699 -34 23.332 -61.6699 49.999 -83.0029s64.667 -32 114 -32c24 0 45.667 2.33301 65 7s35.833 11 49.5 19s24 17.333 31 28s10.5 22 10.5 34c0 22.667 -5.5 39.834 -16.5 51.501s-28 21 -51 28s-52.5 13.333 -88.5 19s-79 13.834 -129 24.501
c-36 8 -70 20 -102 36s-60 35.833 -84 59.5s-43 50.834 -57 81.501s-21 64.334 -21 101.001c0 39.333 8 78.166 24 116.499s40.167 72.5 72.5 102.5s73.5 54.333 123.5 73s109 28 177 28c62.667 0 117.667 -8.66699 165 -26s87.333 -40.666 120 -69.999s58 -63.5 76 -102.5
s29 -80.167 33 -123.5h-256c-5.33301 32 -18.666 57.833 -39.999 77.5s-54 29.5 -98 29.5c-40.667 0 -73 -7.83301 -97 -23.5s-36 -35.834 -36 -60.501c0 -20 5.16699 -35 15.5 -45s27.166 -18.333 50.499 -25s53.833 -13.167 91.5 -19.5s84.167 -15.5 139.5 -27.5
c32 -7.33301 63.167 -18.666 93.5 -33.999s57 -35 80 -59s41.5 -52.333 55.5 -85s21 -70.334 21 -113.001c0 -46.667 -9.66699 -89.667 -29 -129s-47.333 -73.333 -84 -102s-81.667 -51.167 -135 -67.5s-114 -24.5 -182 -24.5c-63.333 0 -119.166 9.16699 -167.499 27.5
s-89.5 43 -123.5 74s-61 66.833 -81 107.5s-33.333 83 -40 127h260z" />
    <glyph glyph-name="t" unicode="t" horiz-adv-x="719" 
d="M449 1004l204.001 -0.000976562v-230h-204v-479c0 -12.667 2.33301 -23.667 7 -33s10.5 -17 17.5 -23s14.833 -10.5 23.5 -13.5s17 -4.5 25 -4.5h103v-203c-14.667 -4.66699 -30.334 -8.66699 -47.001 -12c-14.667 -3.33301 -31.167 -6.16602 -49.5 -8.49902
s-37.5 -3.5 -57.5 -3.5c-36 0 -71.167 4.16699 -105.5 12.5s-65 23.5 -92 45.5s-48.667 52.167 -65 90.5s-24.5 87.833 -24.5 148.5v483h-151v230h151v366h265v-366z" />
    <glyph glyph-name="u" unicode="u" horiz-adv-x="1067" 
d="M952 1004l0.000976562 -1004h-260l-4 70c-35.333 -26 -74 -46.167 -116 -60.5s-83 -21.5 -123 -21.5c-54.667 0 -103.5 9.66699 -146.5 29s-79.333 46.333 -109 81s-52.334 76.334 -68.001 125.001s-23.5 102 -23.5 160v621h265v-603c0 -34 4.66699 -62.5 14 -85.5
s21.166 -41.5 35.499 -55.5s30.166 -24 47.499 -30s34 -9 50 -9c28 0 52.833 4.66699 74.5 14s39.834 24.666 54.501 45.999s25.834 49.333 33.501 84s11.5 77.667 11.5 129v510h264z" />
    <glyph glyph-name="v" unicode="v" horiz-adv-x="954" 
d="M598 0h-248l-354 1004h278l203 -642l209 642h272z" />
    <glyph glyph-name="w" unicode="w" horiz-adv-x="1378" 
d="M1083 0h-219l-178 602l-176 -602h-217l-291 1004h272l146 -590l160 590h219l157 -592l150 592h270z" />
    <glyph glyph-name="x" unicode="x" horiz-adv-x="997" 
d="M18 1004h301l179 -273l182 273h299l-336 -484l358 -520h-303l-198 311l-205 -311h-299l358 520z" />
    <glyph glyph-name="y" unicode="y" horiz-adv-x="954" 
d="M537 -180c-11.333 -32 -26.8311 -61 -46.498 -87s-42.5 -48 -68.5 -66s-55 -31.833 -87 -41.5s-66 -14.5 -102 -14.5c-14 0 -32.167 0.5 -54.5 1.5s-44.833 3.16699 -67.5 6.5v223h106c28 0 48.833 5.33301 62.5 16s23.5 22.667 29.5 36
c7.33301 14 14.666 29.5 21.999 46.5s13.666 32.833 18.999 47.5l-176.5 508l-177.5 508h276l205 -650l209 650h272z" />
    <glyph glyph-name="z" unicode="z" horiz-adv-x="911" 
d="M844 811l-447 -578h453v-233h-801v197l461 573h-457v234h791v-193z" />
    <glyph glyph-name="braceleft" unicode="{" horiz-adv-x="614" 
d="M598 1300c-40.667 -1.33301 -74.835 -7.99707 -102.502 -19.9971s-50 -27.667 -67 -47s-29.167 -41.5 -36.5 -66.5s-11 -51.5 -11 -79.5v-315c0 -24.667 -3.16699 -51.667 -9.5 -81s-20.166 -59 -41.499 -89c10 -12.667 18.167 -26.334 24.5 -41.001
s11.5 -29.167 15.5 -43.5s6.83301 -28.5 8.5 -42.5s2.5 -27 2.5 -39v-323c0 -28 3.66699 -54.333 11 -79s19.5 -46.5 36.5 -65.5s39.333 -34.5 67 -46.5s61.834 -18.667 102.501 -20v-209c-79.333 1.33301 -149 13.166 -209 35.499s-110.167 52.166 -150.5 89.499
s-70.666 80.833 -90.999 130.5s-30.5 103.167 -30.5 160.5v329c0 24.667 -7.5 43.5 -22.5 56.5s-40.5 20.167 -76.5 21.5v174c36 1.33301 61.5 8.66602 76.5 21.999s22.5 32.666 22.5 57.999v322c0 58 10.167 111.833 30.5 161.5s50.666 92.834 90.999 129.501
s90.5 65.834 150.5 87.501s129.667 33.167 209 34.5v-205z" />
    <glyph glyph-name="bar" unicode="|" horiz-adv-x="504" 
d="M385 -172h-260v1638h260v-1638z" />
    <glyph glyph-name="braceright" unicode="}" horiz-adv-x="600" 
d="M586 516c-35.333 -1.33301 -60.333 -8.50391 -75 -21.5039s-22 -31.833 -22 -56.5v-329c0 -57.333 -10.167 -110.833 -30.5 -160.5s-50.666 -93.167 -90.999 -130.5s-90.333 -67.166 -150 -89.499s-128.834 -34.166 -207.501 -35.499v209c39.333 1.33301 72.333 8 99 20
s48.167 27.5 64.5 46.5s28 40.833 35 65.5s10.5 51 10.5 79v323c0 12 0.833008 25 2.5 39s4.5 28.167 8.5 42.5s9.5 28.833 16.5 43.5s15.5 28.334 25.5 41.001c-21.333 28.667 -35.5 57.834 -42.5 87.501s-10.5 57.167 -10.5 82.5v315c0 28 -3.5 54.5 -10.5 79.5
s-18.667 47.167 -35 66.5s-37.833 35 -64.5 47s-59.667 18.667 -99 20v205c78.667 -1.33301 147.834 -12.833 207.501 -34.5s109.667 -50.834 150 -87.501s70.666 -79.834 90.999 -129.501s30.5 -103.5 30.5 -161.5v-322c0 -25.333 7.33301 -44.666 22 -57.999
s39.667 -20.666 75 -21.999v-174z" />
    <glyph glyph-name="asciitilde" unicode="~" horiz-adv-x="1047" 
d="M987 715c-3.33301 -41.333 -12.501 -80.667 -27.501 -118s-34.833 -70 -59.5 -98s-53.5 -50.167 -86.5 -66.5s-69.167 -24.5 -108.5 -24.5c-36 0 -71.167 5 -105.5 15s-67.5 20.667 -99.5 32c-25.333 9.33301 -50.666 16.666 -75.999 21.999s-45 8 -59 8
c-6 0 -12.167 -0.833008 -18.5 -2.5s-12.5 -5 -18.5 -10s-11.333 -12.167 -16 -21.5s-8.33398 -21.666 -11.001 -36.999h-231c6 44 17.833 84.5 35.5 121.5s39.5 69 65.5 96s55.333 48 88 63s67 22.5 103 22.5c28 0 56.667 -4.33301 86 -13l97 -30
c26.667 -9.33301 54.334 -17.5 83.001 -24.5s52.667 -10.5 72 -10.5c15.333 0 28.5 6 39.5 18s18.5 31.333 22.5 58h225z" />
    <glyph glyph-name="exclamdown" unicode="&#xa1;" horiz-adv-x="537" 
d="M152 649h231l27 -997h-285zM139 739v299h256v-299h-256z" />
    <glyph glyph-name="cent" unicode="&#xa2;" horiz-adv-x="1096" 
d="M641 1018c54 -4.66699 103.665 -16.835 148.998 -36.502s85.166 -45.167 119.499 -76.5s62.5 -68 84.5 -110s36.667 -88 44 -138h-268c-9.33301 36 -25.666 64 -48.999 84s-50 33 -80 39v-559c32 5.33301 60.333 17.5 85 36.5s42 46.5 52 82.5h266
c-10.667 -51.333 -28 -97.833 -52 -139.5s-53.333 -77.667 -88 -108s-74.167 -54.5 -118.5 -72.5s-92.5 -28.667 -144.5 -32v-160h-156v162c-63.333 6.66699 -121.166 23.334 -173.499 50.001s-97 61.834 -134 105.501s-65.667 95.667 -86 156s-30.5 127.833 -30.5 202.5
c0 74 10.333 141.167 31 201.5s49.834 112.333 87.501 156s82.5 78.667 134.5 105s109 42.833 171 49.5v158h156v-156zM327.998 503.999c0 -78.667 14.167 -140.832 42.5 -186.499s66.5 -75.834 114.5 -90.501v551c-47.333 -12 -85.333 -40.667 -114 -86s-43 -108 -43 -188z
" />
    <glyph glyph-name="sterling" unicode="&#xa3;" horiz-adv-x="1014" 
d="M127 788l-0.000976562 191.004c0 57.333 9.5 111.166 28.5 161.499s46.5 94.166 82.5 131.499s80.333 66.833 133 88.5s112.667 32.5 180 32.5c60.667 0 115.5 -10.667 164.5 -32s91.333 -50.833 127 -88.5s64.167 -81.834 85.5 -132.501s34.333 -105 39 -163h-273
c-6 52 -20.5 94 -43.5 126s-56.167 48 -99.5 48c-51.333 0 -89.166 -16 -113.499 -48s-36.5 -74.667 -36.5 -128v-187h412v-155h-412v-297c0 -14.667 -1.16699 -29.5 -3.5 -44.5s-8.5 -32.167 -18.5 -51.5h573v-238h-921v238c32 2 56 8.66699 72 20s24 29.666 24 54.999v318
h-68v155h68z" />
    <glyph glyph-name="yen" unicode="&#xa5;" horiz-adv-x="1174" 
d="M313 791l-336 589h316l297 -534l293 534h313l-334 -589h217v-156h-305l-41 -72v-78h346v-155h-346v-330h-291v330h-362v155h362v78l-41 72h-321v156h233z" />
    <glyph glyph-name="brokenbar" unicode="&#xa6;" horiz-adv-x="506" 
d="M365 721h-259v745h259v-745zM365 -147h-259v743h259v-743z" />
    <glyph glyph-name="section" unicode="&#xa7;" horiz-adv-x="1112" 
d="M1026 592c0 -58.667 -15.5 -110.996 -46.5 -156.996s-74.833 -83 -131.5 -111c25.333 -29.333 46 -61.666 62 -96.999s24 -74 24 -116c0 -46.667 -9.33301 -89.834 -28 -129.501s-44.834 -73.834 -78.501 -102.501s-74 -51.167 -121 -67.5s-98.833 -24.5 -155.5 -24.5
c-56 0 -107 9 -153 27s-85.333 42.5 -118 73.5s-58 66.667 -76 107s-26.667 83.166 -26 128.499h260c0.666992 -14 3.16699 -27.833 7.5 -41.5s11.166 -26 20.499 -37s21.5 -19.833 36.5 -26.5s33.167 -10 54.5 -10c36 0 63.333 9 82 27s29.667 39.667 33 65
c2 18.667 -1.16699 37.5 -9.5 56.5s-27.833 35.167 -58.5 48.5l-74 33l-66.5 28.5l-64.5 27l-67 28.5c-34 14 -66 29.833 -96 47.5s-56.167 38 -78.5 61s-40.166 49.167 -53.499 78.5s-20 62.333 -20 99c0 62 15.833 118.833 47.5 170.5s79.834 91.834 144.501 120.501
c-24.667 25.333 -43.667 53.5 -57 84.5s-20 65.5 -20 103.5c0 39.333 6.83301 78.166 20.5 116.499s35.334 72.5 65.001 102.5s67.5 54.333 113.5 73s101.667 28 167 28c54 0 103 -8.5 147 -25.5s81.5 -40.167 112.5 -69.5s54.833 -63.5 71.5 -102.5s24.667 -80.5 24 -124.5
h-256c0.666992 14 -1.33301 27.5 -6 40.5s-11.5 24.333 -20.5 34s-20 17.5 -33 23.5s-27.5 9 -43.5 9c-28.667 0 -51.334 -7.83301 -68.001 -23.5s-26.667 -35.834 -30 -60.501c-1.33301 -18.667 3.66699 -36.834 15 -54.501s25.333 -29.5 42 -35.5l275 -113
c30.667 -12 60 -27.333 88 -46s52.5 -41 73.5 -67s37.833 -55.667 50.5 -89s19 -70.333 19 -111zM696 686.004l-53.998 22.001l-48.5 21l-54 23.5l-70.5 29.5c-16.667 -7.33301 -32.5 -15.166 -47.5 -23.499s-28.167 -18.333 -39.5 -30s-20.333 -24.834 -27 -39.501
s-9.66699 -31.334 -9 -50.001c-0.666992 -9.33301 0.5 -18.5 3.5 -27.5s7 -17.5 12 -25.5s10.667 -15.167 17 -21.5s13.166 -10.833 20.499 -13.5l242 -102c18 4.66699 34.167 11.667 48.5 21s26.666 19.833 36.999 31.5s18.5 23.667 24.5 36s9.66699 24.166 11 35.499
c0.666992 9.33301 0.5 19.333 -0.5 30s-4 21.334 -9 32.001s-12 20.5 -21 29.5s-20.833 16.167 -35.5 21.5z" />
    <glyph glyph-name="dieresis" unicode="&#xa8;" horiz-adv-x="899" 
d="M399 1120h-249v264h249v-264zM754 1120h-250v264h250v-264z" />
    <glyph glyph-name="copyright" unicode="&#xa9;" horiz-adv-x="1622" 
d="M1126 616c-5.33301 -44 -15.834 -84.502 -31.501 -121.502s-36.334 -69 -62.001 -96s-56 -48 -91 -63s-73.833 -22.5 -116.5 -22.5c-52 0 -98.667 8.16699 -140 24.5s-76.333 40 -105 71s-50.5 69.167 -65.5 114.5s-22.5 97 -22.5 155c0 59.333 7.5 112.333 22.5 159
s36.833 86.167 65.5 118.5s63.667 57 105 74s88 25.5 140 25.5c42.667 0 81.334 -7.66699 116.001 -23s64.834 -36.166 90.501 -62.499s46.5 -57.666 62.5 -93.999s26.667 -75.5 32 -117.5h-208c-7.33301 32.667 -18.333 57.5 -33 74.5s-36 25.5 -64 25.5
c-36.667 0 -64.167 -13.667 -82.5 -41s-27.5 -73.666 -27.5 -138.999c0 -60.667 9.16699 -103.834 27.5 -129.501s45.833 -38.5 82.5 -38.5c29.333 0 51 8.83301 65 26.5s24.667 43.5 32 77.5zM93.999 677.998c0 98 18.667 189.999 56 275.999s88.5 161.333 153.5 226
s141 115.667 228 153s180.167 56 279.5 56s192.333 -18.667 279 -56s162.167 -88.333 226.5 -153s115 -140 152 -226s55.5 -178 55.5 -276c0 -64 -8.33301 -125.667 -25 -185s-40.5 -115.166 -71.5 -167.499s-68 -100 -111 -143s-91 -79.833 -144 -110.5
s-110 -54.5 -171 -71.5s-124.5 -25.5 -190.5 -25.5c-99.333 0 -192.5 18.667 -279.5 56s-163 88 -228 152s-116.167 138.5 -153.5 223.5s-56 175.5 -56 271.5zM294.999 677.997c0 -72 13.5 -139.667 40.5 -203s63.833 -118.666 110.5 -165.999
s101.334 -84.666 164.001 -111.999s129.667 -41 201 -41c70 0 136.333 13.667 199 41s117.5 64.666 164.5 111.999s84.167 102.666 111.5 165.999s41 131 41 203c0 73.333 -13.667 141.666 -41 204.999s-64.5 118.5 -111.5 165.5s-101.833 84 -164.5 111
s-129 40.5 -199 40.5c-71.333 0 -138.333 -13.5 -201 -40.5s-117.334 -64 -164.001 -111s-83.5 -102.167 -110.5 -165.5s-40.5 -131.666 -40.5 -204.999z" />
    <glyph glyph-name="ordfeminine" unicode="&#xaa;" horiz-adv-x="809" 
d="M61 1047c0 48 7.50293 92.6699 22.5029 134.003s35.833 77.166 62.5 107.499s58.167 54.166 94.5 71.499s76.166 26 119.499 26c26 0 49.667 -3.5 71 -10.5s40 -15.5 56 -25.5c1.33301 3.33301 2 7.33301 2 12v12h197v-487c0 -8.66699 2.5 -15.667 7.5 -21
s10.833 -8 17.5 -8h43v-149c-12.667 -4.66699 -25.834 -8.33398 -39.501 -11.001s-31.167 -4 -52.5 -4c-28 0 -52.5 4.16699 -73.5 12.5s-39.833 20.5 -56.5 36.5c-24.667 -16 -50.834 -29.167 -78.501 -39.5s-55.834 -15.5 -84.501 -15.5
c-49.333 0 -93.166 8.5 -131.499 25.5s-70.5 41.333 -96.5 73s-45.833 69.5 -59.5 113.5s-20.5 93 -20.5 147zM262.003 1042c0 -62.667 9.16699 -109 27.5 -139s48.166 -45 89.499 -45c39.333 0 68.333 14.5 87 43.5s28 74.5 28 136.5s-9.33301 107.333 -28 136
s-47.667 43 -87 43c-41.333 0 -71.166 -15.667 -89.499 -47s-27.5 -74 -27.5 -128z" />
    <glyph glyph-name="guillemotleft" unicode="&#xab;" horiz-adv-x="1288" 
d="M1171 739l-282 -188l141 -95.5l141 -95.5v-251l-524 356v186l524 344v-256zM598 739l-281 -186l281 -193v-251l-522 356v186l522 342v-254z" />
    <glyph glyph-name="logicalnot" unicode="&#xac;" horiz-adv-x="1151" 
d="M807 442h-733v236h999v-531h-266v295z" />
    <glyph glyph-name="registered" unicode="&#xae;" horiz-adv-x="1622" 
d="M94 678c0 98 18.667 189.999 56 275.999s88.5 161.333 153.5 226s141 115.667 228 153s180.167 56 279.5 56s192.333 -18.667 279 -56s162.167 -88.333 226.5 -153s115 -140 152 -226s55.5 -178 55.5 -276c0 -64 -8.33301 -125.667 -25 -185
s-40.5 -115.166 -71.5 -167.499s-68 -100 -111 -143s-91 -79.833 -144 -110.5s-110 -54.5 -171 -71.5s-124.5 -25.5 -190.5 -25.5c-99.333 0 -192.5 18.667 -279.5 56s-163 88 -228 152s-116.167 138.5 -153.5 223.5s-56 175.5 -56 271.5zM295 677.999
c0 -72 13.5 -139.667 40.5 -203s63.833 -118.666 110.5 -165.999s101.334 -84.666 164.001 -111.999s129.667 -41 201 -41c70 0 136.333 13.667 199 41s117.5 64.666 164.5 111.999s84.167 102.666 111.5 165.999s41 131 41 203c0 73.333 -13.667 141.666 -41 204.999
s-64.5 118.5 -111.5 165.5s-101.833 84 -164.5 111s-129 40.5 -199 40.5c-71.333 0 -138.333 -13.5 -201 -40.5s-117.334 -64 -164.001 -111s-83.5 -102.167 -110.5 -165.5s-40.5 -131.666 -40.5 -204.999zM854 1026c42.667 0 80 -7.49805 112 -22.498
s58.667 -34.167 80 -57.5s37.333 -49.333 48 -78s16 -56.667 16 -84c0 -32.667 -8.66699 -65.834 -26 -99.501s-44 -61.834 -80 -84.501l4 2l110 -256h-223l-82 217h-53v-217h-207v680h301zM756 846.001l0.000976562 -138.999h86c21.333 0 37.5 7.16699 48.5 21.5
s16.5 30.166 16.5 47.499c0 8 -1.33301 16 -4 24s-6.83398 15.5 -12.501 22.5s-12.5 12.667 -20.5 17s-17.333 6.5 -28 6.5h-86z" />
    <glyph glyph-name="macron" unicode="&#xaf;" horiz-adv-x="815" 
d="M94 1356h635v-193h-635v193z" />
    <glyph glyph-name="degree" unicode="&#xb0;" horiz-adv-x="762" 
d="M276 1126c0 -16 3.16699 -30.833 9.5 -44.5s14.666 -25.334 24.999 -35.001s22.333 -17.167 36 -22.5s27.834 -8 42.501 -8c14 0 27.667 2.66699 41 8s25.333 12.833 36 22.5s19.334 21.334 26.001 35.001s10 28.5 10 44.5c0 15.333 -3.33301 29.666 -10 42.999
s-15.334 24.833 -26.001 34.5s-22.667 17.334 -36 23.001s-27 8.5 -41 8.5c-14.667 0 -28.834 -2.83301 -42.501 -8.5s-25.667 -13.334 -36 -23.001s-18.666 -21.167 -24.999 -34.5s-9.5 -27.666 -9.5 -42.999zM98 1126c0 38.667 7.5 75.334 22.5 110.001s35.5 65 61.5 91
s56.667 46.5 92 61.5s73.666 22.5 114.999 22.5s79.833 -7.5 115.5 -22.5s66.667 -35.5 93 -61.5s47 -56.333 62 -91s22.5 -71.334 22.5 -110.001c0 -39.333 -7.5 -76.333 -22.5 -111s-35.667 -65 -62 -91s-57.333 -46.5 -93 -61.5s-74.167 -22.5 -115.5 -22.5
s-79.666 7.5 -114.999 22.5s-66 35.5 -92 61.5s-46.5 56.333 -61.5 91s-22.5 71.667 -22.5 111z" />
    <glyph glyph-name="plusminus" unicode="&#xb1;" horiz-adv-x="1149" 
d="M92 231h957v-231h-957v231zM446 348v281h-368v235h368v279h261v-279h366v-235h-366v-281h-261z" />
    <glyph glyph-name="two.superior" unicode="&#xb2;" horiz-adv-x="692" 
d="M606 840h-526.003v159l104 84l44 37l44.5 38c14.333 12.667 27.833 25.167 40.5 37.5s23.667 23.5 33 33.5c45.333 45.333 68 90.333 68 135c0 23.333 -6.5 42.833 -19.5 58.5s-31.167 23.5 -54.5 23.5s-43.333 -7.83301 -60 -23.5s-26.667 -39.834 -30 -72.501h-187
c4 38 13 73.167 27 105.5s32.5 60.333 55.5 84s50.833 42.334 83.5 56.001s69.667 20.5 111 20.5c42.667 0 80.334 -6.83301 113.001 -20.5s59.834 -32 81.501 -55s38 -49.5 49 -79.5s16.5 -61.667 16.5 -95c0 -25.333 -3.66699 -49 -11 -71s-17.166 -43 -29.499 -63
s-27 -39 -44 -57s-35.167 -35.667 -54.5 -53c-10 -8.66699 -21.833 -18.167 -35.5 -28.5l-41.5 -31l-40.5 -29c-13 -9 -23.833 -16.833 -32.5 -23.5h295v-170z" />
    <glyph glyph-name="three.superior" unicode="&#xb3;" horiz-adv-x="725" 
d="M621 1386c0 -16.667 -2.33496 -32.335 -7.00195 -47.002s-10.667 -28.167 -18 -40.5s-15.666 -23.333 -24.999 -33s-18.666 -17.834 -27.999 -24.501c12.667 -7.33301 25 -16.5 37 -27.5s22.667 -23.667 32 -38s16.833 -30 22.5 -47s8.5 -34.833 8.5 -53.5
c0 -39.333 -8 -74.5 -24 -105.5s-37.333 -57.167 -64 -78.5s-57.834 -37.666 -93.501 -48.999s-72.834 -17 -111.501 -17c-36 0 -70 5.33301 -102 16s-60.5 26.334 -85.5 47.001s-46 46.334 -63 77.001s-29.167 66 -36.5 106h187c6 -27.333 18.833 -46.833 38.5 -58.5
s40.834 -17.5 63.501 -17.5c30 0 55 6.33301 75 19s30 33 30 61c0 23.333 -8.66699 42.833 -26 58.5s-41 23.5 -71 23.5h-69v146h61c25.333 0 45 7.33301 59 22s21 31.667 21 51c0 11.333 -2.33301 21.333 -7 30s-11 16 -19 22s-17 10.5 -27 13.5s-20.333 4.5 -31 4.5
c-18.667 0 -36.667 -6.33301 -54 -19s-28.666 -30.334 -33.999 -53.001h-188c4.66699 38.667 15.667 73 33 103s38.666 55.333 63.999 76s53.5 36.334 84.5 47.001s62.5 16 94.5 16c38.667 0 74.667 -5.5 108 -16.5s62.333 -26.5 87 -46.5s43.834 -44.167 57.501 -72.5
s20.5 -59.833 20.5 -94.5z" />
    <glyph glyph-name="acute" unicode="&#xb4;" horiz-adv-x="719" 
d="M176 1112l215 313h295l-248 -313h-262z" />
    <glyph glyph-name="mu" unicode="&#xb5;" horiz-adv-x="1085" 
d="M971 1004v-1004h-264v68c-55.333 -53.333 -111.333 -80 -168 -80c-25.333 0 -52 6 -80 18s-55.333 32 -82 60v-439h-264v1377h264v-521c0 -47.333 3.66699 -88 11 -122s17.833 -61.833 31.5 -83.5s30.5 -37.5 50.5 -47.5s43 -15 69 -15c54 0 95.5 20.667 124.5 62
s43.5 110 43.5 206v521h264z" />
    <glyph glyph-name="mu" unicode="&#x3bc;" horiz-adv-x="1085" 
d="M971 1004v-1004h-264v68c-55.333 -53.333 -111.333 -80 -168 -80c-25.333 0 -52 6 -80 18s-55.333 32 -82 60v-439h-264v1377h264v-521c0 -47.333 3.66699 -88 11 -122s17.833 -61.833 31.5 -83.5s30.5 -37.5 50.5 -47.5s43 -15 69 -15c54 0 95.5 20.667 124.5 62
s43.5 110 43.5 206v521h264z" />
    <glyph glyph-name="paragraph" unicode="&#xb6;" horiz-adv-x="1409" 
d="M1104 1137l0.000976562 -1137h-283v1137h-137v-1137h-283v582h-2c-50 6.66699 -96.5 21.834 -139.5 45.501s-80.5 53.334 -112.5 89.001s-57 75.834 -75 120.501s-27 92 -27 142c0 56 11 108.667 33 158s51.833 92.333 89.5 129s81.667 65.5 132 86.5
s104.166 31.5 161.499 31.5h872v-247h-229z" />
    <glyph glyph-name="periodcentered" unicode="&#xb7;" horiz-adv-x="586" 
d="M412 770v-313h-238v313h238z" />
    <glyph glyph-name="cedilla" unicode="&#xb8;" horiz-adv-x="512" 
d="M213 -94h211.001v-121c0 -41.333 -4.5 -78.5 -13.5 -111.5s-23.5 -61.333 -43.5 -85s-45.667 -41.834 -77 -54.501s-69.333 -19 -114 -19c-9.33301 0 -17.333 0.166992 -24 0.5s-12.334 0.833008 -17.001 1.5c-5.33301 0.666992 -10 1.33398 -14 2.00098v153h22
c22.667 0 40 6.66699 52 20s18 39 18 77v137z" />
    <glyph glyph-name="one.superior" unicode="&#xb9;" horiz-adv-x="565" 
d="M414 1604v-764h-183v557l-133 -70v184l183 93h133z" />
    <glyph glyph-name="ordmasculine" unicode="&#xba;" horiz-adv-x="762" 
d="M381 688c-50 0 -94.833 8 -134.5 24s-73.334 39.167 -101.001 69.5s-48.667 67.666 -63 111.999s-21.5 94.5 -21.5 150.5c0 49.333 7 94.833 21 136.5s34.667 77.834 62 108.501s60.833 54.5 100.5 71.5s85.167 25.5 136.5 25.5s96.833 -8.5 136.5 -25.5
s73 -40.833 100 -71.5s47.5 -66.834 61.5 -108.501s21 -87.167 21 -136.5c0 -56 -7.16699 -106.167 -21.5 -150.5s-35.166 -81.666 -62.499 -111.999s-60.833 -53.5 -100.5 -69.5s-84.5 -24 -134.5 -24zM381 858c41.333 0 71.5 14.667 90.5 44s28.5 75.333 28.5 138
c0 54.667 -9.5 97.834 -28.5 129.501s-49.167 47.5 -90.5 47.5s-71.5 -15.833 -90.5 -47.5s-28.5 -74.834 -28.5 -129.501c0 -62.667 9.5 -108.667 28.5 -138s49.167 -44 90.5 -44z" />
    <glyph glyph-name="guillemotright" unicode="&#xbb;" horiz-adv-x="1288" 
d="M117 995l524 -344v-186l-524 -356v251l282 191l-282 188v256zM690 993l524 -342v-186l-524 -356v251l283 193l-283 186v254z" />
    <glyph glyph-name="onequarter" unicode="&#xbc;" horiz-adv-x="1591" 
d="M540 0h-209l643 1380h205zM414 1381v-764h-183v557l-133 -70v184l183 93h133zM1427 764v-457h97v-162h-97v-145h-180v145h-338v141l334 478h184zM1247 551l-172 -244h172v244z" />
    <glyph glyph-name="onehalf" unicode="&#xbd;" horiz-adv-x="1702" 
d="M540 0h-209l643 1380h205zM414 1381v-764h-183v557l-133 -70v184l183 93h133zM1571 0h-526.003v159l104 84l44 37l44.5 38c14.333 12.667 27.833 25.167 40.5 37.5s23.667 23.5 33 33.5c45.333 45.333 68 90.333 68 135c0 23.333 -6.5 42.833 -19.5 58.5
s-31.167 23.5 -54.5 23.5s-43.333 -7.83301 -60 -23.5s-26.667 -39.834 -30 -72.501h-187c4 38 13 73.167 27 105.5s32.5 60.333 55.5 84s50.833 42.334 83.5 56.001s69.667 20.5 111 20.5c42.667 0 80.334 -6.83301 113.001 -20.5s59.834 -32 81.501 -55s38 -49.5 49 -79.5
s16.5 -61.667 16.5 -95c0 -25.333 -3.66699 -49 -11 -71s-17.166 -43 -29.499 -63s-27 -39 -44 -57s-35.167 -35.667 -54.5 -53c-10 -8.66699 -21.833 -18.167 -35.5 -28.5l-41.5 -31l-40.5 -29c-13 -9 -23.833 -16.833 -32.5 -23.5h295v-170z" />
    <glyph glyph-name="threequarters" unicode="&#xbe;" horiz-adv-x="1739" 
d="M688 0h-209l643 1380h205zM1574 762v-457h97v-162h-97v-145h-180v145h-338v141l334 478h184zM1394 549l-172 -244h172v244zM641 1167c0 -16.667 -2.33496 -32.335 -7.00195 -47.002s-10.667 -28.167 -18 -40.5s-15.666 -23.333 -24.999 -33
s-18.666 -17.834 -27.999 -24.501c12.667 -7.33301 25 -16.5 37 -27.5s22.667 -23.667 32 -38s16.833 -30 22.5 -47s8.5 -34.833 8.5 -53.5c0 -39.333 -8 -74.5 -24 -105.5s-37.333 -57.167 -64 -78.5s-57.834 -37.666 -93.501 -48.999s-72.834 -17 -111.501 -17
c-36 0 -70 5.33301 -102 16s-60.5 26.334 -85.5 47.001s-46 46.334 -63 77.001s-29.167 66 -36.5 106h187c6 -27.333 18.833 -46.833 38.5 -58.5s40.834 -17.5 63.501 -17.5c30 0 55 6.33301 75 19s30 33 30 61c0 23.333 -8.66699 42.833 -26 58.5s-41 23.5 -71 23.5h-69
v146h61c25.333 0 45 7.33301 59 22s21 31.667 21 51c0 11.333 -2.33301 21.333 -7 30s-11 16 -19 22s-17 10.5 -27 13.5s-20.333 4.5 -31 4.5c-18.667 0 -36.667 -6.33301 -54 -19s-28.666 -30.334 -33.999 -53.001h-188c4.66699 38.667 15.667 73 33 103
s38.666 55.333 63.999 76s53.5 36.334 84.5 47.001s62.5 16 94.5 16c38.667 0 74.667 -5.5 108 -16.5s62.333 -26.5 87 -46.5s43.834 -44.167 57.501 -72.5s20.5 -59.833 20.5 -94.5z" />
    <glyph glyph-name="questiondown" unicode="&#xbf;" horiz-adv-x="932" 
d="M870 31c-4.66699 -58.667 -17.667 -113.167 -39 -163.5s-50 -94 -86 -131s-78.833 -66.167 -128.5 -87.5s-105.5 -32 -167.5 -32c-64.667 0 -122.667 10.333 -174 31s-94.666 48.834 -129.999 84.501s-62.5 77 -81.5 124s-28.5 96.833 -28.5 149.5
c0 40.667 6.66699 79.5 20 116.5s30.333 72.333 51 106s43.667 65.5 69 95.5l75 86l41.5 46c13 14.667 24.5 29 34.5 43s17.833 27.5 23.5 40.5s8.5 25.833 8.5 38.5v49h252v-64c0 -47.333 -11.667 -94.333 -35 -141s-58.666 -96 -105.999 -148
c-20 -21.333 -39.333 -43 -58 -65s-35.334 -44.5 -50.001 -67.5s-26.334 -46.5 -35.001 -70.5s-13 -48.333 -13 -73c0 -18.667 3 -36.5 9 -53.5s15 -32 27 -45s26.833 -23.333 44.5 -31s38.167 -11.5 61.5 -11.5c42.667 0 76.167 16.167 100.5 48.5
s38.5 74.166 42.5 125.499h272zM356 723v299h256v-299h-256z" />
    <glyph glyph-name="Agrave" unicode="&#xc0;" horiz-adv-x="1264" 
d="M877 309h-490l-111 -309h-301l527 1380h262l524 -1380h-299zM479 569h303l-151 418zM522 1509l-248 315h293l219 -315h-264z" />
    <glyph glyph-name="Aacute" unicode="&#xc1;" horiz-adv-x="1264" 
d="M877 309h-490l-111 -309h-301l527 1380h262l524 -1380h-299zM479 569h303l-151 418zM493 1511l215 313h295l-248 -313h-262z" />
    <glyph glyph-name="Acircumflex" unicode="&#xc2;" horiz-adv-x="1264" 
d="M877 309h-490l-111 -309h-301l527 1380h262l524 -1380h-299zM479 569h303l-151 418zM287 1514l213 313h272l213 -313h-260l-90 131l-90 -131h-258z" />
    <glyph glyph-name="Atilde" unicode="&#xc3;" horiz-adv-x="1264" 
d="M877 309h-490l-111 -309h-301l527 1380h262l524 -1380h-299zM479 569h303l-151 418zM984 1785c-3.33301 -38 -10.832 -73.502 -22.499 -106.502s-26.834 -61.667 -45.501 -86s-40.667 -43.666 -66 -57.999s-53.333 -21.5 -84 -21.5c-32 0 -63.167 6 -93.5 18
s-57.166 23.667 -80.499 35c-13.333 6.66699 -24.833 12.167 -34.5 16.5s-21.167 6.5 -34.5 6.5c-14.667 0 -24.834 -6.33301 -30.501 -19s-10.5 -29.667 -14.5 -51h-193c4.66699 37.333 12.834 72.333 24.501 105s27.167 61 46.5 85s42.666 43 69.999 57
s59.666 21 96.999 21c22.667 0 44.5 -4 65.5 -12s44.167 -18.333 69.5 -31c23.333 -11.333 41.333 -19.166 54 -23.499s25.334 -6.5 38.001 -6.5s22.5 7.5 29.5 22.5s12.167 31.167 15.5 48.5h189z" />
    <glyph glyph-name="Adieresis" unicode="&#xc4;" horiz-adv-x="1264" 
d="M877 309h-490l-111 -309h-301l527 1380h262l524 -1380h-299zM479 569h303l-151 418zM579 1530h-249v264h249v-264zM934 1530h-250v264h250v-264z" />
    <glyph glyph-name="Aring" unicode="&#xc5;" horiz-adv-x="1264" 
d="M877 309h-490l-111 -309h-301l527 1380h262l524 -1380h-299zM479 569h303l-151 418zM545 1683c0 -25.333 8.66504 -45.666 25.998 -60.999s37.333 -23 60 -23s42.667 7.66699 60 23s26 35.666 26 60.999c0 11.333 -2.33301 22 -7 32s-11 18.667 -19 26
s-17.167 13.166 -27.5 17.499s-21.166 6.5 -32.499 6.5s-22.166 -2.16699 -32.499 -6.5s-19.5 -10.166 -27.5 -17.499s-14.333 -16 -19 -26s-7 -20.667 -7 -32zM411.998 1683c0 29.333 5.66699 56.833 17 82.5s26.833 48.167 46.5 67.5s42.834 34.666 69.501 45.999
s55.334 17 86.001 17c31.333 0 60.5 -5.66699 87.5 -17s50.333 -26.666 70 -45.999s35.167 -41.833 46.5 -67.5s17 -53.167 17 -82.5c0 -30 -5.66699 -58.167 -17 -84.5s-26.833 -49.333 -46.5 -69s-43 -35.167 -70 -46.5s-56.167 -17 -87.5 -17
c-30.667 0 -59.334 5.66699 -86.001 17s-49.834 26.833 -69.501 46.5s-35.167 42.667 -46.5 69s-17 54.5 -17 84.5z" />
    <glyph glyph-name="AE" unicode="&#xc6;" horiz-adv-x="1671" 
d="M1581 1116h-600v-282h492v-265h-492v-305h600v-264h-889v346h-301l-129 -346h-301l526 1380h1094v-264zM692 1133l-211 -539h211v539z" />
    <glyph glyph-name="Ccedilla" unicode="&#xc7;" horiz-adv-x="1311" 
d="M1262 463c-12 -68.667 -32.335 -132.67 -61.002 -192.003s-66.167 -111 -112.5 -155s-102.166 -78.5 -167.499 -103.5s-140.333 -37.5 -225 -37.5c-99.333 0 -187.666 16.833 -264.999 50.5s-142.666 81.834 -195.999 144.501s-93.833 138 -121.5 226
s-41.5 186.667 -41.5 296c0 108.667 13.667 207 41 295s67.333 163 120 225s117 109.667 193 143s162.667 50 260 50c82 0 155.167 -12 219.5 -36s119.666 -57.167 165.999 -99.5s83.833 -92.333 112.5 -150s48.334 -120.167 59.001 -187.5h-295
c-13.333 70 -42.333 123.333 -87 160s-102.334 55 -173.001 55c-104 0 -184.333 -38.5 -241 -115.5s-85 -190.167 -85 -339.5c0 -75.333 7.66699 -141.666 23 -198.999s37.5 -105.166 66.5 -143.499s64 -67.333 105 -87s87.5 -29.5 139.5 -29.5c72.667 0 132 19 178 57
s76.333 95.667 91 173h297zM587.998 -94.0029h211.001v-121c0 -41.333 -4.5 -78.5 -13.5 -111.5s-23.5 -61.333 -43.5 -85s-45.667 -41.834 -77 -54.501s-69.333 -19 -114 -19c-9.33301 0 -17.333 0.166992 -24 0.5s-12.334 0.833008 -17.001 1.5
c-5.33301 0.666992 -10 1.33398 -14 2.00098v153h22c22.667 0 40 6.66699 52 20s18 39 18 77v137z" />
    <glyph glyph-name="Egrave" unicode="&#xc8;" horiz-adv-x="1204" 
d="M1114 1116h-696v-285h588v-264h-588v-303h696v-264h-985v1380h985v-264zM535 1509l-248 315h293l219 -315h-264z" />
    <glyph glyph-name="Eacute" unicode="&#xc9;" horiz-adv-x="1204" 
d="M1114 1116h-696v-285h588v-264h-588v-303h696v-264h-985v1380h985v-264zM344 1522l215 313h295l-248 -313h-262z" />
    <glyph glyph-name="Ecircumflex" unicode="&#xca;" horiz-adv-x="1204" 
d="M1114 1116h-696v-285h588v-264h-588v-303h696v-264h-985v1380h985v-264zM266 1514l213 313h272l213 -313h-260l-90 131l-90 -131h-258z" />
    <glyph glyph-name="Edieresis" unicode="&#xcb;" horiz-adv-x="1204" 
d="M1114 1116h-696v-285h588v-264h-588v-303h696v-264h-985v1380h985v-264zM559 1530h-249v264h249v-264zM914 1530h-250v264h250v-264z" />
    <glyph glyph-name="Igrave" unicode="&#xcc;" horiz-adv-x="551" 
d="M420 0h-289v1380h289v-1380zM160 1509l-248 315h293l219 -315h-264z" />
    <glyph glyph-name="Iacute" unicode="&#xcd;" horiz-adv-x="551" 
d="M420 0h-289v1380h289v-1380zM135 1511l215 313h295l-248 -313h-262z" />
    <glyph glyph-name="Icircumflex" unicode="&#xce;" horiz-adv-x="551" 
d="M420 0h-289v1380h289v-1380zM-72 1514l213 313h272l213 -313h-260l-90 131l-90 -131h-258z" />
    <glyph glyph-name="Idieresis" unicode="&#xcf;" horiz-adv-x="551" 
d="M420 0h-289v1380h289v-1380zM223 1530h-249v264h249v-264zM578 1530h-250v264h250v-264z" />
    <glyph glyph-name="Eth" unicode="&#xd0;" horiz-adv-x="1395" 
d="M715 1380c100 0 188 -16.999 264 -50.999s139.5 -81 190.5 -141s89.333 -130.667 115 -212s38.5 -169 38.5 -263c0 -108.667 -12.833 -206.834 -38.5 -294.501s-64 -162.5 -115 -224.5s-114.5 -109.833 -190.5 -143.5s-164 -50.5 -264 -50.5h-533v592h-151v225h151v563
h533zM471 1122v-305h256v-225h-256v-334h244c211.333 0 317 150.333 317 451c0 63.333 -6.66699 120.5 -20 171.5s-33.166 94.333 -59.499 130s-59.333 63.167 -99 82.5s-85.834 29 -138.501 29h-244z" />
    <glyph glyph-name="Ntilde" unicode="&#xd1;" horiz-adv-x="1327" 
d="M1198 0h-278l-502 844v-844h-289v1380h277l503 -845v845h289v-1380zM1004 1787c-3.33301 -38 -10.832 -73.502 -22.499 -106.502s-26.834 -61.667 -45.501 -86s-40.667 -43.666 -66 -57.999s-53.333 -21.5 -84 -21.5c-32 0 -63.167 6 -93.5 18s-57.166 23.667 -80.499 35
c-13.333 6.66699 -24.833 12.167 -34.5 16.5s-21.167 6.5 -34.5 6.5c-14.667 0 -24.834 -6.33301 -30.501 -19s-10.5 -29.667 -14.5 -51h-193c4.66699 37.333 12.834 72.333 24.501 105s27.167 61 46.5 85s42.666 43 69.999 57s59.666 21 96.999 21
c22.667 0 44.5 -4 65.5 -12s44.167 -18.333 69.5 -31c23.333 -11.333 41.333 -19.166 54 -23.499s25.334 -6.5 38.001 -6.5s22.5 7.5 29.5 22.5s12.167 31.167 15.5 48.5h189z" />
    <glyph glyph-name="Ograve" unicode="&#xd2;" horiz-adv-x="1352" 
d="M676 1405c102 0 190.833 -18.668 266.5 -56.001s138.5 -88 188.5 -152s87.333 -138.167 112 -222.5s37 -173.5 37 -267.5c0 -108.667 -12.833 -208 -38.5 -298s-63.834 -167.167 -114.501 -231.5s-114 -114.166 -190 -149.499s-164.333 -53 -265 -53
c-98 0 -184.5 17.333 -259.5 52s-137.667 83.667 -188 147s-88.333 139.5 -114 228.5s-38.5 188.167 -38.5 297.5c0 107.333 13.667 204.5 41 291.5s67 161.167 119 222.5s115.333 108.5 190 141.5s159.334 49.5 254.001 49.5zM676 1147
c-100 0 -177.334 -37.666 -232.001 -112.999s-82 -186.666 -82 -333.999c0 -153.333 25.833 -269.5 77.5 -348.5s129.167 -118.5 232.5 -118.5c106.667 0 186.167 40 238.5 120s78.5 196.333 78.5 349c0 65.333 -6.16699 125.166 -18.5 179.499
s-31.166 101.166 -56.499 140.499s-57.833 70 -97.5 92s-86.5 33 -140.5 33zM609.999 1509l-248 315h293l219 -315h-264z" />
    <glyph glyph-name="Oacute" unicode="&#xd3;" horiz-adv-x="1352" 
d="M676 1405c102 0 190.833 -18.668 266.5 -56.001s138.5 -88 188.5 -152s87.333 -138.167 112 -222.5s37 -173.5 37 -267.5c0 -108.667 -12.833 -208 -38.5 -298s-63.834 -167.167 -114.501 -231.5s-114 -114.166 -190 -149.499s-164.333 -53 -265 -53
c-98 0 -184.5 17.333 -259.5 52s-137.667 83.667 -188 147s-88.333 139.5 -114 228.5s-38.5 188.167 -38.5 297.5c0 107.333 13.667 204.5 41 291.5s67 161.167 119 222.5s115.333 108.5 190 141.5s159.334 49.5 254.001 49.5zM676 1147
c-100 0 -177.334 -37.666 -232.001 -112.999s-82 -186.666 -82 -333.999c0 -153.333 25.833 -269.5 77.5 -348.5s129.167 -118.5 232.5 -118.5c106.667 0 186.167 40 238.5 120s78.5 196.333 78.5 349c0 65.333 -6.16699 125.166 -18.5 179.499
s-31.166 101.166 -56.499 140.499s-57.833 70 -97.5 92s-86.5 33 -140.5 33zM470.999 1511l215 313h295l-248 -313h-262z" />
    <glyph glyph-name="Ocircumflex" unicode="&#xd4;" horiz-adv-x="1352" 
d="M676 1405c102 0 190.833 -18.668 266.5 -56.001s138.5 -88 188.5 -152s87.333 -138.167 112 -222.5s37 -173.5 37 -267.5c0 -108.667 -12.833 -208 -38.5 -298s-63.834 -167.167 -114.501 -231.5s-114 -114.166 -190 -149.499s-164.333 -53 -265 -53
c-98 0 -184.5 17.333 -259.5 52s-137.667 83.667 -188 147s-88.333 139.5 -114 228.5s-38.5 188.167 -38.5 297.5c0 107.333 13.667 204.5 41 291.5s67 161.167 119 222.5s115.333 108.5 190 141.5s159.334 49.5 254.001 49.5zM676 1147
c-100 0 -177.334 -37.666 -232.001 -112.999s-82 -186.666 -82 -333.999c0 -153.333 25.833 -269.5 77.5 -348.5s129.167 -118.5 232.5 -118.5c106.667 0 186.167 40 238.5 120s78.5 196.333 78.5 349c0 65.333 -6.16699 125.166 -18.5 179.499
s-31.166 101.166 -56.499 140.499s-57.833 70 -97.5 92s-86.5 33 -140.5 33zM327.999 1514l213 313h272l213 -313h-260l-90 131l-90 -131h-258z" />
    <glyph glyph-name="Otilde" unicode="&#xd5;" horiz-adv-x="1352" 
d="M676 1405c102 0 190.833 -18.668 266.5 -56.001s138.5 -88 188.5 -152s87.333 -138.167 112 -222.5s37 -173.5 37 -267.5c0 -108.667 -12.833 -208 -38.5 -298s-63.834 -167.167 -114.501 -231.5s-114 -114.166 -190 -149.499s-164.333 -53 -265 -53
c-98 0 -184.5 17.333 -259.5 52s-137.667 83.667 -188 147s-88.333 139.5 -114 228.5s-38.5 188.167 -38.5 297.5c0 107.333 13.667 204.5 41 291.5s67 161.167 119 222.5s115.333 108.5 190 141.5s159.334 49.5 254.001 49.5zM676 1147
c-100 0 -177.334 -37.666 -232.001 -112.999s-82 -186.666 -82 -333.999c0 -153.333 25.833 -269.5 77.5 -348.5s129.167 -118.5 232.5 -118.5c106.667 0 186.167 40 238.5 120s78.5 196.333 78.5 349c0 65.333 -6.16699 125.166 -18.5 179.499
s-31.166 101.166 -56.499 140.499s-57.833 70 -97.5 92s-86.5 33 -140.5 33zM1022 1787c-3.33301 -38 -10.832 -73.502 -22.499 -106.502s-26.834 -61.667 -45.501 -86s-40.667 -43.666 -66 -57.999s-53.333 -21.5 -84 -21.5c-32 0 -63.167 6 -93.5 18
s-57.166 23.667 -80.499 35c-13.333 6.66699 -24.833 12.167 -34.5 16.5s-21.167 6.5 -34.5 6.5c-14.667 0 -24.834 -6.33301 -30.501 -19s-10.5 -29.667 -14.5 -51h-193c4.66699 37.333 12.834 72.333 24.501 105s27.167 61 46.5 85s42.666 43 69.999 57
s59.666 21 96.999 21c22.667 0 44.5 -4 65.5 -12s44.167 -18.333 69.5 -31c23.333 -11.333 41.333 -19.166 54 -23.499s25.334 -6.5 38.001 -6.5s22.5 7.5 29.5 22.5s12.167 31.167 15.5 48.5h189z" />
    <glyph glyph-name="Odieresis" unicode="&#xd6;" horiz-adv-x="1352" 
d="M676 1405c102 0 190.833 -18.668 266.5 -56.001s138.5 -88 188.5 -152s87.333 -138.167 112 -222.5s37 -173.5 37 -267.5c0 -108.667 -12.833 -208 -38.5 -298s-63.834 -167.167 -114.501 -231.5s-114 -114.166 -190 -149.499s-164.333 -53 -265 -53
c-98 0 -184.5 17.333 -259.5 52s-137.667 83.667 -188 147s-88.333 139.5 -114 228.5s-38.5 188.167 -38.5 297.5c0 107.333 13.667 204.5 41 291.5s67 161.167 119 222.5s115.333 108.5 190 141.5s159.334 49.5 254.001 49.5zM676 1147
c-100 0 -177.334 -37.666 -232.001 -112.999s-82 -186.666 -82 -333.999c0 -153.333 25.833 -269.5 77.5 -348.5s129.167 -118.5 232.5 -118.5c106.667 0 186.167 40 238.5 120s78.5 196.333 78.5 349c0 65.333 -6.16699 125.166 -18.5 179.499
s-31.166 101.166 -56.499 140.499s-57.833 70 -97.5 92s-86.5 33 -140.5 33zM627.999 1530h-249v264h249v-264zM982.999 1530h-250v264h250v-264z" />
    <glyph glyph-name="multiply" unicode="&#xd7;" 
d="M866 43l-311.001 310.999l-317 -315c-25.333 22.667 -53.166 49.834 -83.499 81.501l-88.5 90.5l311 317l-309 318l170 176l317 -317l315 315l172 -172l-315 -318l317 -319z" />
    <glyph glyph-name="Oslash" unicode="&#xd8;" horiz-adv-x="1352" 
d="M672 1405c48 0 93.002 -4.50293 135.002 -13.5029s81.667 -21.5 119 -37.5l51 94h178l-94 -180c34.667 -32 65.667 -69 93 -111s50.333 -87.167 69 -135.5s32.834 -99.166 42.501 -152.499s14.5 -107.333 14.5 -162c0 -108.667 -12.833 -208 -38.5 -298
s-63.834 -167.167 -114.501 -231.5s-114 -114.166 -190 -149.499s-164.333 -53 -265 -53c-50.667 0 -97.5 4.83301 -140.5 14.5s-83.5 22.834 -121.5 39.501h-2l-43 -82h-179l90 170c-64.667 64 -114.834 146.167 -150.501 246.5s-53.5 212.5 -53.5 336.5
c0 107.333 13.5 204.5 40.5 291.5s66.167 161.167 117.5 222.5s114.166 108.5 188.499 141.5s158.833 49.5 253.5 49.5zM987.002 701.997c0 60 -5.16797 115.166 -15.501 165.499s-26.166 94.833 -47.499 133.5l-394 -737c18.667 -10 40.167 -18 64.5 -24
s50.166 -9 77.499 -9c106.667 0 185.834 40.333 237.501 121s77.5 197.334 77.5 350.001zM672.001 1149c-100 0 -176.167 -38 -228.5 -114s-78.5 -187.667 -78.5 -335c0 -64 4.16699 -121.333 12.5 -172s21.833 -95.667 40.5 -135l387 727h-2c-40 19.333 -83.667 29 -131 29
z" />
    <glyph glyph-name="Ugrave" unicode="&#xd9;" horiz-adv-x="1317" 
d="M1192 528c0 -101.333 -13.502 -187.166 -40.502 -257.499s-64.5 -127.333 -112.5 -171s-105 -75.334 -171 -95.001s-137.667 -29.5 -215 -29.5c-74.667 0 -144.167 9.83301 -208.5 29.5s-120.166 51.334 -167.499 95.001s-84.5 100.667 -111.5 171
s-40.5 156.166 -40.5 257.499v852h289v-837c0 -56 5.33301 -103.667 16 -143s26.334 -71.333 47.001 -96s45.667 -42.667 75 -54s63 -17 101 -17c40.667 0 76.5 5.66699 107.5 17s57 29.333 78 54s37 56.667 48 96s16.5 87 16.5 143v837h289v-852zM609.998 1509l-248 315
h293l219 -315h-264z" />
    <glyph glyph-name="Uacute" unicode="&#xda;" horiz-adv-x="1317" 
d="M1192 528c0 -101.333 -13.502 -187.166 -40.502 -257.499s-64.5 -127.333 -112.5 -171s-105 -75.334 -171 -95.001s-137.667 -29.5 -215 -29.5c-74.667 0 -144.167 9.83301 -208.5 29.5s-120.166 51.334 -167.499 95.001s-84.5 100.667 -111.5 171
s-40.5 156.166 -40.5 257.499v852h289v-837c0 -56 5.33301 -103.667 16 -143s26.334 -71.333 47.001 -96s45.667 -42.667 75 -54s63 -17 101 -17c40.667 0 76.5 5.66699 107.5 17s57 29.333 78 54s37 56.667 48 96s16.5 87 16.5 143v837h289v-852zM435.998 1511l215 313h295
l-248 -313h-262z" />
    <glyph glyph-name="Ucircumflex" unicode="&#xdb;" horiz-adv-x="1317" 
d="M1192 528c0 -101.333 -13.502 -187.166 -40.502 -257.499s-64.5 -127.333 -112.5 -171s-105 -75.334 -171 -95.001s-137.667 -29.5 -215 -29.5c-74.667 0 -144.167 9.83301 -208.5 29.5s-120.166 51.334 -167.499 95.001s-84.5 100.667 -111.5 171
s-40.5 156.166 -40.5 257.499v852h289v-837c0 -56 5.33301 -103.667 16 -143s26.334 -71.333 47.001 -96s45.667 -42.667 75 -54s63 -17 101 -17c40.667 0 76.5 5.66699 107.5 17s57 29.333 78 54s37 56.667 48 96s16.5 87 16.5 143v837h289v-852zM304.998 1514l213 313h272
l213 -313h-260l-90 131l-90 -131h-258z" />
    <glyph glyph-name="Udieresis" unicode="&#xdc;" horiz-adv-x="1317" 
d="M1192 528c0 -101.333 -13.502 -187.166 -40.502 -257.499s-64.5 -127.333 -112.5 -171s-105 -75.334 -171 -95.001s-137.667 -29.5 -215 -29.5c-74.667 0 -144.167 9.83301 -208.5 29.5s-120.166 51.334 -167.499 95.001s-84.5 100.667 -111.5 171
s-40.5 156.166 -40.5 257.499v852h289v-837c0 -56 5.33301 -103.667 16 -143s26.334 -71.333 47.001 -96s45.667 -42.667 75 -54s63 -17 101 -17c40.667 0 76.5 5.66699 107.5 17s57 29.333 78 54s37 56.667 48 96s16.5 87 16.5 143v837h289v-852zM599.998 1530h-249v264
h249v-264zM954.998 1530h-250v264h250v-264z" />
    <glyph glyph-name="Yacute" unicode="&#xdd;" horiz-adv-x="1174" 
d="M733 561v-561h-291v563l-465 817h316l297 -534l293 534h315zM381 1513l215 313h295l-248 -313h-262z" />
    <glyph glyph-name="Thorn" unicode="&#xde;" horiz-adv-x="1239" 
d="M125 1380l290.999 0.00195312v-225h323c54.667 0 103.834 -6.33301 147.501 -19s82.5 -29.834 116.5 -51.501s63.167 -47 87.5 -76s44.333 -59.833 60 -92.5s27.167 -66.167 34.5 -100.5s11 -67.833 11 -100.5c0 -46.667 -8.5 -95.334 -25.5 -146.001
s-43.667 -97 -80 -139s-83.5 -76.667 -141.5 -104s-128 -41 -210 -41h-323v-285h-289zM415.999 897.002v-353.999h321c30 0 55.667 5.66699 77 17s38.833 25.5 52.5 42.5s23.834 35.667 30.501 56s10 39.833 10 58.5c0 19.333 -3.33301 39.666 -10 60.999
s-16.834 40.833 -30.501 58.5s-31.167 32.167 -52.5 43.5s-47 17 -77 17h-321z" />
    <glyph glyph-name="germandbls" unicode="&#xdf;" horiz-adv-x="1118" 
d="M578 -8c-8.66699 0 -18.5059 0.331055 -29.5059 0.998047s-22 1.5 -33 2.5s-21.333 2 -31 3s-17.5 2.16699 -23.5 3.5v217h104c36.667 0 68.834 5.33301 96.501 16s50.5 25.667 68.5 45s31.5 42.5 40.5 69.5s13.5 57.167 13.5 90.5c0 60.667 -16.5 109.667 -49.5 147
s-81.833 56 -146.5 56h-86v223h61c23.333 0 44.166 4.66699 62.499 14s33.833 21.333 46.5 36s22.334 31.167 29.001 49.5s10 36.5 10 54.5c0 19.333 -3.33301 37.333 -10 54s-16.167 31.167 -28.5 43.5s-27.333 22 -45 29s-37.167 10.5 -58.5 10.5
c-23.333 0 -46.166 -2.83301 -68.499 -8.5s-42.333 -15.667 -60 -30s-32 -34 -43 -59s-16.5 -56.5 -16.5 -94.5v-965h-260v956c0 76 10.833 141.333 32.5 196s52.167 99.834 91.5 135.501s86.5 61.834 141.5 78.501s115.833 25 182.5 25c56 0 108.167 -9.33301 156.5 -28
s90.5 -44.667 126.5 -78s64.167 -73 84.5 -119s30.5 -96.667 30.5 -152c0 -20 -3.16699 -41.167 -9.5 -63.5s-15.166 -44.166 -26.499 -65.499s-24.5 -41.833 -39.5 -61.5s-31.5 -36.834 -49.5 -51.501h2c28.667 -15.333 55.334 -34.666 80.001 -57.999
s46.334 -49.333 65.001 -78s33.334 -59.334 44.001 -92.001s16 -66 16 -100c0 -72 -11 -136 -33 -192s-53.5 -103.333 -94.5 -142s-90.5 -68 -148.5 -88s-123 -30 -195 -30z" />
    <glyph glyph-name="agrave" unicode="&#xe0;" horiz-adv-x="1106" 
d="M61 516c0 72 10.9971 138.832 32.9971 200.499s52.167 115 90.5 160s84 80.167 137 105.5s110.5 38 172.5 38c42 0 79.333 -6.66699 112 -20s61.334 -31.333 86.001 -54l4 58h260v-728c0 -16 4.5 -29.5 13.5 -40.5s21.167 -16.5 36.5 -16.5h47v-207
c-15.333 -5.33301 -31.666 -9.66602 -48.999 -12.999s-40.666 -5 -69.999 -5c-41.333 0 -77 6.33301 -107 19s-56.333 33.667 -79 63c-37.333 -31.333 -76.333 -54.166 -117 -68.499s-83 -21.5 -127 -21.5c-70 0 -132.5 12.5 -187.5 37.5s-101.5 60.667 -139.5 107
s-66.833 102.166 -86.5 167.499s-29.5 138 -29.5 218zM327.997 509.999c0 -100 15.332 -173.501 45.999 -220.501s79.334 -70.5 146.001 -70.5c62.667 0 109.167 22.833 139.5 68.5s45.5 117.834 45.5 216.501c0 98 -15.167 169.5 -45.5 214.5s-76.833 67.5 -139.5 67.5
c-32.667 0 -61 -6.33301 -85 -19s-44 -31 -60 -55s-27.833 -53 -35.5 -87s-11.5 -72.333 -11.5 -115zM484.996 1110l-248 315h293l219 -315h-264z" />
    <glyph glyph-name="aacute" unicode="&#xe1;" horiz-adv-x="1106" 
d="M61 516c0 72 10.9971 138.832 32.9971 200.499s52.167 115 90.5 160s84 80.167 137 105.5s110.5 38 172.5 38c42 0 79.333 -6.66699 112 -20s61.334 -31.333 86.001 -54l4 58h260v-728c0 -16 4.5 -29.5 13.5 -40.5s21.167 -16.5 36.5 -16.5h47v-207
c-15.333 -5.33301 -31.666 -9.66602 -48.999 -12.999s-40.666 -5 -69.999 -5c-41.333 0 -77 6.33301 -107 19s-56.333 33.667 -79 63c-37.333 -31.333 -76.333 -54.166 -117 -68.499s-83 -21.5 -127 -21.5c-70 0 -132.5 12.5 -187.5 37.5s-101.5 60.667 -139.5 107
s-66.833 102.166 -86.5 167.499s-29.5 138 -29.5 218zM327.997 509.999c0 -100 15.332 -173.501 45.999 -220.501s79.334 -70.5 146.001 -70.5c62.667 0 109.167 22.833 139.5 68.5s45.5 117.834 45.5 216.501c0 98 -15.167 169.5 -45.5 214.5s-76.833 67.5 -139.5 67.5
c-32.667 0 -61 -6.33301 -85 -19s-44 -31 -60 -55s-27.833 -53 -35.5 -87s-11.5 -72.333 -11.5 -115zM345.996 1112l215 313h295l-248 -313h-262z" />
    <glyph glyph-name="acircumflex" unicode="&#xe2;" horiz-adv-x="1106" 
d="M61 516c0 72 10.9971 138.832 32.9971 200.499s52.167 115 90.5 160s84 80.167 137 105.5s110.5 38 172.5 38c42 0 79.333 -6.66699 112 -20s61.334 -31.333 86.001 -54l4 58h260v-728c0 -16 4.5 -29.5 13.5 -40.5s21.167 -16.5 36.5 -16.5h47v-207
c-15.333 -5.33301 -31.666 -9.66602 -48.999 -12.999s-40.666 -5 -69.999 -5c-41.333 0 -77 6.33301 -107 19s-56.333 33.667 -79 63c-37.333 -31.333 -76.333 -54.166 -117 -68.499s-83 -21.5 -127 -21.5c-70 0 -132.5 12.5 -187.5 37.5s-101.5 60.667 -139.5 107
s-66.833 102.166 -86.5 167.499s-29.5 138 -29.5 218zM327.997 509.999c0 -100 15.332 -173.501 45.999 -220.501s79.334 -70.5 146.001 -70.5c62.667 0 109.167 22.833 139.5 68.5s45.5 117.834 45.5 216.501c0 98 -15.167 169.5 -45.5 214.5s-76.833 67.5 -139.5 67.5
c-32.667 0 -61 -6.33301 -85 -19s-44 -31 -60 -55s-27.833 -53 -35.5 -87s-11.5 -72.333 -11.5 -115zM210.996 1112l213 313h272l213 -313h-260l-90 131l-90 -131h-258z" />
    <glyph glyph-name="atilde" unicode="&#xe3;" horiz-adv-x="1106" 
d="M61 516c0 72 10.9971 138.832 32.9971 200.499s52.167 115 90.5 160s84 80.167 137 105.5s110.5 38 172.5 38c42 0 79.333 -6.66699 112 -20s61.334 -31.333 86.001 -54l4 58h260v-728c0 -16 4.5 -29.5 13.5 -40.5s21.167 -16.5 36.5 -16.5h47v-207
c-15.333 -5.33301 -31.666 -9.66602 -48.999 -12.999s-40.666 -5 -69.999 -5c-41.333 0 -77 6.33301 -107 19s-56.333 33.667 -79 63c-37.333 -31.333 -76.333 -54.166 -117 -68.499s-83 -21.5 -127 -21.5c-70 0 -132.5 12.5 -187.5 37.5s-101.5 60.667 -139.5 107
s-66.833 102.166 -86.5 167.499s-29.5 138 -29.5 218zM327.997 509.999c0 -100 15.332 -173.501 45.999 -220.501s79.334 -70.5 146.001 -70.5c62.667 0 109.167 22.833 139.5 68.5s45.5 117.834 45.5 216.501c0 98 -15.167 169.5 -45.5 214.5s-76.833 67.5 -139.5 67.5
c-32.667 0 -61 -6.33301 -85 -19s-44 -31 -60 -55s-27.833 -53 -35.5 -87s-11.5 -72.333 -11.5 -115zM905.996 1384c-3.33301 -38 -10.832 -73.502 -22.499 -106.502s-26.834 -61.667 -45.501 -86s-40.667 -43.666 -66 -57.999s-53.333 -21.5 -84 -21.5
c-32 0 -63.167 6 -93.5 18s-57.166 23.667 -80.499 35c-13.333 6.66699 -24.833 12.167 -34.5 16.5s-21.167 6.5 -34.5 6.5c-14.667 0 -24.834 -6.33301 -30.501 -19s-10.5 -29.667 -14.5 -51h-193c4.66699 37.333 12.834 72.333 24.501 105s27.167 61 46.5 85
s42.666 43 69.999 57s59.666 21 96.999 21c22.667 0 44.5 -4 65.5 -12s44.167 -18.333 69.5 -31c23.333 -11.333 41.333 -19.166 54 -23.499s25.334 -6.5 38.001 -6.5s22.5 7.5 29.5 22.5s12.167 31.167 15.5 48.5h189z" />
    <glyph glyph-name="adieresis" unicode="&#xe4;" horiz-adv-x="1106" 
d="M61 516c0 72 10.9971 138.832 32.9971 200.499s52.167 115 90.5 160s84 80.167 137 105.5s110.5 38 172.5 38c42 0 79.333 -6.66699 112 -20s61.334 -31.333 86.001 -54l4 58h260v-728c0 -16 4.5 -29.5 13.5 -40.5s21.167 -16.5 36.5 -16.5h47v-207
c-15.333 -5.33301 -31.666 -9.66602 -48.999 -12.999s-40.666 -5 -69.999 -5c-41.333 0 -77 6.33301 -107 19s-56.333 33.667 -79 63c-37.333 -31.333 -76.333 -54.166 -117 -68.499s-83 -21.5 -127 -21.5c-70 0 -132.5 12.5 -187.5 37.5s-101.5 60.667 -139.5 107
s-66.833 102.166 -86.5 167.499s-29.5 138 -29.5 218zM327.997 509.999c0 -100 15.332 -173.501 45.999 -220.501s79.334 -70.5 146.001 -70.5c62.667 0 109.167 22.833 139.5 68.5s45.5 117.834 45.5 216.501c0 98 -15.167 169.5 -45.5 214.5s-76.833 67.5 -139.5 67.5
c-32.667 0 -61 -6.33301 -85 -19s-44 -31 -60 -55s-27.833 -53 -35.5 -87s-11.5 -72.333 -11.5 -115zM521.996 1120h-249v264h249v-264zM876.996 1120h-250v264h250v-264z" />
    <glyph glyph-name="aring" unicode="&#xe5;" horiz-adv-x="1106" 
d="M61 516c0 72 10.9971 138.832 32.9971 200.499s52.167 115 90.5 160s84 80.167 137 105.5s110.5 38 172.5 38c42 0 79.333 -6.66699 112 -20s61.334 -31.333 86.001 -54l4 58h260v-728c0 -16 4.5 -29.5 13.5 -40.5s21.167 -16.5 36.5 -16.5h47v-207
c-15.333 -5.33301 -31.666 -9.66602 -48.999 -12.999s-40.666 -5 -69.999 -5c-41.333 0 -77 6.33301 -107 19s-56.333 33.667 -79 63c-37.333 -31.333 -76.333 -54.166 -117 -68.499s-83 -21.5 -127 -21.5c-70 0 -132.5 12.5 -187.5 37.5s-101.5 60.667 -139.5 107
s-66.833 102.166 -86.5 167.499s-29.5 138 -29.5 218zM327.997 509.999c0 -100 15.332 -173.501 45.999 -220.501s79.334 -70.5 146.001 -70.5c62.667 0 109.167 22.833 139.5 68.5s45.5 117.834 45.5 216.501c0 98 -15.167 169.5 -45.5 214.5s-76.833 67.5 -139.5 67.5
c-32.667 0 -61 -6.33301 -85 -19s-44 -31 -60 -55s-27.833 -53 -35.5 -87s-11.5 -72.333 -11.5 -115zM450.996 1321c0 -25.333 8.66504 -45.666 25.998 -60.999s37.333 -23 60 -23s42.667 7.66699 60 23s26 35.666 26 60.999c0 11.333 -2.33301 22 -7 32s-11 18.667 -19 26
s-17.167 13.166 -27.5 17.499s-21.166 6.5 -32.499 6.5s-22.166 -2.16699 -32.499 -6.5s-19.5 -10.166 -27.5 -17.499s-14.333 -16 -19 -26s-7 -20.667 -7 -32zM317.994 1321c0 29.333 5.66699 56.833 17 82.5s26.833 48.167 46.5 67.5s42.834 34.666 69.501 45.999
s55.334 17 86.001 17c31.333 0 60.5 -5.66699 87.5 -17s50.333 -26.666 70 -45.999s35.167 -41.833 46.5 -67.5s17 -53.167 17 -82.5c0 -30 -5.66699 -58.167 -17 -84.5s-26.833 -49.333 -46.5 -69s-43 -35.167 -70 -46.5s-56.167 -17 -87.5 -17
c-30.667 0 -59.334 5.66699 -86.001 17s-49.834 26.833 -69.501 46.5s-35.167 42.667 -46.5 69s-17 54.5 -17 84.5z" />
    <glyph glyph-name="ae" unicode="&#xe6;" horiz-adv-x="1626" 
d="M784 111c-38.667 -39.333 -86.167 -70.0039 -142.5 -92.0039s-122.166 -33 -197.499 -33c-49.333 0 -96.333 5.16699 -141 15.5s-84.167 27.833 -118.5 52.5s-61.666 57.334 -81.999 98.001s-30.5 91.667 -30.5 153c0 52.667 11.5 98.167 34.5 136.5
s54.167 69.833 93.5 94.5s85 42.834 137 54.501s107 17.5 165 17.5c25.333 0 48.166 -0.166992 68.499 -0.5s38.166 -0.5 53.499 -0.5c17.333 -0.666992 33.333 -1 48 -1c0 26.667 -2.5 51.834 -7.5 75.501s-13.5 44.334 -25.5 62.001s-28 31.667 -48 42s-45 15.5 -75 15.5
c-28.667 0 -52.334 -3.33301 -71.001 -10s-33.5 -15.167 -44.5 -25.5s-19.167 -21.666 -24.5 -33.999s-9 -24.166 -11 -35.499h-265c7.33301 60 23.833 110.667 49.5 152s57.334 74.666 95.001 99.999s79.667 43.666 126 54.999s93.5 17 141.5 17
c68 0 128.167 -9.5 180.5 -28.5s94.5 -45.167 126.5 -78.5c38 32 82 57.833 132 77.5s104.333 29.5 163 29.5c72.667 0 137 -13.333 193 -40s103.167 -62.667 141.5 -108s67.333 -98.5 87 -159.5s29.5 -125.833 29.5 -194.5c0 -26.667 -1.5 -50 -4.5 -70
s-5.16699 -32.667 -6.5 -38h-630c2.66699 -34.667 10 -64.167 22 -88.5s26.833 -44.333 44.5 -60s37.167 -27 58.5 -34s43 -10.5 65 -10.5c16 0 31.833 1.66699 47.5 5s30.5 9 44.5 17s26.833 18.833 38.5 32.5s21.5 31.167 29.5 52.5h268
c-15.333 -51.333 -35.833 -97.833 -61.5 -139.5s-56.5 -77.167 -92.5 -106.5s-77 -52 -123 -68s-97 -24 -153 -24c-66 0 -127.167 11 -183.5 33s-104.5 52.667 -144.5 92zM1112 787.996c-26 0 -49.834 -4.50098 -71.501 -13.501s-40.667 -21.667 -57 -38
s-29.666 -36.166 -39.999 -59.499s-16.833 -49 -19.5 -77h368c-2 27.333 -7.16699 52.5 -15.5 75.5s-20 42.833 -35 59.5s-33.333 29.667 -55 39s-46.5 14 -74.5 14zM460.999 202.995c41.333 0 75.668 6.5 103.001 19.5s49 29.667 65 50s27.167 43.333 33.5 69
s9.5 51.167 9.5 76.5c-14 0 -29 0.333008 -45 1c-14 0 -30 0.166992 -48 0.5s-37 0.5 -57 0.5c-62.667 0 -109 -8.5 -139 -25.5s-45 -43.5 -45 -79.5c0 -32.667 10.167 -59.5 30.5 -80.5s51.166 -31.5 92.499 -31.5z" />
    <glyph glyph-name="ccedilla" unicode="&#xe7;" horiz-adv-x="1006" 
d="M684 657c-11.333 46.667 -30.4971 79.835 -57.4971 99.502s-60.5 29.5 -100.5 29.5c-64.667 0 -113.834 -22.833 -147.501 -68.5s-50.5 -116.834 -50.5 -213.501c0 -190 69 -285 207 -285c40.667 0 74 9.33301 100 28s45 49.667 57 93h266
c-11.333 -54 -29 -102.833 -53 -146.5s-54 -80.834 -90 -111.501s-77.5 -54.334 -124.5 -71.001s-98.833 -25 -155.5 -25c-72.667 0 -138.334 11.833 -197.001 35.5s-108.5 57.667 -149.5 102s-72.5 98.5 -94.5 162.5s-33 136.667 -33 218c0 80 11 152 33 216
s53.167 118.167 93.5 162.5s89.166 78.333 146.499 102s121.333 35.5 192 35.5c60.667 0 115.5 -9 164.5 -27s91.5 -43 127.5 -75s65.333 -70.167 88 -114.5s38 -93.166 46 -146.499h-268zM408.003 -93.999h211.001v-121c0 -41.333 -4.5 -78.5 -13.5 -111.5
s-23.5 -61.333 -43.5 -85s-45.667 -41.834 -77 -54.501s-69.333 -19 -114 -19c-9.33301 0 -17.333 0.166992 -24 0.5s-12.334 0.833008 -17.001 1.5c-5.33301 0.666992 -10 1.33398 -14 2.00098v153h22c22.667 0 40 6.66699 52 20s18 39 18 77v137z" />
    <glyph glyph-name="egrave" unicode="&#xe8;" horiz-adv-x="1038" 
d="M952 322c-15.333 -51.333 -35.4971 -97.665 -60.4971 -138.998s-55.333 -76.666 -91 -105.999s-76.667 -51.833 -123 -67.5s-98.166 -23.5 -155.499 -23.5c-70.667 0 -134.334 11.667 -191.001 35s-105 57.166 -145 101.499s-70.833 98.666 -92.5 162.999
s-32.5 137.166 -32.5 218.499c0 79.333 10.667 150.833 32 214.5s52 117.834 92 162.501s88.667 79 146 103s121.666 36 192.999 36c72.667 0 137.167 -13.167 193.5 -39.5s103.666 -62.166 141.999 -107.499s67.5 -98.333 87.5 -159s30 -125.334 30 -194.001
c0 -26.667 -1.33301 -51 -4 -73s-4.66699 -35.667 -6 -41h-635c4 -36.667 12 -67 24 -91s26.5 -43.167 43.5 -57.5s36.167 -24.333 57.5 -30s43.666 -8.5 66.999 -8.5c16 0 31.833 1.5 47.5 4.5s30.5 8.5 44.5 16.5s26.833 18.667 38.5 32s21.5 30.666 29.5 51.999z
M522.003 791.001c-54 0 -96.333 -16.332 -127 -48.999s-51 -79.334 -61 -140.001h371c-2 27.333 -7.5 52.5 -16.5 75.5s-21 43 -36 60s-33.5 30.167 -55.5 39.5s-47 14 -75 14zM442.003 1110l-248 315h293l219 -315h-264z" />
    <glyph glyph-name="eacute" unicode="&#xe9;" horiz-adv-x="1038" 
d="M952 322c-15.333 -51.333 -35.4971 -97.665 -60.4971 -138.998s-55.333 -76.666 -91 -105.999s-76.667 -51.833 -123 -67.5s-98.166 -23.5 -155.499 -23.5c-70.667 0 -134.334 11.667 -191.001 35s-105 57.166 -145 101.499s-70.833 98.666 -92.5 162.999
s-32.5 137.166 -32.5 218.499c0 79.333 10.667 150.833 32 214.5s52 117.834 92 162.501s88.667 79 146 103s121.666 36 192.999 36c72.667 0 137.167 -13.167 193.5 -39.5s103.666 -62.166 141.999 -107.499s67.5 -98.333 87.5 -159s30 -125.334 30 -194.001
c0 -26.667 -1.33301 -51 -4 -73s-4.66699 -35.667 -6 -41h-635c4 -36.667 12 -67 24 -91s26.5 -43.167 43.5 -57.5s36.167 -24.333 57.5 -30s43.666 -8.5 66.999 -8.5c16 0 31.833 1.5 47.5 4.5s30.5 8.5 44.5 16.5s26.833 18.667 38.5 32s21.5 30.666 29.5 51.999z
M522.003 791.001c-54 0 -96.333 -16.332 -127 -48.999s-51 -79.334 -61 -140.001h371c-2 27.333 -7.5 52.5 -16.5 75.5s-21 43 -36 60s-33.5 30.167 -55.5 39.5s-47 14 -75 14zM323.003 1112l215 313h295l-248 -313h-262z" />
    <glyph glyph-name="ecircumflex" unicode="&#xea;" horiz-adv-x="1038" 
d="M952 322c-15.333 -51.333 -35.4971 -97.665 -60.4971 -138.998s-55.333 -76.666 -91 -105.999s-76.667 -51.833 -123 -67.5s-98.166 -23.5 -155.499 -23.5c-70.667 0 -134.334 11.667 -191.001 35s-105 57.166 -145 101.499s-70.833 98.666 -92.5 162.999
s-32.5 137.166 -32.5 218.499c0 79.333 10.667 150.833 32 214.5s52 117.834 92 162.501s88.667 79 146 103s121.666 36 192.999 36c72.667 0 137.167 -13.167 193.5 -39.5s103.666 -62.166 141.999 -107.499s67.5 -98.333 87.5 -159s30 -125.334 30 -194.001
c0 -26.667 -1.33301 -51 -4 -73s-4.66699 -35.667 -6 -41h-635c4 -36.667 12 -67 24 -91s26.5 -43.167 43.5 -57.5s36.167 -24.333 57.5 -30s43.666 -8.5 66.999 -8.5c16 0 31.833 1.5 47.5 4.5s30.5 8.5 44.5 16.5s26.833 18.667 38.5 32s21.5 30.666 29.5 51.999z
M522.003 791.001c-54 0 -96.333 -16.332 -127 -48.999s-51 -79.334 -61 -140.001h371c-2 27.333 -7.5 52.5 -16.5 75.5s-21 43 -36 60s-33.5 30.167 -55.5 39.5s-47 14 -75 14zM168.003 1114l213 313h272l213 -313h-260l-90 131l-90 -131h-258z" />
    <glyph glyph-name="edieresis" unicode="&#xeb;" horiz-adv-x="1038" 
d="M952 322c-15.333 -51.333 -35.4971 -97.665 -60.4971 -138.998s-55.333 -76.666 -91 -105.999s-76.667 -51.833 -123 -67.5s-98.166 -23.5 -155.499 -23.5c-70.667 0 -134.334 11.667 -191.001 35s-105 57.166 -145 101.499s-70.833 98.666 -92.5 162.999
s-32.5 137.166 -32.5 218.499c0 79.333 10.667 150.833 32 214.5s52 117.834 92 162.501s88.667 79 146 103s121.666 36 192.999 36c72.667 0 137.167 -13.167 193.5 -39.5s103.666 -62.166 141.999 -107.499s67.5 -98.333 87.5 -159s30 -125.334 30 -194.001
c0 -26.667 -1.33301 -51 -4 -73s-4.66699 -35.667 -6 -41h-635c4 -36.667 12 -67 24 -91s26.5 -43.167 43.5 -57.5s36.167 -24.333 57.5 -30s43.666 -8.5 66.999 -8.5c16 0 31.833 1.5 47.5 4.5s30.5 8.5 44.5 16.5s26.833 18.667 38.5 32s21.5 30.666 29.5 51.999z
M522.003 791.001c-54 0 -96.333 -16.332 -127 -48.999s-51 -79.334 -61 -140.001h371c-2 27.333 -7.5 52.5 -16.5 75.5s-21 43 -36 60s-33.5 30.167 -55.5 39.5s-47 14 -75 14zM481.003 1120h-249v264h249v-264zM836.003 1120h-250v264h250v-264z" />
    <glyph glyph-name="igrave" unicode="&#xec;" horiz-adv-x="504" 
d="M385 0h-264v1004h264v-1004zM113 1110l-248 315h293l219 -315h-264z" />
    <glyph glyph-name="iacute" unicode="&#xed;" horiz-adv-x="504" 
d="M383 0h-264v1004h264v-1004zM121 1112l215 313h295l-248 -313h-262z" />
    <glyph glyph-name="icircumflex" unicode="&#xee;" horiz-adv-x="504" 
d="M383 0h-264v1004h264v-1004zM-96 1094l213 313h272l213 -313h-260l-90 131l-90 -131h-258z" />
    <glyph glyph-name="idieresis" unicode="&#xef;" horiz-adv-x="504" 
d="M383 0h-264v1004h264v-1004zM200 1120h-249v264h249v-264zM555 1120h-250v264h250v-264z" />
    <glyph glyph-name="eth" unicode="&#xf0;" horiz-adv-x="1042" 
d="M178 1384c11.333 4 23.666 7.1709 36.999 9.50391s27 4.16602 41 5.49902s27.833 2.33301 41.5 3s26.5 1 38.5 1c46 0 90.167 -6.33301 132.5 -19s83.5 -29.667 123.5 -51l190 113l72 -117l-139 -84c40 -40 76 -85.833 108 -137.5s59.5 -107.834 82.5 -168.501
s40.667 -125.167 53 -193.5s18.5 -139.5 18.5 -213.5c0 -88 -10.333 -165.833 -31 -233.5s-50.5 -124.5 -89.5 -170.5s-86.5 -80.833 -142.5 -104.5s-119.333 -35.5 -190 -35.5c-73.333 0 -138.5 11.667 -195.5 35s-105.167 57.5 -144.5 102.5s-69.333 99.833 -90 164.5
s-31 138.667 -31 222c0 80 11.167 151 33.5 213s53.333 114.167 93 156.5s86.334 74.666 140.001 96.999s111.834 33.5 174.501 33.5c10 0 23.833 -1.16699 41.5 -3.5s35.167 -6.16602 52.5 -11.499c-14.667 27.333 -31.334 51.166 -50.001 71.499
s-39.667 34.166 -63 41.499l-88 -53l-63 104h-156v223zM524 223.004c63.333 0 110.332 22.668 140.999 68.001s46 118.333 46 219c0 43.333 -3.83301 82.166 -11.5 116.499s-19.167 63.5 -34.5 87.5s-34.666 42.333 -57.999 55s-51 19 -83 19
c-62 0 -109.833 -22.5 -143.5 -67.5s-50.5 -115.167 -50.5 -210.5c0 -100.667 15.667 -173.667 47 -219s80.333 -68 147 -68z" />
    <glyph glyph-name="ntilde" unicode="&#xf1;" horiz-adv-x="1067" 
d="M115 0l-0.000976562 1004h260l4 -70c35.333 25.333 74 45.333 116 60s83 22 123 22c54.667 0 103.5 -9.66699 146.5 -29s79.333 -46.333 109 -81s52.334 -76.334 68.001 -125.001s23.5 -102 23.5 -160v-621h-265v604c0 34.667 -4.66699 63.5 -14 86.5
s-21.166 41.167 -35.499 54.5s-30.166 22.833 -47.499 28.5s-34 8.5 -50 8.5c-28 0 -52.833 -4.33301 -74.5 -13s-39.834 -23.334 -54.501 -44.001s-25.834 -48.334 -33.501 -83.001s-11.5 -78 -11.5 -130v-512h-264zM886.999 1384
c-3.33301 -38 -10.832 -73.502 -22.499 -106.502s-26.834 -61.667 -45.501 -86s-40.667 -43.666 -66 -57.999s-53.333 -21.5 -84 -21.5c-32 0 -63.167 6 -93.5 18s-57.166 23.667 -80.499 35c-13.333 6.66699 -24.833 12.167 -34.5 16.5s-21.167 6.5 -34.5 6.5
c-14.667 0 -24.834 -6.33301 -30.501 -19s-10.5 -29.667 -14.5 -51h-193c4.66699 37.333 12.834 72.333 24.501 105s27.167 61 46.5 85s42.666 43 69.999 57s59.666 21 96.999 21c22.667 0 44.5 -4 65.5 -12s44.167 -18.333 69.5 -31
c23.333 -11.333 41.333 -19.166 54 -23.499s25.334 -6.5 38.001 -6.5s22.5 7.5 29.5 22.5s12.167 31.167 15.5 48.5h189z" />
    <glyph glyph-name="ograve" unicode="&#xf2;" horiz-adv-x="1036" 
d="M518 -14c-72 0 -136.169 11.833 -192.502 35.5s-104.166 58 -143.499 103s-69.333 100 -90 165s-31 139.167 -31 222.5c0 74 10 142 30 204s49.5 115.5 88.5 160.5s86.833 80.167 143.5 105.5s121.667 38 195 38s138.333 -12.667 195 -38s104.5 -60.5 143.5 -105.5
s68.5 -98.5 88.5 -160.5s30 -130 30 -204c0 -83.333 -10.333 -157.5 -31 -222.5s-50.667 -120 -90 -165s-87.166 -79.333 -143.499 -103s-120.5 -35.5 -192.5 -35.5zM517.998 219c65.333 0 113.501 23 144.501 69s46.5 119.333 46.5 220
c0 43.333 -3.83301 82.166 -11.5 116.499s-19.334 63.5 -35.001 87.5s-35.5 42.333 -59.5 55s-52.333 19 -85 19s-61 -6.33301 -85 -19s-43.667 -31 -59 -55s-26.833 -53.167 -34.5 -87.5s-11.5 -73.166 -11.5 -116.499c0 -100.667 15.333 -174 46 -220s78.667 -69 144 -69z
M452.999 1110l-248 315h293l219 -315h-264z" />
    <glyph glyph-name="oacute" unicode="&#xf3;" horiz-adv-x="1036" 
d="M518 -14c-72 0 -136.169 11.833 -192.502 35.5s-104.166 58 -143.499 103s-69.333 100 -90 165s-31 139.167 -31 222.5c0 74 10 142 30 204s49.5 115.5 88.5 160.5s86.833 80.167 143.5 105.5s121.667 38 195 38s138.333 -12.667 195 -38s104.5 -60.5 143.5 -105.5
s68.5 -98.5 88.5 -160.5s30 -130 30 -204c0 -83.333 -10.333 -157.5 -31 -222.5s-50.667 -120 -90 -165s-87.166 -79.333 -143.499 -103s-120.5 -35.5 -192.5 -35.5zM517.998 219c65.333 0 113.501 23 144.501 69s46.5 119.333 46.5 220
c0 43.333 -3.83301 82.166 -11.5 116.499s-19.334 63.5 -35.001 87.5s-35.5 42.333 -59.5 55s-52.333 19 -85 19s-61 -6.33301 -85 -19s-43.667 -31 -59 -55s-26.833 -53.167 -34.5 -87.5s-11.5 -73.166 -11.5 -116.499c0 -100.667 15.333 -174 46 -220s78.667 -69 144 -69z
M333.999 1112l215 313h295l-248 -313h-262z" />
    <glyph glyph-name="ocircumflex" unicode="&#xf4;" horiz-adv-x="1036" 
d="M518 -14c-72 0 -136.169 11.833 -192.502 35.5s-104.166 58 -143.499 103s-69.333 100 -90 165s-31 139.167 -31 222.5c0 74 10 142 30 204s49.5 115.5 88.5 160.5s86.833 80.167 143.5 105.5s121.667 38 195 38s138.333 -12.667 195 -38s104.5 -60.5 143.5 -105.5
s68.5 -98.5 88.5 -160.5s30 -130 30 -204c0 -83.333 -10.333 -157.5 -31 -222.5s-50.667 -120 -90 -165s-87.166 -79.333 -143.499 -103s-120.5 -35.5 -192.5 -35.5zM517.998 219c65.333 0 113.501 23 144.501 69s46.5 119.333 46.5 220
c0 43.333 -3.83301 82.166 -11.5 116.499s-19.334 63.5 -35.001 87.5s-35.5 42.333 -59.5 55s-52.333 19 -85 19s-61 -6.33301 -85 -19s-43.667 -31 -59 -55s-26.833 -53.167 -34.5 -87.5s-11.5 -73.166 -11.5 -116.499c0 -100.667 15.333 -174 46 -220s78.667 -69 144 -69z
M175.999 1114l213 313h272l213 -313h-260l-90 131l-90 -131h-258z" />
    <glyph glyph-name="otilde" unicode="&#xf5;" horiz-adv-x="1036" 
d="M518 -14c-72 0 -136.169 11.833 -192.502 35.5s-104.166 58 -143.499 103s-69.333 100 -90 165s-31 139.167 -31 222.5c0 74 10 142 30 204s49.5 115.5 88.5 160.5s86.833 80.167 143.5 105.5s121.667 38 195 38s138.333 -12.667 195 -38s104.5 -60.5 143.5 -105.5
s68.5 -98.5 88.5 -160.5s30 -130 30 -204c0 -83.333 -10.333 -157.5 -31 -222.5s-50.667 -120 -90 -165s-87.166 -79.333 -143.499 -103s-120.5 -35.5 -192.5 -35.5zM517.998 219c65.333 0 113.501 23 144.501 69s46.5 119.333 46.5 220
c0 43.333 -3.83301 82.166 -11.5 116.499s-19.334 63.5 -35.001 87.5s-35.5 42.333 -59.5 55s-52.333 19 -85 19s-61 -6.33301 -85 -19s-43.667 -31 -59 -55s-26.833 -53.167 -34.5 -87.5s-11.5 -73.166 -11.5 -116.499c0 -100.667 15.333 -174 46 -220s78.667 -69 144 -69z
M860.999 1384c-3.33301 -38 -10.832 -73.502 -22.499 -106.502s-26.834 -61.667 -45.501 -86s-40.667 -43.666 -66 -57.999s-53.333 -21.5 -84 -21.5c-32 0 -63.167 6 -93.5 18s-57.166 23.667 -80.499 35c-13.333 6.66699 -24.833 12.167 -34.5 16.5s-21.167 6.5 -34.5 6.5
c-14.667 0 -24.834 -6.33301 -30.501 -19s-10.5 -29.667 -14.5 -51h-193c4.66699 37.333 12.834 72.333 24.501 105s27.167 61 46.5 85s42.666 43 69.999 57s59.666 21 96.999 21c22.667 0 44.5 -4 65.5 -12s44.167 -18.333 69.5 -31
c23.333 -11.333 41.333 -19.166 54 -23.499s25.334 -6.5 38.001 -6.5s22.5 7.5 29.5 22.5s12.167 31.167 15.5 48.5h189z" />
    <glyph glyph-name="odieresis" unicode="&#xf6;" horiz-adv-x="1036" 
d="M518 -14c-72 0 -136.169 11.833 -192.502 35.5s-104.166 58 -143.499 103s-69.333 100 -90 165s-31 139.167 -31 222.5c0 74 10 142 30 204s49.5 115.5 88.5 160.5s86.833 80.167 143.5 105.5s121.667 38 195 38s138.333 -12.667 195 -38s104.5 -60.5 143.5 -105.5
s68.5 -98.5 88.5 -160.5s30 -130 30 -204c0 -83.333 -10.333 -157.5 -31 -222.5s-50.667 -120 -90 -165s-87.166 -79.333 -143.499 -103s-120.5 -35.5 -192.5 -35.5zM517.998 219c65.333 0 113.501 23 144.501 69s46.5 119.333 46.5 220
c0 43.333 -3.83301 82.166 -11.5 116.499s-19.334 63.5 -35.001 87.5s-35.5 42.333 -59.5 55s-52.333 19 -85 19s-61 -6.33301 -85 -19s-43.667 -31 -59 -55s-26.833 -53.167 -34.5 -87.5s-11.5 -73.166 -11.5 -116.499c0 -100.667 15.333 -174 46 -220s78.667 -69 144 -69z
M466.999 1120h-249v264h249v-264zM821.999 1120h-250v264h250v-264z" />
    <glyph glyph-name="divide" unicode="&#xf7;" horiz-adv-x="1149" 
d="M1100 434h-1037v232h1037v-232zM719 1047v-314h-250v314h250zM719 354v-313h-250v313h250z" />
    <glyph glyph-name="oslash" unicode="&#xf8;" horiz-adv-x="1036" 
d="M821 913c50 -46 88.167 -103.5 114.5 -172.5s39.5 -145.167 39.5 -228.5s-10.333 -157.333 -31 -222s-50.5 -119.5 -89.5 -164.5s-86.5 -79.167 -142.5 -102.5s-119.333 -35 -190 -35c-63.333 0 -125.333 10 -186 30l-51 -90h-160l90 160
c-49.333 46 -87.333 104.5 -114 175.5s-40 153.833 -40 248.5c0 80 11 151.333 33 214s53.333 115.667 94 159s89.167 76.333 145.5 99s119.166 34 188.499 34c32 0 63.333 -3.16699 94 -9.5s59.334 -14.833 86.001 -25.5l43 80h162zM328 510
c0 -34 1.33301 -65.168 4 -93.501s8 -55.166 16 -80.499l244 444c-24.667 8.66699 -48 13 -70 13c-62 0 -109.833 -23.333 -143.5 -70s-50.5 -117.667 -50.5 -213zM522 216.999c63.333 0 110.334 23.666 141.001 70.999s46 121.333 46 222
c0 26.667 -1.33301 53.334 -4 80.001s-8.33398 52 -17.001 76l-237 -439c12 -4 23.833 -6.66699 35.5 -8s23.5 -2 35.5 -2z" />
    <glyph glyph-name="ugrave" unicode="&#xf9;" horiz-adv-x="1067" 
d="M952 1004l0.000976562 -1004h-260l-4 70c-35.333 -26 -74 -46.167 -116 -60.5s-83 -21.5 -123 -21.5c-54.667 0 -103.5 9.66699 -146.5 29s-79.333 46.333 -109 81s-52.334 76.334 -68.001 125.001s-23.5 102 -23.5 160v621h265v-603c0 -34 4.66699 -62.5 14 -85.5
s21.166 -41.5 35.499 -55.5s30.166 -24 47.499 -30s34 -9 50 -9c28 0 52.833 4.66699 74.5 14s39.834 24.666 54.501 45.999s25.834 49.333 33.501 84s11.5 77.667 11.5 129v510h264zM512.001 1110l-248 315h293l219 -315h-264z" />
    <glyph glyph-name="uacute" unicode="&#xfa;" horiz-adv-x="1067" 
d="M952 1004l0.000976562 -1004h-260l-4 70c-35.333 -26 -74 -46.167 -116 -60.5s-83 -21.5 -123 -21.5c-54.667 0 -103.5 9.66699 -146.5 29s-79.333 46.333 -109 81s-52.334 76.334 -68.001 125.001s-23.5 102 -23.5 160v621h265v-603c0 -34 4.66699 -62.5 14 -85.5
s21.166 -41.5 35.499 -55.5s30.166 -24 47.499 -30s34 -9 50 -9c28 0 52.833 4.66699 74.5 14s39.834 24.666 54.501 45.999s25.834 49.333 33.501 84s11.5 77.667 11.5 129v510h264zM287.001 1112l215 313h295l-248 -313h-262z" />
    <glyph glyph-name="ucircumflex" unicode="&#xfb;" horiz-adv-x="1067" 
d="M952 1004l0.000976562 -1004h-260l-4 70c-35.333 -26 -74 -46.167 -116 -60.5s-83 -21.5 -123 -21.5c-54.667 0 -103.5 9.66699 -146.5 29s-79.333 46.333 -109 81s-52.334 76.334 -68.001 125.001s-23.5 102 -23.5 160v621h265v-603c0 -34 4.66699 -62.5 14 -85.5
s21.166 -41.5 35.499 -55.5s30.166 -24 47.499 -30s34 -9 50 -9c28 0 52.833 4.66699 74.5 14s39.834 24.666 54.501 45.999s25.834 49.333 33.501 84s11.5 77.667 11.5 129v510h264zM197.001 1114l213 313h272l213 -313h-260l-90 131l-90 -131h-258z" />
    <glyph glyph-name="udieresis" unicode="&#xfc;" horiz-adv-x="1067" 
d="M952 1004l0.000976562 -1004h-260l-4 70c-35.333 -26 -74 -46.167 -116 -60.5s-83 -21.5 -123 -21.5c-54.667 0 -103.5 9.66699 -146.5 29s-79.333 46.333 -109 81s-52.334 76.334 -68.001 125.001s-23.5 102 -23.5 160v621h265v-603c0 -34 4.66699 -62.5 14 -85.5
s21.166 -41.5 35.499 -55.5s30.166 -24 47.499 -30s34 -9 50 -9c28 0 52.833 4.66699 74.5 14s39.834 24.666 54.501 45.999s25.834 49.333 33.501 84s11.5 77.667 11.5 129v510h264zM485.001 1120h-249v264h249v-264zM840.001 1120h-250v264h250v-264z" />
    <glyph glyph-name="yacute" unicode="&#xfd;" horiz-adv-x="954" 
d="M537 -180c-11.333 -32 -26.8311 -61 -46.498 -87s-42.5 -48 -68.5 -66s-55 -31.833 -87 -41.5s-66 -14.5 -102 -14.5c-14 0 -32.167 0.5 -54.5 1.5s-44.833 3.16699 -67.5 6.5v223h106c28 0 48.833 5.33301 62.5 16s23.5 22.667 29.5 36
c7.33301 14 14.666 29.5 21.999 46.5s13.666 32.833 18.999 47.5l-176.5 508l-177.5 508h276l205 -650l209 650h272zM299.002 1112l215 313h295l-248 -313h-262z" />
    <glyph glyph-name="thorn" unicode="&#xfe;" horiz-adv-x="1018" 
d="M954 489c0 -69.333 -9.66602 -134.501 -28.999 -195.501s-46.5 -114.5 -81.5 -160.5s-77 -82.333 -126 -109s-103.167 -40 -162.5 -40c-30 0 -56.167 1.83301 -78.5 5.5s-42.333 8.83398 -60 15.501s-33.667 14.667 -48 24s-28.5 19.333 -42.5 30v-440h-265v1765h265
v-446c11.333 9.33301 24.333 18.666 39 27.999s31.167 17.833 49.5 25.5s38.833 14 61.5 19s47.667 7.5 75 7.5c47.333 0 95 -10.333 143 -31s91.167 -52.667 129.5 -96s69.666 -98.166 93.999 -164.499s36.5 -145.5 36.5 -237.5zM502.001 785.999
c-66 0 -113.667 -23.1689 -143 -69.502s-44 -117.166 -44 -212.499c0 -99.333 16.667 -172 50 -218s80.333 -69 141 -69c32 0 59.5 6.83301 82.5 20.5s41.833 32.834 56.5 57.501s25.5 54 32.5 88s10.5 71.667 10.5 113c0 94.667 -15.5 166.667 -46.5 216
s-77.5 74 -139.5 74z" />
    <glyph glyph-name="ydieresis" unicode="&#xff;" horiz-adv-x="954" 
d="M537 -180c-11.333 -32 -26.8311 -61 -46.498 -87s-42.5 -48 -68.5 -66s-55 -31.833 -87 -41.5s-66 -14.5 -102 -14.5c-14 0 -32.167 0.5 -54.5 1.5s-44.833 3.16699 -67.5 6.5v223h106c28 0 48.833 5.33301 62.5 16s23.5 22.667 29.5 36
c7.33301 14 14.666 29.5 21.999 46.5s13.666 32.833 18.999 47.5l-176.5 508l-177.5 508h276l205 -650l209 650h272zM428.002 1120h-249v264h249v-264zM783.002 1120h-250v264h250v-264z" />
    <glyph glyph-name="Amacron" unicode="&#x100;" horiz-adv-x="1264" 
d="M877 309h-490l-111 -309h-301l527 1380h262l524 -1380h-299zM479 569h303l-151 418zM313 1731h635v-193h-635v193z" />
    <glyph glyph-name="amacron" unicode="&#x101;" horiz-adv-x="1106" 
d="M61 516c0 72 10.9971 138.832 32.9971 200.499s52.167 115 90.5 160s84 80.167 137 105.5s110.5 38 172.5 38c42 0 79.333 -6.66699 112 -20s61.334 -31.333 86.001 -54l4 58h260v-728c0 -16 4.5 -29.5 13.5 -40.5s21.167 -16.5 36.5 -16.5h47v-207
c-15.333 -5.33301 -31.666 -9.66602 -48.999 -12.999s-40.666 -5 -69.999 -5c-41.333 0 -77 6.33301 -107 19s-56.333 33.667 -79 63c-37.333 -31.333 -76.333 -54.166 -117 -68.499s-83 -21.5 -127 -21.5c-70 0 -132.5 12.5 -187.5 37.5s-101.5 60.667 -139.5 107
s-66.833 102.166 -86.5 167.499s-29.5 138 -29.5 218zM327.997 509.999c0 -100 15.332 -173.501 45.999 -220.501s79.334 -70.5 146.001 -70.5c62.667 0 109.167 22.833 139.5 68.5s45.5 117.834 45.5 216.501c0 98 -15.167 169.5 -45.5 214.5s-76.833 67.5 -139.5 67.5
c-32.667 0 -61 -6.33301 -85 -19s-44 -31 -60 -55s-27.833 -53 -35.5 -87s-11.5 -72.333 -11.5 -115zM232.996 1356h635v-193h-635v193z" />
    <glyph glyph-name="Abreve" unicode="&#x102;" horiz-adv-x="1264" 
d="M877 309h-490l-111 -309h-301l527 1380h262l524 -1380h-299zM479 569h303l-151 418zM920 1759c-0.666992 -45.333 -8.83301 -86.166 -24.5 -122.499s-36.667 -67.166 -63 -92.499s-56.833 -44.833 -91.5 -58.5s-71.334 -20.5 -110.001 -20.5
c-40 0 -77.5 6.83301 -112.5 20.5s-65.5 33.167 -91.5 58.5s-46.5 56.166 -61.5 92.499s-22.833 77.166 -23.5 122.499h188c0.666992 -16.667 3.83398 -31.667 9.50098 -45s13.167 -24.5 22.5 -33.5s20 -15.833 32 -20.5s24.333 -7 37 -7c24.667 0 46.5 9 65.5 27
s28.5 44.333 28.5 79h195z" />
    <glyph glyph-name="abreve" unicode="&#x103;" horiz-adv-x="1106" 
d="M61 516c0 72 10.9971 138.832 32.9971 200.499s52.167 115 90.5 160s84 80.167 137 105.5s110.5 38 172.5 38c42 0 79.333 -6.66699 112 -20s61.334 -31.333 86.001 -54l4 58h260v-728c0 -16 4.5 -29.5 13.5 -40.5s21.167 -16.5 36.5 -16.5h47v-207
c-15.333 -5.33301 -31.666 -9.66602 -48.999 -12.999s-40.666 -5 -69.999 -5c-41.333 0 -77 6.33301 -107 19s-56.333 33.667 -79 63c-37.333 -31.333 -76.333 -54.166 -117 -68.499s-83 -21.5 -127 -21.5c-70 0 -132.5 12.5 -187.5 37.5s-101.5 60.667 -139.5 107
s-66.833 102.166 -86.5 167.499s-29.5 138 -29.5 218zM327.997 509.999c0 -100 15.332 -173.501 45.999 -220.501s79.334 -70.5 146.001 -70.5c62.667 0 109.167 22.833 139.5 68.5s45.5 117.834 45.5 216.501c0 98 -15.167 169.5 -45.5 214.5s-76.833 67.5 -139.5 67.5
c-32.667 0 -61 -6.33301 -85 -19s-44 -31 -60 -55s-27.833 -53 -35.5 -87s-11.5 -72.333 -11.5 -115zM841.996 1384c-0.666992 -45.333 -8.83301 -86.166 -24.5 -122.499s-36.667 -67.166 -63 -92.499s-56.833 -44.833 -91.5 -58.5s-71.334 -20.5 -110.001 -20.5
c-40 0 -77.5 6.83301 -112.5 20.5s-65.5 33.167 -91.5 58.5s-46.5 56.166 -61.5 92.499s-22.833 77.166 -23.5 122.499h188c0.666992 -16.667 3.83398 -31.667 9.50098 -45s13.167 -24.5 22.5 -33.5s20 -15.833 32 -20.5s24.333 -7 37 -7c24.667 0 46.5 9 65.5 27
s28.5 44.333 28.5 79h195z" />
    <glyph glyph-name="Aogonek" unicode="&#x104;" horiz-adv-x="1264" 
d="M877 309h-490l-111 -309h-301l527 1380h262l524 -1380h-299zM479 569h303l-151 418zM1245 -235c0 -38 6 -63.667 18 -77s29.333 -20 52 -20h22v-153c-4 -0.666992 -8.66699 -1.33398 -14 -2.00098c-4.66699 -0.666992 -10.5 -1.16699 -17.5 -1.5s-14.833 -0.5 -23.5 -0.5
c-44.667 0 -82.667 6.33301 -114 19s-57 30.834 -77 54.501s-34.5 52 -43.5 85s-13.5 70.167 -13.5 111.5v121h211v-137z" />
    <glyph glyph-name="aogonek" unicode="&#x105;" horiz-adv-x="1106" 
d="M61 516c0 72 10.9971 138.832 32.9971 200.499s52.167 115 90.5 160s84 80.167 137 105.5s110.5 38 172.5 38c42 0 79.333 -6.66699 112 -20s61.334 -31.333 86.001 -54l4 58h260v-728c0 -16 4.5 -29.5 13.5 -40.5s21.167 -16.5 36.5 -16.5h47v-207
c-15.333 -5.33301 -31.666 -9.66602 -48.999 -12.999s-40.666 -5 -69.999 -5c-41.333 0 -77 6.33301 -107 19s-56.333 33.667 -79 63c-37.333 -31.333 -76.333 -54.166 -117 -68.499s-83 -21.5 -127 -21.5c-70 0 -132.5 12.5 -187.5 37.5s-101.5 60.667 -139.5 107
s-66.833 102.166 -86.5 167.499s-29.5 138 -29.5 218zM327.997 509.999c0 -100 15.332 -173.501 45.999 -220.501s79.334 -70.5 146.001 -70.5c62.667 0 109.167 22.833 139.5 68.5s45.5 117.834 45.5 216.501c0 98 -15.167 169.5 -45.5 214.5s-76.833 67.5 -139.5 67.5
c-32.667 0 -61 -6.33301 -85 -19s-44 -31 -60 -55s-27.833 -53 -35.5 -87s-11.5 -72.333 -11.5 -115zM1042 -235.002c0 -38 6 -63.667 18 -77s29.333 -20 52 -20h22v-153c-4 -0.666992 -8.66699 -1.33398 -14 -2.00098c-4.66699 -0.666992 -10.5 -1.16699 -17.5 -1.5
s-14.833 -0.5 -23.5 -0.5c-44.667 0 -82.667 6.33301 -114 19s-57 30.834 -77 54.501s-34.5 52 -43.5 85s-13.5 70.167 -13.5 111.5v121h211v-137z" />
    <glyph glyph-name="Cacute" unicode="&#x106;" horiz-adv-x="1311" 
d="M1262 463c-12 -68.667 -32.335 -132.67 -61.002 -192.003s-66.167 -111 -112.5 -155s-102.166 -78.5 -167.499 -103.5s-140.333 -37.5 -225 -37.5c-99.333 0 -187.666 16.833 -264.999 50.5s-142.666 81.834 -195.999 144.501s-93.833 138 -121.5 226
s-41.5 186.667 -41.5 296c0 108.667 13.667 207 41 295s67.333 163 120 225s117 109.667 193 143s162.667 50 260 50c82 0 155.167 -12 219.5 -36s119.666 -57.167 165.999 -99.5s83.833 -92.333 112.5 -150s48.334 -120.167 59.001 -187.5h-295
c-13.333 70 -42.333 123.333 -87 160s-102.334 55 -173.001 55c-104 0 -184.333 -38.5 -241 -115.5s-85 -190.167 -85 -339.5c0 -75.333 7.66699 -141.666 23 -198.999s37.5 -105.166 66.5 -143.499s64 -67.333 105 -87s87.5 -29.5 139.5 -29.5c72.667 0 132 19 178 57
s76.333 95.667 91 173h297zM423.998 1511l215 313h295l-248 -313h-262z" />
    <glyph glyph-name="cacute" unicode="&#x107;" horiz-adv-x="1006" 
d="M684 657c-11.333 46.667 -30.4971 79.835 -57.4971 99.502s-60.5 29.5 -100.5 29.5c-64.667 0 -113.834 -22.833 -147.501 -68.5s-50.5 -116.834 -50.5 -213.501c0 -190 69 -285 207 -285c40.667 0 74 9.33301 100 28s45 49.667 57 93h266
c-11.333 -54 -29 -102.833 -53 -146.5s-54 -80.834 -90 -111.501s-77.5 -54.334 -124.5 -71.001s-98.833 -25 -155.5 -25c-72.667 0 -138.334 11.833 -197.001 35.5s-108.5 57.667 -149.5 102s-72.5 98.5 -94.5 162.5s-33 136.667 -33 218c0 80 11 152 33 216
s53.167 118.167 93.5 162.5s89.166 78.333 146.499 102s121.333 35.5 192 35.5c60.667 0 115.5 -9 164.5 -27s91.5 -43 127.5 -75s65.333 -70.167 88 -114.5s38 -93.166 46 -146.499h-268zM309.003 1112l215 313h295l-248 -313h-262z" />
    <glyph glyph-name="Ccircumflex" unicode="&#x108;" horiz-adv-x="1311" 
d="M1262 463c-12 -68.667 -32.335 -132.67 -61.002 -192.003s-66.167 -111 -112.5 -155s-102.166 -78.5 -167.499 -103.5s-140.333 -37.5 -225 -37.5c-99.333 0 -187.666 16.833 -264.999 50.5s-142.666 81.834 -195.999 144.501s-93.833 138 -121.5 226
s-41.5 186.667 -41.5 296c0 108.667 13.667 207 41 295s67.333 163 120 225s117 109.667 193 143s162.667 50 260 50c82 0 155.167 -12 219.5 -36s119.666 -57.167 165.999 -99.5s83.833 -92.333 112.5 -150s48.334 -120.167 59.001 -187.5h-295
c-13.333 70 -42.333 123.333 -87 160s-102.334 55 -173.001 55c-104 0 -184.333 -38.5 -241 -115.5s-85 -190.167 -85 -339.5c0 -75.333 7.66699 -141.666 23 -198.999s37.5 -105.166 66.5 -143.499s64 -67.333 105 -87s87.5 -29.5 139.5 -29.5c72.667 0 132 19 178 57
s76.333 95.667 91 173h297zM329.998 1477l213 313h272l213 -313h-260l-90 131l-90 -131h-258z" />
    <glyph glyph-name="ccircumflex" unicode="&#x109;" horiz-adv-x="1006" 
d="M684 657c-11.333 46.667 -30.4971 79.835 -57.4971 99.502s-60.5 29.5 -100.5 29.5c-64.667 0 -113.834 -22.833 -147.501 -68.5s-50.5 -116.834 -50.5 -213.501c0 -190 69 -285 207 -285c40.667 0 74 9.33301 100 28s45 49.667 57 93h266
c-11.333 -54 -29 -102.833 -53 -146.5s-54 -80.834 -90 -111.501s-77.5 -54.334 -124.5 -71.001s-98.833 -25 -155.5 -25c-72.667 0 -138.334 11.833 -197.001 35.5s-108.5 57.667 -149.5 102s-72.5 98.5 -94.5 162.5s-33 136.667 -33 218c0 80 11 152 33 216
s53.167 118.167 93.5 162.5s89.166 78.333 146.499 102s121.333 35.5 192 35.5c60.667 0 115.5 -9 164.5 -27s91.5 -43 127.5 -75s65.333 -70.167 88 -114.5s38 -93.166 46 -146.499h-268zM176.003 1102l213 313h272l213 -313h-260l-90 131l-90 -131h-258z" />
    <glyph glyph-name="Cdotaccent" unicode="&#x10a;" horiz-adv-x="1311" 
d="M1262 463c-12 -68.667 -32.335 -132.67 -61.002 -192.003s-66.167 -111 -112.5 -155s-102.166 -78.5 -167.499 -103.5s-140.333 -37.5 -225 -37.5c-99.333 0 -187.666 16.833 -264.999 50.5s-142.666 81.834 -195.999 144.501s-93.833 138 -121.5 226
s-41.5 186.667 -41.5 296c0 108.667 13.667 207 41 295s67.333 163 120 225s117 109.667 193 143s162.667 50 260 50c82 0 155.167 -12 219.5 -36s119.666 -57.167 165.999 -99.5s83.833 -92.333 112.5 -150s48.334 -120.167 59.001 -187.5h-295
c-13.333 70 -42.333 123.333 -87 160s-102.334 55 -173.001 55c-104 0 -184.333 -38.5 -241 -115.5s-85 -190.167 -85 -339.5c0 -75.333 7.66699 -141.666 23 -198.999s37.5 -105.166 66.5 -143.499s64 -67.333 105 -87s87.5 -29.5 139.5 -29.5c72.667 0 132 19 178 57
s76.333 95.667 91 173h297zM802.998 1508h-268v282h268v-282z" />
    <glyph glyph-name="cdotaccent" unicode="&#x10b;" horiz-adv-x="1006" 
d="M684 657c-11.333 46.667 -30.4971 79.835 -57.4971 99.502s-60.5 29.5 -100.5 29.5c-64.667 0 -113.834 -22.833 -147.501 -68.5s-50.5 -116.834 -50.5 -213.501c0 -190 69 -285 207 -285c40.667 0 74 9.33301 100 28s45 49.667 57 93h266
c-11.333 -54 -29 -102.833 -53 -146.5s-54 -80.834 -90 -111.501s-77.5 -54.334 -124.5 -71.001s-98.833 -25 -155.5 -25c-72.667 0 -138.334 11.833 -197.001 35.5s-108.5 57.667 -149.5 102s-72.5 98.5 -94.5 162.5s-33 136.667 -33 218c0 80 11 152 33 216
s53.167 118.167 93.5 162.5s89.166 78.333 146.499 102s121.333 35.5 192 35.5c60.667 0 115.5 -9 164.5 -27s91.5 -43 127.5 -75s65.333 -70.167 88 -114.5s38 -93.166 46 -146.499h-268zM655.003 1133h-268v282h268v-282z" />
    <glyph glyph-name="Ccaron" unicode="&#x10c;" horiz-adv-x="1311" 
d="M1262 463c-12 -68.667 -32.335 -132.67 -61.002 -192.003s-66.167 -111 -112.5 -155s-102.166 -78.5 -167.499 -103.5s-140.333 -37.5 -225 -37.5c-99.333 0 -187.666 16.833 -264.999 50.5s-142.666 81.834 -195.999 144.501s-93.833 138 -121.5 226
s-41.5 186.667 -41.5 296c0 108.667 13.667 207 41 295s67.333 163 120 225s117 109.667 193 143s162.667 50 260 50c82 0 155.167 -12 219.5 -36s119.666 -57.167 165.999 -99.5s83.833 -92.333 112.5 -150s48.334 -120.167 59.001 -187.5h-295
c-13.333 70 -42.333 123.333 -87 160s-102.334 55 -173.001 55c-104 0 -184.333 -38.5 -241 -115.5s-85 -190.167 -85 -339.5c0 -75.333 7.66699 -141.666 23 -198.999s37.5 -105.166 66.5 -143.499s64 -67.333 105 -87s87.5 -29.5 139.5 -29.5c72.667 0 132 19 178 57
s76.333 95.667 91 173h297zM595.998 1827l90 -137l40 59l50 78h260l-215 -313h-270l-213 313h258z" />
    <glyph glyph-name="ccaron" unicode="&#x10d;" horiz-adv-x="1006" 
d="M684 657c-11.333 46.667 -30.4971 79.835 -57.4971 99.502s-60.5 29.5 -100.5 29.5c-64.667 0 -113.834 -22.833 -147.501 -68.5s-50.5 -116.834 -50.5 -213.501c0 -190 69 -285 207 -285c40.667 0 74 9.33301 100 28s45 49.667 57 93h266
c-11.333 -54 -29 -102.833 -53 -146.5s-54 -80.834 -90 -111.501s-77.5 -54.334 -124.5 -71.001s-98.833 -25 -155.5 -25c-72.667 0 -138.334 11.833 -197.001 35.5s-108.5 57.667 -149.5 102s-72.5 98.5 -94.5 162.5s-33 136.667 -33 218c0 80 11 152 33 216
s53.167 118.167 93.5 162.5s89.166 78.333 146.499 102s121.333 35.5 192 35.5c60.667 0 115.5 -9 164.5 -27s91.5 -43 127.5 -75s65.333 -70.167 88 -114.5s38 -93.166 46 -146.499h-268zM443.003 1427l90 -137l40 59l50 78h260l-215 -313h-270l-213 313h258z" />
    <glyph glyph-name="Dcaron" unicode="&#x10e;" horiz-adv-x="1341" 
d="M662 1380c100 0 188 -16.999 264 -50.999s139.5 -81 190.5 -141s89.333 -130.667 115 -212s38.5 -169 38.5 -263c0 -108.667 -12.833 -206.834 -38.5 -294.501s-64 -162.5 -115 -224.5s-114.5 -109.833 -190.5 -143.5s-164 -50.5 -264 -50.5h-533v1380h533zM418 1122
v-864h244c211.333 0 317 150.333 317 451c0 63.333 -6.66699 120.5 -20 171.5s-33.333 94.333 -60 130s-59.667 63.167 -99 82.5s-85.333 29 -138 29h-244zM529 1827l90 -137l40 59l50 78h260l-215 -313h-270l-213 313h258z" />
    <glyph glyph-name="dcaron" unicode="&#x10f;" horiz-adv-x="1436" 
d="M61 514c0 69.333 9.50195 134.666 28.502 195.999s46 115 81 161s77.167 82.333 126.5 109s104 40 164 40c30 0 56.167 -2 78.5 -6s42.333 -9.33301 60 -16s33.667 -14.667 48 -24s28.5 -19.333 42.5 -30v440h264v-1384h-260l-4 66
c-11.333 -9.33301 -24.333 -18.666 -39 -27.999s-31.334 -17.833 -50.001 -25.5s-39.334 -14 -62.001 -19s-47.334 -7.5 -74.001 -7.5c-49.333 0 -98.166 10.333 -146.499 31s-91.5 52.5 -129.5 95.5s-68.833 97.667 -92.5 164s-35.5 145.5 -35.5 237.5zM516.002 219
c66 0 113.167 22.832 141.5 68.499s42.5 116.5 42.5 212.5c0 99.333 -16.167 171.833 -48.5 217.5s-78.833 68.5 -139.5 68.5c-32 0 -59.667 -6.83301 -83 -20.5s-42.5 -32.667 -57.5 -57s-26 -53.666 -33 -87.999s-10.5 -71.833 -10.5 -112.5
c0 -97.333 14.667 -169.833 44 -217.5s77.333 -71.5 144 -71.5zM1151 1003v377h236v-377h-236z" />
    <glyph glyph-name="Dcroat" unicode="&#x110;" horiz-adv-x="1395" 
d="M715 1380c100 0 188 -16.999 264 -50.999s139.5 -81 190.5 -141s89.333 -130.667 115 -212s38.5 -169 38.5 -263c0 -108.667 -12.833 -206.834 -38.5 -294.501s-64 -162.5 -115 -224.5s-114.5 -109.833 -190.5 -143.5s-164 -50.5 -264 -50.5h-533v592h-151v225h151v563
h533zM471 1122v-305h256v-225h-256v-334h244c211.333 0 317 150.333 317 451c0 63.333 -6.66699 120.5 -20 171.5s-33.166 94.333 -59.499 130s-59.333 63.167 -99 82.5s-85.834 29 -138.501 29h-244z" />
    <glyph glyph-name="dcroat" unicode="&#x111;" horiz-adv-x="1069" 
d="M381 1292l309.002 -0.000976562v92h264v-92h80v-198h-80v-1094h-264v66c-10.667 -9.33301 -23.334 -18.666 -38.001 -27.999s-31.334 -17.833 -50.001 -25.5s-39.5 -14 -62.5 -19s-47.833 -7.5 -74.5 -7.5c-54 0 -105.333 12.5 -154 37.5s-91.5 60.5 -128.5 106.5
s-66.5 101.5 -88.5 166.5s-33 137.5 -33 217.5c0 70.667 10.5 136.834 31.5 198.501s49.5 115.167 85.5 160.5s78.333 81.166 127 107.499s100.667 39.5 156 39.5c30 0 56.333 -2 79 -6s43 -9.33301 61 -16s34 -14.667 48 -24s27.667 -19.333 41 -30v150h-309v198z
M514.002 212.999c66.667 0 114.332 23.835 142.999 71.502s43 119.5 43 215.5c0 99.333 -16.5 172.666 -49.5 219.999s-79.833 71 -140.5 71c-30.667 0 -57.5 -7 -80.5 -21s-42 -33.667 -57 -59s-26.167 -55.333 -33.5 -90s-11 -72.334 -11 -113.001
c0 -95.333 15.833 -168.333 47.5 -219s77.834 -76 138.501 -76z" />
    <glyph glyph-name="Emacron" unicode="&#x112;" horiz-adv-x="1204" 
d="M1114 1116h-696v-285h588v-264h-588v-303h696v-264h-985v1380h985v-264zM291 1731h635v-193h-635v193z" />
    <glyph glyph-name="emacron" unicode="&#x113;" horiz-adv-x="1038" 
d="M952 322c-15.333 -51.333 -35.4971 -97.665 -60.4971 -138.998s-55.333 -76.666 -91 -105.999s-76.667 -51.833 -123 -67.5s-98.166 -23.5 -155.499 -23.5c-70.667 0 -134.334 11.667 -191.001 35s-105 57.166 -145 101.499s-70.833 98.666 -92.5 162.999
s-32.5 137.166 -32.5 218.499c0 79.333 10.667 150.833 32 214.5s52 117.834 92 162.501s88.667 79 146 103s121.666 36 192.999 36c72.667 0 137.167 -13.167 193.5 -39.5s103.666 -62.166 141.999 -107.499s67.5 -98.333 87.5 -159s30 -125.334 30 -194.001
c0 -26.667 -1.33301 -51 -4 -73s-4.66699 -35.667 -6 -41h-635c4 -36.667 12 -67 24 -91s26.5 -43.167 43.5 -57.5s36.167 -24.333 57.5 -30s43.666 -8.5 66.999 -8.5c16 0 31.833 1.5 47.5 4.5s30.5 8.5 44.5 16.5s26.833 18.667 38.5 32s21.5 30.666 29.5 51.999z
M522.003 791.001c-54 0 -96.333 -16.332 -127 -48.999s-51 -79.334 -61 -140.001h371c-2 27.333 -7.5 52.5 -16.5 75.5s-21 43 -36 60s-33.5 30.167 -55.5 39.5s-47 14 -75 14zM209.003 1356h635v-193h-635v193z" />
    <glyph glyph-name="Ebreve" unicode="&#x114;" horiz-adv-x="1204" 
d="M1114 1116h-696v-285h588v-264h-588v-303h696v-264h-985v1380h985v-264zM920 1759c-0.666992 -45.333 -8.83301 -86.166 -24.5 -122.499s-36.667 -67.166 -63 -92.499s-56.833 -44.833 -91.5 -58.5s-71.334 -20.5 -110.001 -20.5c-40 0 -77.5 6.83301 -112.5 20.5
s-65.5 33.167 -91.5 58.5s-46.5 56.166 -61.5 92.499s-22.833 77.166 -23.5 122.499h188c0.666992 -16.667 3.83398 -31.667 9.50098 -45s13.167 -24.5 22.5 -33.5s20 -15.833 32 -20.5s24.333 -7 37 -7c24.667 0 46.5 9 65.5 27s28.5 44.333 28.5 79h195z" />
    <glyph glyph-name="ebreve" unicode="&#x115;" horiz-adv-x="1038" 
d="M952 322c-15.333 -51.333 -35.4971 -97.665 -60.4971 -138.998s-55.333 -76.666 -91 -105.999s-76.667 -51.833 -123 -67.5s-98.166 -23.5 -155.499 -23.5c-70.667 0 -134.334 11.667 -191.001 35s-105 57.166 -145 101.499s-70.833 98.666 -92.5 162.999
s-32.5 137.166 -32.5 218.499c0 79.333 10.667 150.833 32 214.5s52 117.834 92 162.501s88.667 79 146 103s121.666 36 192.999 36c72.667 0 137.167 -13.167 193.5 -39.5s103.666 -62.166 141.999 -107.499s67.5 -98.333 87.5 -159s30 -125.334 30 -194.001
c0 -26.667 -1.33301 -51 -4 -73s-4.66699 -35.667 -6 -41h-635c4 -36.667 12 -67 24 -91s26.5 -43.167 43.5 -57.5s36.167 -24.333 57.5 -30s43.666 -8.5 66.999 -8.5c16 0 31.833 1.5 47.5 4.5s30.5 8.5 44.5 16.5s26.833 18.667 38.5 32s21.5 30.666 29.5 51.999z
M522.003 791.001c-54 0 -96.333 -16.332 -127 -48.999s-51 -79.334 -61 -140.001h371c-2 27.333 -7.5 52.5 -16.5 75.5s-21 43 -36 60s-33.5 30.167 -55.5 39.5s-47 14 -75 14zM807.003 1384c-0.666992 -45.333 -8.83301 -86.166 -24.5 -122.499
s-36.667 -67.166 -63 -92.499s-56.833 -44.833 -91.5 -58.5s-71.334 -20.5 -110.001 -20.5c-40 0 -77.5 6.83301 -112.5 20.5s-65.5 33.167 -91.5 58.5s-46.5 56.166 -61.5 92.499s-22.833 77.166 -23.5 122.499h188c0.666992 -16.667 3.83398 -31.667 9.50098 -45
s13.167 -24.5 22.5 -33.5s20 -15.833 32 -20.5s24.333 -7 37 -7c24.667 0 46.5 9 65.5 27s28.5 44.333 28.5 79h195z" />
    <glyph glyph-name="Edotaccent" unicode="&#x116;" horiz-adv-x="1204" 
d="M1114 1116h-696v-285h588v-264h-588v-303h696v-264h-985v1380h985v-264zM752 1499h-268v282h268v-282z" />
    <glyph glyph-name="edotaccent" unicode="&#x117;" horiz-adv-x="1038" 
d="M952 322c-15.333 -51.333 -35.4971 -97.665 -60.4971 -138.998s-55.333 -76.666 -91 -105.999s-76.667 -51.833 -123 -67.5s-98.166 -23.5 -155.499 -23.5c-70.667 0 -134.334 11.667 -191.001 35s-105 57.166 -145 101.499s-70.833 98.666 -92.5 162.999
s-32.5 137.166 -32.5 218.499c0 79.333 10.667 150.833 32 214.5s52 117.834 92 162.501s88.667 79 146 103s121.666 36 192.999 36c72.667 0 137.167 -13.167 193.5 -39.5s103.666 -62.166 141.999 -107.499s67.5 -98.333 87.5 -159s30 -125.334 30 -194.001
c0 -26.667 -1.33301 -51 -4 -73s-4.66699 -35.667 -6 -41h-635c4 -36.667 12 -67 24 -91s26.5 -43.167 43.5 -57.5s36.167 -24.333 57.5 -30s43.666 -8.5 66.999 -8.5c16 0 31.833 1.5 47.5 4.5s30.5 8.5 44.5 16.5s26.833 18.667 38.5 32s21.5 30.666 29.5 51.999z
M522.003 791.001c-54 0 -96.333 -16.332 -127 -48.999s-51 -79.334 -61 -140.001h371c-2 27.333 -7.5 52.5 -16.5 75.5s-21 43 -36 60s-33.5 30.167 -55.5 39.5s-47 14 -75 14zM662.003 1133h-268v282h268v-282z" />
    <glyph glyph-name="Eogonek" unicode="&#x118;" horiz-adv-x="1204" 
d="M1114 1116h-696v-285h588v-264h-588v-303h696v-264h-985v1380h985v-264zM717 -231c0 -38 6 -63.667 18 -77s29.333 -20 52 -20h22v-153c-4 -0.666992 -8.66699 -1.33398 -14 -2.00098c-4.66699 -0.666992 -10.5 -1.16699 -17.5 -1.5s-14.833 -0.5 -23.5 -0.5
c-44.667 0 -82.667 6.33301 -114 19s-57 30.834 -77 54.501s-34.5 52 -43.5 85s-13.5 70.167 -13.5 111.5v121h211v-137z" />
    <glyph glyph-name="eogonek" unicode="&#x119;" horiz-adv-x="1038" 
d="M952 322c-15.333 -51.333 -35.4971 -97.665 -60.4971 -138.998s-55.333 -76.666 -91 -105.999s-76.667 -51.833 -123 -67.5s-98.166 -23.5 -155.499 -23.5c-70.667 0 -134.334 11.667 -191.001 35s-105 57.166 -145 101.499s-70.833 98.666 -92.5 162.999
s-32.5 137.166 -32.5 218.499c0 79.333 10.667 150.833 32 214.5s52 117.834 92 162.501s88.667 79 146 103s121.666 36 192.999 36c72.667 0 137.167 -13.167 193.5 -39.5s103.666 -62.166 141.999 -107.499s67.5 -98.333 87.5 -159s30 -125.334 30 -194.001
c0 -26.667 -1.33301 -51 -4 -73s-4.66699 -35.667 -6 -41h-635c4 -36.667 12 -67 24 -91s26.5 -43.167 43.5 -57.5s36.167 -24.333 57.5 -30s43.666 -8.5 66.999 -8.5c16 0 31.833 1.5 47.5 4.5s30.5 8.5 44.5 16.5s26.833 18.667 38.5 32s21.5 30.666 29.5 51.999z
M522.003 791.001c-54 0 -96.333 -16.332 -127 -48.999s-51 -79.334 -61 -140.001h371c-2 27.333 -7.5 52.5 -16.5 75.5s-21 43 -36 60s-33.5 30.167 -55.5 39.5s-47 14 -75 14zM606.003 -234.998c0 -38 6 -63.667 18 -77s29.333 -20 52 -20h22v-153
c-4 -0.666992 -8.66699 -1.33398 -14 -2.00098c-4.66699 -0.666992 -10.5 -1.16699 -17.5 -1.5s-14.833 -0.5 -23.5 -0.5c-44.667 0 -82.667 6.33301 -114 19s-57 30.834 -77 54.501s-34.5 52 -43.5 85s-13.5 70.167 -13.5 111.5v121h211v-137z" />
    <glyph glyph-name="Ecaron" unicode="&#x11a;" horiz-adv-x="1204" 
d="M1114 1116h-696v-285h588v-264h-588v-303h696v-264h-985v1380h985v-264zM531 1825l90 -137l40 59l50 78h260l-215 -313h-270l-213 313h258z" />
    <glyph glyph-name="ecaron" unicode="&#x11b;" horiz-adv-x="1038" 
d="M952 322c-15.333 -51.333 -35.4971 -97.665 -60.4971 -138.998s-55.333 -76.666 -91 -105.999s-76.667 -51.833 -123 -67.5s-98.166 -23.5 -155.499 -23.5c-70.667 0 -134.334 11.667 -191.001 35s-105 57.166 -145 101.499s-70.833 98.666 -92.5 162.999
s-32.5 137.166 -32.5 218.499c0 79.333 10.667 150.833 32 214.5s52 117.834 92 162.501s88.667 79 146 103s121.666 36 192.999 36c72.667 0 137.167 -13.167 193.5 -39.5s103.666 -62.166 141.999 -107.499s67.5 -98.333 87.5 -159s30 -125.334 30 -194.001
c0 -26.667 -1.33301 -51 -4 -73s-4.66699 -35.667 -6 -41h-635c4 -36.667 12 -67 24 -91s26.5 -43.167 43.5 -57.5s36.167 -24.333 57.5 -30s43.666 -8.5 66.999 -8.5c16 0 31.833 1.5 47.5 4.5s30.5 8.5 44.5 16.5s26.833 18.667 38.5 32s21.5 30.666 29.5 51.999z
M522.003 791.001c-54 0 -96.333 -16.332 -127 -48.999s-51 -79.334 -61 -140.001h371c-2 27.333 -7.5 52.5 -16.5 75.5s-21 43 -36 60s-33.5 30.167 -55.5 39.5s-47 14 -75 14zM432.003 1427l90 -137l40 59l50 78h260l-215 -313h-270l-213 313h258z" />
    <glyph glyph-name="Gcircumflex" unicode="&#x11c;" horiz-adv-x="1337" 
d="M948 942c-5.33301 32.667 -15.501 61.832 -30.501 87.499s-34.167 47.334 -57.5 65.001s-50.166 31.167 -80.499 40.5s-62.833 14 -97.5 14c-106 0 -185.833 -38.833 -239.5 -116.5s-80.5 -191.167 -80.5 -340.5c0 -151.333 26.167 -266 78.5 -344s131.5 -117 237.5 -117
c48.667 0 91 6.83301 127 20.5s65.667 31.5 89 53.5s40.666 47.167 51.999 75.5s17 57.166 17 86.499v63h-371v258h659v-266c0 -74 -11 -144 -33 -210s-56.333 -124 -103 -174s-106.167 -89.667 -178.5 -119s-158.5 -44 -258.5 -44c-99.333 0 -186.666 16.833 -261.999 50.5
s-138.5 81.834 -189.5 144.501s-89.5 138 -115.5 226s-39 186.667 -39 296c0 108.667 13.333 207 40 295s65.834 163 117.501 225s115.5 109.667 191.5 143s163 50 261 50c80.667 0 153.5 -12.167 218.5 -36.5s121.167 -57.333 168.5 -99s85.666 -90.667 114.999 -147
s48.333 -116.5 57 -180.5h-293zM331.999 1477l213 313h272l213 -313h-260l-90 131l-90 -131h-258z" />
    <glyph glyph-name="gcircumflex" unicode="&#x11d;" horiz-adv-x="1069" 
d="M356 -78c4 -14 10.334 -27.165 19.001 -39.498s19.667 -23.333 33 -33s28.666 -17.334 45.999 -23.001s36.666 -8.5 57.999 -8.5c32.667 0 60.334 4.33301 83.001 13s41 23 55 43s24.167 46 30.5 78s9.5 71.333 9.5 118c-21.333 -18.667 -48.666 -35 -81.999 -49
s-75 -21 -125 -21c-67.333 0 -127.166 12.5 -179.499 37.5s-96.5 60.167 -132.5 105.5s-63.333 99.833 -82 163.5s-28 134.167 -28 211.5c0 70 10.167 135.667 30.5 197s49 114.5 86 159.5s81.667 80.5 134 106.5s110.166 39 173.499 39c42 0 80 -7.83301 114 -23.5
s64.333 -35.834 91 -60.501l4 68h260v-916c0 -165.333 -37.5 -288.5 -112.5 -369.5s-184.833 -121.5 -329.5 -121.5c-63.333 0 -119 8.33301 -167 25s-89 39.5 -123 68.5s-61.833 63.333 -83.5 103s-37.834 82.5 -48.501 128.5h266zM328.001 510.002
c0 -97.333 15.168 -168.831 45.501 -214.498s77.833 -68.5 142.5 -68.5c61.333 0 107 22.333 137 67s45 115.334 45 212.001s-14.833 167.167 -44.5 211.5s-75.5 66.5 -137.5 66.5c-32 0 -59.833 -6.33301 -83.5 -19s-43.334 -30.834 -59.001 -54.501
s-27.167 -52.334 -34.5 -86.001s-11 -71.834 -11 -114.501zM229.002 1102l213 313h272l213 -313h-260l-90 131l-90 -131h-258z" />
    <glyph glyph-name="Gbreve" unicode="&#x11e;" horiz-adv-x="1337" 
d="M948 942c-5.33301 32.667 -15.501 61.832 -30.501 87.499s-34.167 47.334 -57.5 65.001s-50.166 31.167 -80.499 40.5s-62.833 14 -97.5 14c-106 0 -185.833 -38.833 -239.5 -116.5s-80.5 -191.167 -80.5 -340.5c0 -151.333 26.167 -266 78.5 -344s131.5 -117 237.5 -117
c48.667 0 91 6.83301 127 20.5s65.667 31.5 89 53.5s40.666 47.167 51.999 75.5s17 57.166 17 86.499v63h-371v258h659v-266c0 -74 -11 -144 -33 -210s-56.333 -124 -103 -174s-106.167 -89.667 -178.5 -119s-158.5 -44 -258.5 -44c-99.333 0 -186.666 16.833 -261.999 50.5
s-138.5 81.834 -189.5 144.501s-89.5 138 -115.5 226s-39 186.667 -39 296c0 108.667 13.333 207 40 295s65.834 163 117.501 225s115.5 109.667 191.5 143s163 50 261 50c80.667 0 153.5 -12.167 218.5 -36.5s121.167 -57.333 168.5 -99s85.666 -90.667 114.999 -147
s48.333 -116.5 57 -180.5h-293zM966.999 1759c-0.666992 -45.333 -8.83301 -86.166 -24.5 -122.499s-36.667 -67.166 -63 -92.499s-56.833 -44.833 -91.5 -58.5s-71.334 -20.5 -110.001 -20.5c-40 0 -77.5 6.83301 -112.5 20.5s-65.5 33.167 -91.5 58.5
s-46.5 56.166 -61.5 92.499s-22.833 77.166 -23.5 122.499h188c0.666992 -16.667 3.83398 -31.667 9.50098 -45s13.167 -24.5 22.5 -33.5s20 -15.833 32 -20.5s24.333 -7 37 -7c24.667 0 46.5 9 65.5 27s28.5 44.333 28.5 79h195z" />
    <glyph glyph-name="gbreve" unicode="&#x11f;" horiz-adv-x="1069" 
d="M356 -78c4 -14 10.334 -27.165 19.001 -39.498s19.667 -23.333 33 -33s28.666 -17.334 45.999 -23.001s36.666 -8.5 57.999 -8.5c32.667 0 60.334 4.33301 83.001 13s41 23 55 43s24.167 46 30.5 78s9.5 71.333 9.5 118c-21.333 -18.667 -48.666 -35 -81.999 -49
s-75 -21 -125 -21c-67.333 0 -127.166 12.5 -179.499 37.5s-96.5 60.167 -132.5 105.5s-63.333 99.833 -82 163.5s-28 134.167 -28 211.5c0 70 10.167 135.667 30.5 197s49 114.5 86 159.5s81.667 80.5 134 106.5s110.166 39 173.499 39c42 0 80 -7.83301 114 -23.5
s64.333 -35.834 91 -60.501l4 68h260v-916c0 -165.333 -37.5 -288.5 -112.5 -369.5s-184.833 -121.5 -329.5 -121.5c-63.333 0 -119 8.33301 -167 25s-89 39.5 -123 68.5s-61.833 63.333 -83.5 103s-37.834 82.5 -48.501 128.5h266zM328.001 510.002
c0 -97.333 15.168 -168.831 45.501 -214.498s77.833 -68.5 142.5 -68.5c61.333 0 107 22.333 137 67s45 115.334 45 212.001s-14.833 167.167 -44.5 211.5s-75.5 66.5 -137.5 66.5c-32 0 -59.833 -6.33301 -83.5 -19s-43.334 -30.834 -59.001 -54.501
s-27.167 -52.334 -34.5 -86.001s-11 -71.834 -11 -114.501zM863.002 1384c-0.666992 -45.333 -8.83301 -86.166 -24.5 -122.499s-36.667 -67.166 -63 -92.499s-56.833 -44.833 -91.5 -58.5s-71.334 -20.5 -110.001 -20.5c-40 0 -77.5 6.83301 -112.5 20.5
s-65.5 33.167 -91.5 58.5s-46.5 56.166 -61.5 92.499s-22.833 77.166 -23.5 122.499h188c0.666992 -16.667 3.83398 -31.667 9.50098 -45s13.167 -24.5 22.5 -33.5s20 -15.833 32 -20.5s24.333 -7 37 -7c24.667 0 46.5 9 65.5 27s28.5 44.333 28.5 79h195z" />
    <glyph glyph-name="Gdotaccent" unicode="&#x120;" horiz-adv-x="1337" 
d="M948 942c-5.33301 32.667 -15.501 61.832 -30.501 87.499s-34.167 47.334 -57.5 65.001s-50.166 31.167 -80.499 40.5s-62.833 14 -97.5 14c-106 0 -185.833 -38.833 -239.5 -116.5s-80.5 -191.167 -80.5 -340.5c0 -151.333 26.167 -266 78.5 -344s131.5 -117 237.5 -117
c48.667 0 91 6.83301 127 20.5s65.667 31.5 89 53.5s40.666 47.167 51.999 75.5s17 57.166 17 86.499v63h-371v258h659v-266c0 -74 -11 -144 -33 -210s-56.333 -124 -103 -174s-106.167 -89.667 -178.5 -119s-158.5 -44 -258.5 -44c-99.333 0 -186.666 16.833 -261.999 50.5
s-138.5 81.834 -189.5 144.501s-89.5 138 -115.5 226s-39 186.667 -39 296c0 108.667 13.333 207 40 295s65.834 163 117.501 225s115.5 109.667 191.5 143s163 50 261 50c80.667 0 153.5 -12.167 218.5 -36.5s121.167 -57.333 168.5 -99s85.666 -90.667 114.999 -147
s48.333 -116.5 57 -180.5h-293zM804.999 1508h-268v282h268v-282z" />
    <glyph glyph-name="gdotaccent" unicode="&#x121;" horiz-adv-x="1069" 
d="M356 -78c4 -14 10.334 -27.165 19.001 -39.498s19.667 -23.333 33 -33s28.666 -17.334 45.999 -23.001s36.666 -8.5 57.999 -8.5c32.667 0 60.334 4.33301 83.001 13s41 23 55 43s24.167 46 30.5 78s9.5 71.333 9.5 118c-21.333 -18.667 -48.666 -35 -81.999 -49
s-75 -21 -125 -21c-67.333 0 -127.166 12.5 -179.499 37.5s-96.5 60.167 -132.5 105.5s-63.333 99.833 -82 163.5s-28 134.167 -28 211.5c0 70 10.167 135.667 30.5 197s49 114.5 86 159.5s81.667 80.5 134 106.5s110.166 39 173.499 39c42 0 80 -7.83301 114 -23.5
s64.333 -35.834 91 -60.501l4 68h260v-916c0 -165.333 -37.5 -288.5 -112.5 -369.5s-184.833 -121.5 -329.5 -121.5c-63.333 0 -119 8.33301 -167 25s-89 39.5 -123 68.5s-61.833 63.333 -83.5 103s-37.834 82.5 -48.501 128.5h266zM328.001 510.002
c0 -97.333 15.168 -168.831 45.501 -214.498s77.833 -68.5 142.5 -68.5c61.333 0 107 22.333 137 67s45 115.334 45 212.001s-14.833 167.167 -44.5 211.5s-75.5 66.5 -137.5 66.5c-32 0 -59.833 -6.33301 -83.5 -19s-43.334 -30.834 -59.001 -54.501
s-27.167 -52.334 -34.5 -86.001s-11 -71.834 -11 -114.501zM705.002 1133h-268v282h268v-282z" />
    <glyph glyph-name="Gcommaaccent" unicode="&#x122;" horiz-adv-x="1337" 
d="M948 942c-5.33301 32.667 -15.501 61.832 -30.501 87.499s-34.167 47.334 -57.5 65.001s-50.166 31.167 -80.499 40.5s-62.833 14 -97.5 14c-106 0 -185.833 -38.833 -239.5 -116.5s-80.5 -191.167 -80.5 -340.5c0 -151.333 26.167 -266 78.5 -344s131.5 -117 237.5 -117
c48.667 0 91 6.83301 127 20.5s65.667 31.5 89 53.5s40.666 47.167 51.999 75.5s17 57.166 17 86.499v63h-371v258h659v-266c0 -74 -11 -144 -33 -210s-56.333 -124 -103 -174s-106.167 -89.667 -178.5 -119s-158.5 -44 -258.5 -44c-99.333 0 -186.666 16.833 -261.999 50.5
s-138.5 81.834 -189.5 144.501s-89.5 138 -115.5 226s-39 186.667 -39 296c0 108.667 13.333 207 40 295s65.834 163 117.501 225s115.5 109.667 191.5 143s163 50 261 50c80.667 0 153.5 -12.167 218.5 -36.5s121.167 -57.333 168.5 -99s85.666 -90.667 114.999 -147
s48.333 -116.5 57 -180.5h-293zM593.999 -98.002h211.001v-121c0 -41.333 -4.5 -78.5 -13.5 -111.5s-23.5 -61.333 -43.5 -85s-45.667 -41.834 -77 -54.501s-69.333 -19 -114 -19c-9.33301 0 -17.333 0.166992 -24 0.5s-12.334 0.833008 -17.001 1.5
c-5.33301 0.666992 -10 1.33398 -14 2.00098v153h22c22.667 0 40 6.66699 52 20s18 39 18 77v137z" />
    <glyph glyph-name="gcommaaccent" unicode="&#x123;" horiz-adv-x="1069" 
d="M356 -78c4 -14 10.334 -27.165 19.001 -39.498s19.667 -23.333 33 -33s28.666 -17.334 45.999 -23.001s36.666 -8.5 57.999 -8.5c32.667 0 60.334 4.33301 83.001 13s41 23 55 43s24.167 46 30.5 78s9.5 71.333 9.5 118c-21.333 -18.667 -48.666 -35 -81.999 -49
s-75 -21 -125 -21c-67.333 0 -127.166 12.5 -179.499 37.5s-96.5 60.167 -132.5 105.5s-63.333 99.833 -82 163.5s-28 134.167 -28 211.5c0 70 10.167 135.667 30.5 197s49 114.5 86 159.5s81.667 80.5 134 106.5s110.166 39 173.499 39c42 0 80 -7.83301 114 -23.5
s64.333 -35.834 91 -60.501l4 68h260v-916c0 -165.333 -37.5 -288.5 -112.5 -369.5s-184.833 -121.5 -329.5 -121.5c-63.333 0 -119 8.33301 -167 25s-89 39.5 -123 68.5s-61.833 63.333 -83.5 103s-37.834 82.5 -48.501 128.5h266zM328.001 510.002
c0 -97.333 15.168 -168.831 45.501 -214.498s77.833 -68.5 142.5 -68.5c61.333 0 107 22.333 137 67s45 115.334 45 212.001s-14.833 167.167 -44.5 211.5s-75.5 66.5 -137.5 66.5c-32 0 -59.833 -6.33301 -83.5 -19s-43.334 -30.834 -59.001 -54.501
s-27.167 -52.334 -34.5 -86.001s-11 -71.834 -11 -114.501zM354.002 1112l215 313h295l-248 -313h-262z" />
    <glyph glyph-name="Hcircumflex" unicode="&#x124;" horiz-adv-x="1325" 
d="M1196 0h-289v569h-489v-569h-289v1380h289v-542h489v542h289v-1380zM320 1477l213 313h272l213 -313h-260l-90 131l-90 -131h-258z" />
    <glyph glyph-name="hcircumflex" unicode="&#x125;" horiz-adv-x="1073" 
d="M121 0l-0.000976562 1384h264v-452c35.333 25.333 74 45.666 116 60.999s83 23 123 23c54.667 0 103.5 -9.66699 146.5 -29s79.333 -46.333 109 -81s52.334 -76.334 68.001 -125.001s23.5 -102 23.5 -160v-621h-265v604c0 34 -4.5 62.333 -13.5 85
s-20.5 40.834 -34.5 54.501s-29.5 23.5 -46.5 29.5s-33.833 9 -50.5 9c-28 0 -53 -4.33301 -75 -13s-40.5 -23.334 -55.5 -44.001s-26.333 -48.334 -34 -83.001s-11.5 -78 -11.5 -130v-512h-264zM216.999 1477l213 313h272l213 -313h-260l-90 131l-90 -131h-258z" />
    <glyph glyph-name="Hbar" unicode="&#x126;" horiz-adv-x="1323" 
d="M1196 1284h94v-223h-94v-1061h-289v580h-489v-580h-289v1061h-96v223h96v96h289v-96h489v96h289v-96zM907 1061h-489v-234h489v234z" />
    <glyph glyph-name="hbar" unicode="&#x127;" horiz-adv-x="1067" 
d="M37 1292l78.002 0.000976562v92h266v-92h309v-198h-309v-158c35.333 24.667 73.666 44.167 114.999 58.5s82 21.5 122 21.5c54.667 0 103.5 -9.66699 146.5 -29s79.333 -46.333 109 -81s52.334 -76.334 68.001 -125.001s23.5 -102 23.5 -160v-621h-265v602
c0 34 -4.33301 62.5 -13 85.5s-20 41.5 -34 55.5s-29.667 24 -47 30s-34.333 9 -51 9c-28 0 -52.833 -4.33301 -74.5 -13s-39.834 -23.334 -54.501 -44.001s-25.834 -48.167 -33.501 -82.5s-11.5 -77.166 -11.5 -128.499v-514h-266v1094h-78v198z" />
    <glyph glyph-name="Itilde" unicode="&#x128;" horiz-adv-x="551" 
d="M420 0h-289v1380h289v-1380zM625 1759c-3.33301 -38 -10.832 -73.502 -22.499 -106.502s-26.834 -61.667 -45.501 -86s-40.667 -43.666 -66 -57.999s-53.333 -21.5 -84 -21.5c-32 0 -63.167 6 -93.5 18s-57.166 23.667 -80.499 35
c-13.333 6.66699 -24.833 12.167 -34.5 16.5s-21.167 6.5 -34.5 6.5c-14.667 0 -24.834 -6.33301 -30.501 -19s-10.5 -29.667 -14.5 -51h-193c4.66699 37.333 12.834 72.333 24.501 105s27.167 61 46.5 85s42.666 43 69.999 57s59.666 21 96.999 21
c22.667 0 44.5 -4 65.5 -12s44.167 -18.333 69.5 -31c23.333 -11.333 41.333 -19.166 54 -23.499s25.334 -6.5 38.001 -6.5s22.5 7.5 29.5 22.5s12.167 31.167 15.5 48.5h189z" />
    <glyph glyph-name="itilde" unicode="&#x129;" horiz-adv-x="504" 
d="M383 0h-264v1004h264v-1004zM601 1384c-3.33301 -38 -10.832 -73.502 -22.499 -106.502s-26.834 -61.667 -45.501 -86s-40.667 -43.666 -66 -57.999s-53.333 -21.5 -84 -21.5c-32 0 -63.167 6 -93.5 18s-57.166 23.667 -80.499 35
c-13.333 6.66699 -24.833 12.167 -34.5 16.5s-21.167 6.5 -34.5 6.5c-14.667 0 -24.834 -6.33301 -30.501 -19s-10.5 -29.667 -14.5 -51h-193c4.66699 37.333 12.834 72.333 24.501 105s27.167 61 46.5 85s42.666 43 69.999 57s59.666 21 96.999 21
c22.667 0 44.5 -4 65.5 -12s44.167 -18.333 69.5 -31c23.333 -11.333 41.333 -19.166 54 -23.499s25.334 -6.5 38.001 -6.5s22.5 7.5 29.5 22.5s12.167 31.167 15.5 48.5h189z" />
    <glyph glyph-name="Imacron" unicode="&#x12a;" horiz-adv-x="551" 
d="M420 0h-289v1380h289v-1380zM-39 1731h635v-193h-635v193z" />
    <glyph glyph-name="imacron" unicode="&#x12b;" horiz-adv-x="504" 
d="M385 0h-264v1004h264v-1004zM-66 1356h635v-193h-635v193z" />
    <glyph glyph-name="Ibreve" unicode="&#x12c;" horiz-adv-x="551" 
d="M420 0h-289v1380h289v-1380zM564 1759c-0.666992 -45.333 -8.83301 -86.166 -24.5 -122.499s-36.667 -67.166 -63 -92.499s-56.833 -44.833 -91.5 -58.5s-71.334 -20.5 -110.001 -20.5c-40 0 -77.5 6.83301 -112.5 20.5s-65.5 33.167 -91.5 58.5
s-46.5 56.166 -61.5 92.499s-22.833 77.166 -23.5 122.499h188c0.666992 -16.667 3.83398 -31.667 9.50098 -45s13.167 -24.5 22.5 -33.5s20 -15.833 32 -20.5s24.333 -7 37 -7c24.667 0 46.5 9 65.5 27s28.5 44.333 28.5 79h195z" />
    <glyph glyph-name="ibreve" unicode="&#x12d;" horiz-adv-x="504" 
d="M383 0h-264v1004h264v-1004zM541 1384c-0.666992 -45.333 -8.83301 -86.166 -24.5 -122.499s-36.667 -67.166 -63 -92.499s-56.833 -44.833 -91.5 -58.5s-71.334 -20.5 -110.001 -20.5c-40 0 -77.5 6.83301 -112.5 20.5s-65.5 33.167 -91.5 58.5
s-46.5 56.166 -61.5 92.499s-22.833 77.166 -23.5 122.499h188c0.666992 -16.667 3.83398 -31.667 9.50098 -45s13.167 -24.5 22.5 -33.5s20 -15.833 32 -20.5s24.333 -7 37 -7c24.667 0 46.5 9 65.5 27s28.5 44.333 28.5 79h195z" />
    <glyph glyph-name="Iogonek" unicode="&#x12e;" horiz-adv-x="551" 
d="M420 0h-289v1380h289v-1380zM371 -231c0 -38 6 -63.667 18 -77s29.333 -20 52 -20h22v-153c-4 -0.666992 -8.66699 -1.33398 -14 -2.00098c-4.66699 -0.666992 -10.5 -1.16699 -17.5 -1.5s-14.833 -0.5 -23.5 -0.5c-44.667 0 -82.667 6.33301 -114 19
s-57 30.834 -77 54.501s-34.5 52 -43.5 85s-13.5 70.167 -13.5 111.5v121h211v-137z" />
    <glyph glyph-name="iogonek" unicode="&#x12f;" horiz-adv-x="518" 
d="M385 0h-264v1004h264v-1004zM387 1102h-268v282h268v-282zM346 -233c0 -38 6 -63.667 18 -77s29.333 -20 52 -20h22v-153c-4 -0.666992 -8.66699 -1.33398 -14 -2.00098c-4.66699 -0.666992 -10.5 -1.16699 -17.5 -1.5s-14.833 -0.5 -23.5 -0.5
c-44.667 0 -82.667 6.33301 -114 19s-57 30.834 -77 54.501s-34.5 52 -43.5 85s-13.5 70.167 -13.5 111.5v121h211v-137z" />
    <glyph glyph-name="Idotaccent" unicode="&#x130;" horiz-adv-x="551" 
d="M420 0h-289v1380h289v-1380zM410 1510h-268v282h268v-282z" />
    <glyph glyph-name="dotlessi" unicode="&#x131;" horiz-adv-x="500" 
d="M381 0h-264v1004h264v-1004z" />
    <glyph glyph-name="IJ" unicode="&#x132;" horiz-adv-x="1497" 
d="M420 0h-289v1380h289v-1380zM800 383c2 -48 14.167 -86 36.5 -114s57.5 -42 105.5 -42c46 0 80.667 14.5 104 43.5s35 68.5 35 118.5v991h289v-991c0 -48 -8.16699 -96.5 -24.5 -145.5s-41.833 -93.5 -76.5 -133.5s-79 -72.5 -133 -97.5s-118.667 -37.5 -194 -37.5
c-68 0 -128 11 -180 33s-95.667 51.833 -131 89.5s-62.333 81.167 -81 130.5s-28.667 101 -30 155h280z" />
    <glyph glyph-name="ij" unicode="&#x133;" horiz-adv-x="1014" 
d="M383 0h-264v1004h264v-1004zM385 1102h-268v282h268v-282zM897 1102h-268v282h268v-282zM451 -162h100c30 0 50.833 6.5 62.5 19.5s17.5 36.5 17.5 70.5v1076h264v-1057c0 -63.333 -7 -116.5 -21 -159.5s-34.833 -78 -62.5 -105s-61.5 -46.333 -101.5 -58
s-86 -17.5 -138 -17.5c-29.333 0 -52.833 1.66699 -70.5 5s-34.5 7 -50.5 11v215z" />
    <glyph glyph-name="Jcircumflex" unicode="&#x134;" horiz-adv-x="973" 
d="M270 383c2 -48 14.167 -86 36.5 -114s57.5 -42 105.5 -42c46 0 80.667 14.5 104 43.5s35 68.5 35 118.5v991h289v-991c0 -48 -8.16699 -96.5 -24.5 -145.5s-41.833 -93.5 -76.5 -133.5s-79 -72.5 -133 -97.5s-118.667 -37.5 -194 -37.5c-68 0 -128 11 -180 33
s-95.667 51.833 -131 89.5s-62.333 81.167 -81 130.5s-28.667 101 -30 155h280zM346 1477l213 313h272l213 -313h-260l-90 131l-90 -131h-258z" />
    <glyph glyph-name="jcircumflex" unicode="&#x135;" horiz-adv-x="487" 
d="M385 -102c0 -60 -9 -108.833 -27 -146.5s-41.5 -67 -70.5 -88s-61.5 -35.333 -97.5 -43s-72 -11.5 -108 -11.5c-22.667 0 -47.167 2 -73.5 6s-47.5 8.66699 -63.5 14v207h82c30 0 50.333 5.5 61 16.5s16 28.833 16 53.5v1098h281v-1106zM-84 1129l213 313h272l213 -313
h-260l-90 131l-90 -131h-258z" />
    <glyph glyph-name="Kcommaaccent" unicode="&#x136;" horiz-adv-x="1317" 
d="M813 827l504 -827h-338l-356 604l-205 -239v-365h-289v1380h289v-608l510 608h360zM580 -98h211.001v-121c0 -41.333 -4.5 -78.5 -13.5 -111.5s-23.5 -61.333 -43.5 -85s-45.667 -41.834 -77 -54.501s-69.333 -19 -114 -19c-9.33301 0 -17.333 0.166992 -24 0.5
s-12.334 0.833008 -17.001 1.5c-5.33301 0.666992 -10 1.33398 -14 2.00098v153h22c22.667 0 40 6.66699 52 20s18 39 18 77v137z" />
    <glyph glyph-name="kcommaaccent" unicode="&#x137;" horiz-adv-x="1034" 
d="M672 596l387 -596h-307l-265 412l-108 -119v-293h-264v1384h264v-766l340 386h305zM440 -98h211.001v-121c0 -41.333 -4.5 -78.5 -13.5 -111.5s-23.5 -61.333 -43.5 -85s-45.667 -41.834 -77 -54.501s-69.333 -19 -114 -19c-9.33301 0 -17.333 0.166992 -24 0.5
s-12.334 0.833008 -17.001 1.5c-5.33301 0.666992 -10 1.33398 -14 2.00098v153h22c22.667 0 40 6.66699 52 20s18 39 18 77v137z" />
    <glyph glyph-name="kgreenlandic" unicode="&#x138;" horiz-adv-x="1026" 
d="M645 944c20.667 21.333 47.833 40.333 81.5 57s72.167 25 115.5 25c14 0 33.833 -1.16699 59.5 -3.5s55.5 -6.5 89.5 -12.5v-219h-135c-14.667 0 -27.5 -4.5 -38.5 -13.5s-24.167 -21.833 -39.5 -38.5l-145 -159l418 -580h-316l-278 401l-78 -77v-324h-264v1004h264v-342
z" />
    <glyph glyph-name="Lacute" unicode="&#x139;" horiz-adv-x="1073" 
d="M418 268h639v-268h-928v1380h289v-1112zM131 1509l215 313h295l-248 -313h-262z" />
    <glyph glyph-name="lacute" unicode="&#x13a;" horiz-adv-x="537" 
d="M379 287c0 -25.333 7.99902 -43.335 23.999 -54.002s33 -16 51 -16h48v-199c-10.667 -4.66699 -22 -8.66699 -34 -12c-10.667 -3.33301 -23.167 -6.16602 -37.5 -8.49902s-29.5 -3.5 -45.5 -3.5c-34 0 -67.167 3.66699 -99.5 11s-61.166 21.5 -86.499 42.5
s-45.833 50.333 -61.5 88s-23.5 86.834 -23.5 147.501v1101h265v-1097zM107.999 1511l215 313h295l-248 -313h-262z" />
    <glyph glyph-name="Lcommaaccent" unicode="&#x13b;" horiz-adv-x="1073" 
d="M418 268h639v-268h-928v1380h289v-1112zM530 -98h211.001v-121c0 -41.333 -4.5 -78.5 -13.5 -111.5s-23.5 -61.333 -43.5 -85s-45.667 -41.834 -77 -54.501s-69.333 -19 -114 -19c-9.33301 0 -17.333 0.166992 -24 0.5s-12.334 0.833008 -17.001 1.5
c-5.33301 0.666992 -10 1.33398 -14 2.00098v153h22c22.667 0 40 6.66699 52 20s18 39 18 77v137z" />
    <glyph glyph-name="lcommaaccent" unicode="&#x13c;" horiz-adv-x="543" 
d="M383 287c0 -25.333 7.99902 -43.335 23.999 -54.002s33 -16 51 -16h48v-199c-10.667 -4.66699 -22 -8.66699 -34 -12c-10.667 -3.33301 -23.167 -6.16602 -37.5 -8.49902s-29.5 -3.5 -45.5 -3.5c-34 0 -67.167 3.66699 -99.5 11s-61.166 21.5 -86.499 42.5
s-45.833 50.333 -61.5 88s-23.5 86.834 -23.5 147.501v1101h265v-1097zM290.999 -98.002h211.001v-121c0 -41.333 -4.5 -78.5 -13.5 -111.5s-23.5 -61.333 -43.5 -85s-45.667 -41.834 -77 -54.501s-69.333 -19 -114 -19c-9.33301 0 -17.333 0.166992 -24 0.5
s-12.334 0.833008 -17.001 1.5c-5.33301 0.666992 -10 1.33398 -14 2.00098v153h22c22.667 0 40 6.66699 52 20s18 39 18 77v137z" />
    <glyph glyph-name="Lcaron" unicode="&#x13d;" horiz-adv-x="1073" 
d="M418 268h639v-268h-928v1380h289v-1112zM658 1003v377h236v-377h-236z" />
    <glyph glyph-name="lcaron" unicode="&#x13e;" horiz-adv-x="868" 
d="M369 287c0 -25.333 7.99902 -43.335 23.999 -54.002s33 -16 51 -16h48v-199c-10.667 -4.66699 -22 -8.66699 -34 -12c-10.667 -3.33301 -23.167 -6.16602 -37.5 -8.49902s-29.5 -3.5 -45.5 -3.5c-34 0 -67.167 3.66699 -99.5 11s-61.166 21.5 -86.499 42.5
s-45.833 50.333 -61.5 88s-23.5 86.834 -23.5 147.501v1101h265v-1097zM581.999 1003v377h236v-377h-236z" />
    <glyph glyph-name="Ldot" unicode="&#x13f;" horiz-adv-x="1073" 
d="M418 268h639v-268h-928v1380h289v-1112zM815 770v-313h-238v313h238z" />
    <glyph glyph-name="ldot" unicode="&#x140;" horiz-adv-x="848" 
d="M383 287c0 -25.333 7.99902 -43.335 23.999 -54.002s33 -16 51 -16h48v-199c-10.667 -4.66699 -22 -8.66699 -34 -12c-10.667 -3.33301 -23.167 -6.16602 -37.5 -8.49902s-29.5 -3.5 -45.5 -3.5c-34 0 -67.167 3.66699 -99.5 11s-61.166 21.5 -86.499 42.5
s-45.833 50.333 -61.5 88s-23.5 86.834 -23.5 147.501v1101h265v-1097zM806.999 763.998v-313h-238v313h238z" />
    <glyph glyph-name="Lslash" unicode="&#x141;" horiz-adv-x="1135" 
d="M479 850l363 156v-267l-363 -155v-316h639v-268h-928v457l-135 -58v267l135 57v657h289v-530z" />
    <glyph glyph-name="lslash" unicode="&#x142;" horiz-adv-x="690" 
d="M463 817l151.001 67.998v-262l-151 -66v-276c0 -26 6 -43.167 18 -51.5s25 -12.5 39 -12.5h90v-199c-15.333 -4.66699 -31 -8.66699 -47 -12c-13.333 -3.33301 -28 -6.16602 -44 -8.49902s-30.667 -3.5 -44 -3.5c-35.333 0 -69.5 3.66699 -102.5 11
s-62.333 21.5 -88 42.5s-46.334 50.333 -62.001 88s-23.5 86.834 -23.5 147.501v155l-146 -65v262l146 63v686h264v-567z" />
    <glyph glyph-name="Nacute" unicode="&#x143;" horiz-adv-x="1327" 
d="M1198 0h-278l-502 844v-844h-289v1380h277l503 -845v845h289v-1380zM399 1511l215 313h295l-248 -313h-262z" />
    <glyph glyph-name="nacute" unicode="&#x144;" horiz-adv-x="1067" 
d="M115 0l-0.000976562 1004h260l4 -70c35.333 25.333 74 45.333 116 60s83 22 123 22c54.667 0 103.5 -9.66699 146.5 -29s79.333 -46.333 109 -81s52.334 -76.334 68.001 -125.001s23.5 -102 23.5 -160v-621h-265v604c0 34.667 -4.66699 63.5 -14 86.5
s-21.166 41.167 -35.499 54.5s-30.166 22.833 -47.499 28.5s-34 8.5 -50 8.5c-28 0 -52.833 -4.33301 -74.5 -13s-39.834 -23.334 -54.501 -44.001s-25.834 -48.334 -33.501 -83.001s-11.5 -78 -11.5 -130v-512h-264zM318.999 1112l215 313h295l-248 -313h-262z" />
    <glyph glyph-name="Ncommaaccent" unicode="&#x145;" horiz-adv-x="1327" 
d="M1198 0h-278l-502 844v-844h-289v1380h277l503 -845v845h289v-1380zM606 -98h211.001v-121c0 -41.333 -4.5 -78.5 -13.5 -111.5s-23.5 -61.333 -43.5 -85s-45.667 -41.834 -77 -54.501s-69.333 -19 -114 -19c-9.33301 0 -17.333 0.166992 -24 0.5
s-12.334 0.833008 -17.001 1.5c-5.33301 0.666992 -10 1.33398 -14 2.00098v153h22c22.667 0 40 6.66699 52 20s18 39 18 77v137z" />
    <glyph glyph-name="ncommaaccent" unicode="&#x146;" horiz-adv-x="1067" 
d="M115 0l-0.000976562 1004h260l4 -70c35.333 25.333 74 45.333 116 60s83 22 123 22c54.667 0 103.5 -9.66699 146.5 -29s79.333 -46.333 109 -81s52.334 -76.334 68.001 -125.001s23.5 -102 23.5 -160v-621h-265v604c0 34.667 -4.66699 63.5 -14 86.5
s-21.166 41.167 -35.499 54.5s-30.166 22.833 -47.499 28.5s-34 8.5 -50 8.5c-28 0 -52.833 -4.33301 -74.5 -13s-39.834 -23.334 -54.501 -44.001s-25.834 -48.334 -33.501 -83.001s-11.5 -78 -11.5 -130v-512h-264zM441.999 -97.9971h211.001v-121
c0 -41.333 -4.5 -78.5 -13.5 -111.5s-23.5 -61.333 -43.5 -85s-45.667 -41.834 -77 -54.501s-69.333 -19 -114 -19c-9.33301 0 -17.333 0.166992 -24 0.5s-12.334 0.833008 -17.001 1.5c-5.33301 0.666992 -10 1.33398 -14 2.00098v153h22c22.667 0 40 6.66699 52 20
s18 39 18 77v137z" />
    <glyph glyph-name="Ncaron" unicode="&#x147;" horiz-adv-x="1327" 
d="M1198 0h-278l-502 844v-844h-289v1380h277l503 -845v845h289v-1380zM576 1825l90 -137l40 59l50 78h260l-215 -313h-270l-213 313h258z" />
    <glyph glyph-name="ncaron" unicode="&#x148;" horiz-adv-x="1067" 
d="M115 0l-0.000976562 1004h260l4 -70c35.333 25.333 74 45.333 116 60s83 22 123 22c54.667 0 103.5 -9.66699 146.5 -29s79.333 -46.333 109 -81s52.334 -76.334 68.001 -125.001s23.5 -102 23.5 -160v-621h-265v604c0 34.667 -4.66699 63.5 -14 86.5
s-21.166 41.167 -35.499 54.5s-30.166 22.833 -47.499 28.5s-34 8.5 -50 8.5c-28 0 -52.833 -4.33301 -74.5 -13s-39.834 -23.334 -54.501 -44.001s-25.834 -48.334 -33.501 -83.001s-11.5 -78 -11.5 -130v-512h-264zM438.999 1427l90 -137l40 59l50 78h260l-215 -313h-270
l-213 313h258z" />
    <glyph glyph-name="napostrophe" unicode="&#x149;" horiz-adv-x="1323" 
d="M371 0l-0.000976562 1004h260l4 -70c35.333 25.333 74 45.333 116 60s83 22 123 22c54.667 0 103.5 -9.66699 146.5 -29s79.333 -46.333 109 -81s52.334 -76.334 68.001 -125.001s23.5 -102 23.5 -160v-621h-265v604c0 34.667 -4.66699 63.5 -14 86.5
s-21.166 41.167 -35.499 54.5s-30.166 22.833 -47.499 28.5s-34 8.5 -50 8.5c-28 0 -52.833 -4.33301 -74.5 -13s-39.834 -23.334 -54.501 -44.001s-25.834 -48.334 -33.501 -83.001s-11.5 -78 -11.5 -130v-512h-264zM-2.00098 1003v377h236v-377h-236z" />
    <glyph glyph-name="Eng" unicode="&#x14a;" horiz-adv-x="1305" 
d="M1178 -104c0 -61.333 -9.16699 -110.831 -27.5 -148.498s-42.166 -66.834 -71.499 -87.501s-62.5 -34.334 -99.5 -41.001s-74.167 -10 -111.5 -10c-20.667 0 -43 1.66699 -67 5s-44.667 7 -62 11v209h95c19.333 0 35.666 4.66699 48.999 14s20 28 20 56v94l-485 842v-840
h-289v1380h277l485 -841v841h287v-1484z" />
    <glyph glyph-name="eng" unicode="&#x14b;" horiz-adv-x="1069" 
d="M115 0v1004h264v-68c36 24.667 74.167 44.167 114.5 58.5s80.5 21.5 120.5 21.5c56 0 105.833 -9.66699 149.5 -29s80.667 -46.333 111 -81s53.333 -76.334 69 -125.001s23.5 -102 23.5 -160v-725c0 -60 -9 -108.833 -27 -146.5s-41.167 -67 -69.5 -88
s-60.166 -35.333 -95.499 -43s-70.333 -11.5 -105 -11.5c-20.667 0 -43 1.66699 -67 5s-44.667 7.66602 -62 12.999v207h92c19.333 0 35.666 5.66699 48.999 17s20 29.666 20 54.999v700c0 34 -4.66699 62.5 -14 85.5s-21.166 41.333 -35.499 55
s-29.833 23.334 -46.5 29.001s-32.334 8.5 -47.001 8.5c-28 0 -53.167 -4 -75.5 -12s-41.333 -22.167 -57 -42.5s-27.5 -47.666 -35.5 -81.999s-12 -77.5 -12 -129.5v-516h-264z" />
    <glyph glyph-name="Omacron" unicode="&#x14c;" horiz-adv-x="1352" 
d="M676 1405c102 0 190.833 -18.668 266.5 -56.001s138.5 -88 188.5 -152s87.333 -138.167 112 -222.5s37 -173.5 37 -267.5c0 -108.667 -12.833 -208 -38.5 -298s-63.834 -167.167 -114.501 -231.5s-114 -114.166 -190 -149.499s-164.333 -53 -265 -53
c-98 0 -184.5 17.333 -259.5 52s-137.667 83.667 -188 147s-88.333 139.5 -114 228.5s-38.5 188.167 -38.5 297.5c0 107.333 13.667 204.5 41 291.5s67 161.167 119 222.5s115.333 108.5 190 141.5s159.334 49.5 254.001 49.5zM676 1147
c-100 0 -177.334 -37.666 -232.001 -112.999s-82 -186.666 -82 -333.999c0 -153.333 25.833 -269.5 77.5 -348.5s129.167 -118.5 232.5 -118.5c106.667 0 186.167 40 238.5 120s78.5 196.333 78.5 349c0 65.333 -6.16699 125.166 -18.5 179.499
s-31.166 101.166 -56.499 140.499s-57.833 70 -97.5 92s-86.5 33 -140.5 33zM355.999 1731h635v-193h-635v193z" />
    <glyph glyph-name="omacron" unicode="&#x14d;" horiz-adv-x="1036" 
d="M518 -14c-72 0 -136.169 11.833 -192.502 35.5s-104.166 58 -143.499 103s-69.333 100 -90 165s-31 139.167 -31 222.5c0 74 10 142 30 204s49.5 115.5 88.5 160.5s86.833 80.167 143.5 105.5s121.667 38 195 38s138.333 -12.667 195 -38s104.5 -60.5 143.5 -105.5
s68.5 -98.5 88.5 -160.5s30 -130 30 -204c0 -83.333 -10.333 -157.5 -31 -222.5s-50.667 -120 -90 -165s-87.166 -79.333 -143.499 -103s-120.5 -35.5 -192.5 -35.5zM517.998 219c65.333 0 113.501 23 144.501 69s46.5 119.333 46.5 220
c0 43.333 -3.83301 82.166 -11.5 116.499s-19.334 63.5 -35.001 87.5s-35.5 42.333 -59.5 55s-52.333 19 -85 19s-61 -6.33301 -85 -19s-43.667 -31 -59 -55s-26.833 -53.167 -34.5 -87.5s-11.5 -73.166 -11.5 -116.499c0 -100.667 15.333 -174 46 -220s78.667 -69 144 -69z
M210.999 1356h635v-193h-635v193z" />
    <glyph glyph-name="Obreve" unicode="&#x14e;" horiz-adv-x="1352" 
d="M676 1405c102 0 190.833 -18.668 266.5 -56.001s138.5 -88 188.5 -152s87.333 -138.167 112 -222.5s37 -173.5 37 -267.5c0 -108.667 -12.833 -208 -38.5 -298s-63.834 -167.167 -114.501 -231.5s-114 -114.166 -190 -149.499s-164.333 -53 -265 -53
c-98 0 -184.5 17.333 -259.5 52s-137.667 83.667 -188 147s-88.333 139.5 -114 228.5s-38.5 188.167 -38.5 297.5c0 107.333 13.667 204.5 41 291.5s67 161.167 119 222.5s115.333 108.5 190 141.5s159.334 49.5 254.001 49.5zM676 1147
c-100 0 -177.334 -37.666 -232.001 -112.999s-82 -186.666 -82 -333.999c0 -153.333 25.833 -269.5 77.5 -348.5s129.167 -118.5 232.5 -118.5c106.667 0 186.167 40 238.5 120s78.5 196.333 78.5 349c0 65.333 -6.16699 125.166 -18.5 179.499
s-31.166 101.166 -56.499 140.499s-57.833 70 -97.5 92s-86.5 33 -140.5 33zM964.999 1759c-0.666992 -45.333 -8.83301 -86.166 -24.5 -122.499s-36.667 -67.166 -63 -92.499s-56.833 -44.833 -91.5 -58.5s-71.334 -20.5 -110.001 -20.5c-40 0 -77.5 6.83301 -112.5 20.5
s-65.5 33.167 -91.5 58.5s-46.5 56.166 -61.5 92.499s-22.833 77.166 -23.5 122.499h188c0.666992 -16.667 3.83398 -31.667 9.50098 -45s13.167 -24.5 22.5 -33.5s20 -15.833 32 -20.5s24.333 -7 37 -7c24.667 0 46.5 9 65.5 27s28.5 44.333 28.5 79h195z" />
    <glyph glyph-name="obreve" unicode="&#x14f;" horiz-adv-x="1036" 
d="M518 -14c-72 0 -136.169 11.833 -192.502 35.5s-104.166 58 -143.499 103s-69.333 100 -90 165s-31 139.167 -31 222.5c0 74 10 142 30 204s49.5 115.5 88.5 160.5s86.833 80.167 143.5 105.5s121.667 38 195 38s138.333 -12.667 195 -38s104.5 -60.5 143.5 -105.5
s68.5 -98.5 88.5 -160.5s30 -130 30 -204c0 -83.333 -10.333 -157.5 -31 -222.5s-50.667 -120 -90 -165s-87.166 -79.333 -143.499 -103s-120.5 -35.5 -192.5 -35.5zM517.998 219c65.333 0 113.501 23 144.501 69s46.5 119.333 46.5 220
c0 43.333 -3.83301 82.166 -11.5 116.499s-19.334 63.5 -35.001 87.5s-35.5 42.333 -59.5 55s-52.333 19 -85 19s-61 -6.33301 -85 -19s-43.667 -31 -59 -55s-26.833 -53.167 -34.5 -87.5s-11.5 -73.166 -11.5 -116.499c0 -100.667 15.333 -174 46 -220s78.667 -69 144 -69z
M813.999 1384c-0.666992 -45.333 -8.83301 -86.166 -24.5 -122.499s-36.667 -67.166 -63 -92.499s-56.833 -44.833 -91.5 -58.5s-71.334 -20.5 -110.001 -20.5c-40 0 -77.5 6.83301 -112.5 20.5s-65.5 33.167 -91.5 58.5s-46.5 56.166 -61.5 92.499
s-22.833 77.166 -23.5 122.499h188c0.666992 -16.667 3.83398 -31.667 9.50098 -45s13.167 -24.5 22.5 -33.5s20 -15.833 32 -20.5s24.333 -7 37 -7c24.667 0 46.5 9 65.5 27s28.5 44.333 28.5 79h195z" />
    <glyph glyph-name="Ohungarumlaut" unicode="&#x150;" horiz-adv-x="1352" 
d="M676 1405c102 0 190.833 -18.668 266.5 -56.001s138.5 -88 188.5 -152s87.333 -138.167 112 -222.5s37 -173.5 37 -267.5c0 -108.667 -12.833 -208 -38.5 -298s-63.834 -167.167 -114.501 -231.5s-114 -114.166 -190 -149.499s-164.333 -53 -265 -53
c-98 0 -184.5 17.333 -259.5 52s-137.667 83.667 -188 147s-88.333 139.5 -114 228.5s-38.5 188.167 -38.5 297.5c0 107.333 13.667 204.5 41 291.5s67 161.167 119 222.5s115.333 108.5 190 141.5s159.334 49.5 254.001 49.5zM676 1147
c-100 0 -177.334 -37.666 -232.001 -112.999s-82 -186.666 -82 -333.999c0 -153.333 25.833 -269.5 77.5 -348.5s129.167 -118.5 232.5 -118.5c106.667 0 186.167 40 238.5 120s78.5 196.333 78.5 349c0 65.333 -6.16699 125.166 -18.5 179.499
s-31.166 101.166 -56.499 140.499s-57.833 70 -97.5 92s-86.5 33 -140.5 33zM644.999 1526l215 313h236l-131 -188l-88 -125h-232zM314.999 1526l215 313h236l-88 -125l-131 -188h-232z" />
    <glyph glyph-name="ohungarumlaut" unicode="&#x151;" horiz-adv-x="1036" 
d="M518 -14c-72 0 -136.169 11.833 -192.502 35.5s-104.166 58 -143.499 103s-69.333 100 -90 165s-31 139.167 -31 222.5c0 74 10 142 30 204s49.5 115.5 88.5 160.5s86.833 80.167 143.5 105.5s121.667 38 195 38s138.333 -12.667 195 -38s104.5 -60.5 143.5 -105.5
s68.5 -98.5 88.5 -160.5s30 -130 30 -204c0 -83.333 -10.333 -157.5 -31 -222.5s-50.667 -120 -90 -165s-87.166 -79.333 -143.499 -103s-120.5 -35.5 -192.5 -35.5zM517.998 219c65.333 0 113.501 23 144.501 69s46.5 119.333 46.5 220
c0 43.333 -3.83301 82.166 -11.5 116.499s-19.334 63.5 -35.001 87.5s-35.5 42.333 -59.5 55s-52.333 19 -85 19s-61 -6.33301 -85 -19s-43.667 -31 -59 -55s-26.833 -53.167 -34.5 -87.5s-11.5 -73.166 -11.5 -116.499c0 -100.667 15.333 -174 46 -220s78.667 -69 144 -69z
M542.999 1124l215 313h236l-131 -188l-88 -125h-232zM212.999 1124l215 313h236l-88 -125l-131 -188h-232z" />
    <glyph glyph-name="OE" unicode="&#x152;" horiz-adv-x="1911" 
d="M1841 1116h-634.999v-282h527v-265h-527v-305h635v-264h-923v20c-38 -14 -77.5 -25 -118.5 -33s-83.5 -12 -127.5 -12c-99.333 0 -186.333 17.333 -261 52s-137.167 83.667 -187.5 147s-88.166 139.5 -113.499 228.5s-38 188.167 -38 297.5
c0 107.333 13.333 204.5 40 291.5s65.667 161.167 117 222.5s114.166 108.5 188.499 141.5s159.166 49.5 254.499 49.5c44 0 86.5 -4.33301 127.5 -13s80.5 -20.667 118.5 -36v24h923v-264zM672.001 1155c-100 0 -176.168 -39.001 -228.501 -117.001
s-78.5 -190.667 -78.5 -338c0 -152.667 25.5 -270 76.5 -352s127.833 -123 230.5 -123c111.333 0 193.333 44.333 246 133v666c-13.333 18.667 -28.666 36 -45.999 52s-36.5 29.833 -57.5 41.5s-43.5 20.834 -67.5 27.501s-49 10 -75 10z" />
    <glyph glyph-name="oe" unicode="&#x153;" horiz-adv-x="1671" 
d="M1585 324c-16 -51.333 -36.8281 -97.835 -62.4951 -139.502s-56.167 -77.167 -91.5 -106.5s-75.833 -52 -121.5 -68s-96.5 -24 -152.5 -24c-66 0 -125.333 10.167 -178 30.5s-99.667 49.5 -141 87.5c-40 -38 -86.833 -67.167 -140.5 -87.5s-112.834 -30.5 -177.501 -30.5
c-73.333 0 -138.5 11.833 -195.5 35.5s-105 58 -144 103s-68.667 100 -89 165s-30.5 139.167 -30.5 222.5c0 80 11 151.333 33 214s53 115.834 93 159.501s88.167 77 144.5 100s119.166 34.5 188.499 34.5c66 0 125.667 -11 179 -33s99.666 -52 138.999 -90
c41.333 39.333 88.333 69.666 141 90.999s112 32 178 32c72.667 0 137.167 -13.167 193.5 -39.5s103.666 -62.166 141.999 -107.499s67.5 -98.333 87.5 -159s30 -125.334 30 -194.001c0 -26.667 -1.5 -50 -4.5 -70s-5.16699 -32.667 -6.5 -38h-632
c4 -37.333 11.667 -68.666 23 -93.999s25.5 -45.666 42.5 -60.999s36.167 -26.5 57.5 -33.5s44.333 -10.5 69 -10.5c30 0 59.167 9 87.5 27s51.166 46 68.499 84h270zM520.005 214.998c63.333 0 110.331 23.668 140.998 71.001s46 121.333 46 222
c0 43.333 -3.83301 82.5 -11.5 117.5s-19.167 64.667 -34.5 89s-34.666 43.166 -57.999 56.499s-51 20 -83 20c-62 0 -109.5 -23.333 -142.5 -70s-49.5 -117.667 -49.5 -213c0 -100.667 15.333 -174.667 46 -222s79.334 -71 146.001 -71zM1157 792.999
c-26 0 -49.667 -4.66504 -71 -13.998s-40 -22.333 -56 -39s-29 -36.834 -39 -60.501s-16.667 -49.5 -20 -77.5h364c-2 27.333 -7.16699 52.666 -15.5 75.999s-20 43.5 -35 60.5s-33 30.333 -54 40s-45.5 14.5 -73.5 14.5z" />
    <glyph glyph-name="Racute" unicode="&#x154;" horiz-adv-x="1319" 
d="M760 1380c54.667 0 104.165 -6.49902 148.498 -19.499s83.5 -30.5 117.5 -52.5s63.333 -47.833 88 -77.5s45 -61 61 -94s27.667 -66.833 35 -101.5s11 -68.334 11 -101.001c0 -34 -4.66699 -69.667 -14 -107s-23.666 -73.333 -42.999 -108s-44.166 -67 -74.499 -97
s-66.5 -55 -108.5 -75l317 -547h-333l-283 500h-264v-500h-289v1380h631zM417.998 1116v-353.999h340c30 0 55.833 5.66699 77.5 17s39.5 25.5 53.5 42.5s24.333 35.667 31 56s10 39.833 10 58.5c0 19.333 -3.33301 39.666 -10 60.999s-17 40.833 -31 58.5
s-31.833 32.167 -53.5 43.5s-47.5 17 -77.5 17h-340zM357.998 1509l215 313h295l-248 -313h-262z" />
    <glyph glyph-name="racute" unicode="&#x155;" horiz-adv-x="729" 
d="M117 0l-0.000976562 1004h260l4 -103c14 20 30 37.333 48 52s36.5 26.834 55.5 36.501s37.833 16.834 56.5 21.501s36.334 7 53.001 7c22.667 0 41.5 -0.833008 56.5 -2.5s29.5 -5.5 43.5 -11.5v-236h-110c-30 0 -57.5 -5.16699 -82.5 -15.5s-46.5 -27 -64.5 -50
s-31.833 -53 -41.5 -90s-14.5 -82.167 -14.5 -135.5v-477h-264zM183.999 1112l215 313h295l-248 -313h-262z" />
    <glyph glyph-name="Rcommaaccent" unicode="&#x156;" horiz-adv-x="1319" 
d="M760 1380c54.667 0 104.165 -6.49902 148.498 -19.499s83.5 -30.5 117.5 -52.5s63.333 -47.833 88 -77.5s45 -61 61 -94s27.667 -66.833 35 -101.5s11 -68.334 11 -101.001c0 -34 -4.66699 -69.667 -14 -107s-23.666 -73.333 -42.999 -108s-44.166 -67 -74.499 -97
s-66.5 -55 -108.5 -75l317 -547h-333l-283 500h-264v-500h-289v1380h631zM417.998 1116v-353.999h340c30 0 55.833 5.66699 77.5 17s39.5 25.5 53.5 42.5s24.333 35.667 31 56s10 39.833 10 58.5c0 19.333 -3.33301 39.666 -10 60.999s-17 40.833 -31 58.5
s-31.833 32.167 -53.5 43.5s-47.5 17 -77.5 17h-340zM593.998 -93.998h211.001v-121c0 -41.333 -4.5 -78.5 -13.5 -111.5s-23.5 -61.333 -43.5 -85s-45.667 -41.834 -77 -54.501s-69.333 -19 -114 -19c-9.33301 0 -17.333 0.166992 -24 0.5s-12.334 0.833008 -17.001 1.5
c-5.33301 0.666992 -10 1.33398 -14 2.00098v153h22c22.667 0 40 6.66699 52 20s18 39 18 77v137z" />
    <glyph glyph-name="rcommaaccent" unicode="&#x157;" horiz-adv-x="729" 
d="M117 0l-0.000976562 1004h260l4 -103c14 20 30 37.333 48 52s36.5 26.834 55.5 36.501s37.833 16.834 56.5 21.501s36.334 7 53.001 7c22.667 0 41.5 -0.833008 56.5 -2.5s29.5 -5.5 43.5 -11.5v-236h-110c-30 0 -57.5 -5.16699 -82.5 -15.5s-46.5 -27 -64.5 -50
s-31.833 -53 -41.5 -90s-14.5 -82.167 -14.5 -135.5v-477h-264zM144.999 -96.002h211.001v-121c0 -41.333 -4.5 -78.5 -13.5 -111.5s-23.5 -61.333 -43.5 -85s-45.667 -41.834 -77 -54.501s-69.333 -19 -114 -19c-9.33301 0 -17.333 0.166992 -24 0.5
s-12.334 0.833008 -17.001 1.5c-5.33301 0.666992 -10 1.33398 -14 2.00098v153h22c22.667 0 40 6.66699 52 20s18 39 18 77v137z" />
    <glyph glyph-name="Rcaron" unicode="&#x158;" horiz-adv-x="1319" 
d="M760 1380c54.667 0 104.165 -6.49902 148.498 -19.499s83.5 -30.5 117.5 -52.5s63.333 -47.833 88 -77.5s45 -61 61 -94s27.667 -66.833 35 -101.5s11 -68.334 11 -101.001c0 -34 -4.66699 -69.667 -14 -107s-23.666 -73.333 -42.999 -108s-44.166 -67 -74.499 -97
s-66.5 -55 -108.5 -75l317 -547h-333l-283 500h-264v-500h-289v1380h631zM417.998 1116v-353.999h340c30 0 55.833 5.66699 77.5 17s39.5 25.5 53.5 42.5s24.333 35.667 31 56s10 39.833 10 58.5c0 19.333 -3.33301 39.666 -10 60.999s-17 40.833 -31 58.5
s-31.833 32.167 -53.5 43.5s-47.5 17 -77.5 17h-340zM526.998 1827l90 -137l40 59l50 78h260l-215 -313h-270l-213 313h258z" />
    <glyph glyph-name="rcaron" unicode="&#x159;" horiz-adv-x="729" 
d="M117 0l-0.000976562 1004h260l4 -103c14 20 30 37.333 48 52s36.5 26.834 55.5 36.501s37.833 16.834 56.5 21.501s36.334 7 53.001 7c22.667 0 41.5 -0.833008 56.5 -2.5s29.5 -5.5 43.5 -11.5v-236h-110c-30 0 -57.5 -5.16699 -82.5 -15.5s-46.5 -27 -64.5 -50
s-31.833 -53 -41.5 -90s-14.5 -82.167 -14.5 -135.5v-477h-264zM321.999 1427l90 -137l40 59l50 78h260l-215 -313h-270l-213 313h258z" />
    <glyph glyph-name="Sacute" unicode="&#x15a;" horiz-adv-x="1239" 
d="M836 981c-4 24 -11.3301 46.6709 -21.9971 68.0039s-25.167 40 -43.5 56s-40.5 28.667 -66.5 38s-56 14 -90 14c-30.667 0 -59.167 -3.5 -85.5 -10.5s-49.333 -17.167 -69 -30.5s-35 -29.666 -46 -48.999s-16.5 -41.333 -16.5 -66c0 -32 10.167 -57 30.5 -75
s49 -33.167 86 -45.5s81.167 -23.666 132.5 -33.999s108.333 -23.5 171 -39.5c58.667 -15.333 109.667 -34.666 153 -57.999s79.333 -51 108 -83s50 -68.833 64 -110.5s21 -88.834 21 -141.501c0 -64.667 -13.5 -123.834 -40.5 -177.501s-64.833 -99.834 -113.5 -138.501
s-107.334 -68.834 -176.001 -90.501s-144.334 -32.5 -227.001 -32.5c-90 0 -168 13.5 -234 40.5s-121 62.167 -165 105.5s-77.833 92.666 -101.5 147.999s-38.5 111 -44.5 167h299c4 -30 12.667 -57.667 26 -83s30.666 -47.333 51.999 -66s46.666 -33.334 75.999 -44.001
s62 -16 98 -16c38.667 0 74 4.16699 106 12.5s59.5 20.333 82.5 36s41 34.667 54 57s19.5 47.5 19.5 75.5c0 34.667 -9 61.834 -27 81.501s-44.833 36 -80.5 49s-80 25 -133 36s-114.5 25.5 -184.5 43.5c-39.333 10 -79.333 24.5 -120 43.5s-77.5 43.667 -110.5 74
s-60 67 -81 110s-31.5 93.5 -31.5 151.5c0 61.333 12.333 117.166 37 167.499s59.334 93.333 104.001 129s98.167 63.167 160.5 82.5s131.166 29 206.499 29c89.333 0 165.333 -12.5 228 -37.5s114.334 -57.667 155.001 -98s71.5 -85.833 92.5 -136.5
s34.5 -101.334 40.5 -152.001h-294zM379.003 1511l215 313h295l-248 -313h-262z" />
    <glyph glyph-name="sacute" unicode="&#x15b;" horiz-adv-x="963" 
d="M319 324c6.66699 -34 23.332 -61.6699 49.999 -83.0029s64.667 -32 114 -32c24 0 45.667 2.33301 65 7s35.833 11 49.5 19s24 17.333 31 28s10.5 22 10.5 34c0 22.667 -5.5 39.834 -16.5 51.501s-28 21 -51 28s-52.5 13.333 -88.5 19s-79 13.834 -129 24.501
c-36 8 -70 20 -102 36s-60 35.833 -84 59.5s-43 50.834 -57 81.501s-21 64.334 -21 101.001c0 39.333 8 78.166 24 116.499s40.167 72.5 72.5 102.5s73.5 54.333 123.5 73s109 28 177 28c62.667 0 117.667 -8.66699 165 -26s87.333 -40.666 120 -69.999s58 -63.5 76 -102.5
s29 -80.167 33 -123.5h-256c-5.33301 32 -18.666 57.833 -39.999 77.5s-54 29.5 -98 29.5c-40.667 0 -73 -7.83301 -97 -23.5s-36 -35.834 -36 -60.501c0 -20 5.16699 -35 15.5 -45s27.166 -18.333 50.499 -25s53.833 -13.167 91.5 -19.5s84.167 -15.5 139.5 -27.5
c32 -7.33301 63.167 -18.666 93.5 -33.999s57 -35 80 -59s41.5 -52.333 55.5 -85s21 -70.334 21 -113.001c0 -46.667 -9.66699 -89.667 -29 -129s-47.333 -73.333 -84 -102s-81.667 -51.167 -135 -67.5s-114 -24.5 -182 -24.5c-63.333 0 -119.166 9.16699 -167.499 27.5
s-89.5 43 -123.5 74s-61 66.833 -81 107.5s-33.333 83 -40 127h260zM298.998 1112l215 313h295l-248 -313h-262z" />
    <glyph glyph-name="Scircumflex" unicode="&#x15c;" horiz-adv-x="1239" 
d="M836 981c-4 24 -11.3301 46.6709 -21.9971 68.0039s-25.167 40 -43.5 56s-40.5 28.667 -66.5 38s-56 14 -90 14c-30.667 0 -59.167 -3.5 -85.5 -10.5s-49.333 -17.167 -69 -30.5s-35 -29.666 -46 -48.999s-16.5 -41.333 -16.5 -66c0 -32 10.167 -57 30.5 -75
s49 -33.167 86 -45.5s81.167 -23.666 132.5 -33.999s108.333 -23.5 171 -39.5c58.667 -15.333 109.667 -34.666 153 -57.999s79.333 -51 108 -83s50 -68.833 64 -110.5s21 -88.834 21 -141.501c0 -64.667 -13.5 -123.834 -40.5 -177.501s-64.833 -99.834 -113.5 -138.501
s-107.334 -68.834 -176.001 -90.501s-144.334 -32.5 -227.001 -32.5c-90 0 -168 13.5 -234 40.5s-121 62.167 -165 105.5s-77.833 92.666 -101.5 147.999s-38.5 111 -44.5 167h299c4 -30 12.667 -57.667 26 -83s30.666 -47.333 51.999 -66s46.666 -33.334 75.999 -44.001
s62 -16 98 -16c38.667 0 74 4.16699 106 12.5s59.5 20.333 82.5 36s41 34.667 54 57s19.5 47.5 19.5 75.5c0 34.667 -9 61.834 -27 81.501s-44.833 36 -80.5 49s-80 25 -133 36s-114.5 25.5 -184.5 43.5c-39.333 10 -79.333 24.5 -120 43.5s-77.5 43.667 -110.5 74
s-60 67 -81 110s-31.5 93.5 -31.5 151.5c0 61.333 12.333 117.166 37 167.499s59.334 93.333 104.001 129s98.167 63.167 160.5 82.5s131.166 29 206.499 29c89.333 0 165.333 -12.5 228 -37.5s114.334 -57.667 155.001 -98s71.5 -85.833 92.5 -136.5
s34.5 -101.334 40.5 -152.001h-294zM262.003 1477l213 313h272l213 -313h-260l-90 131l-90 -131h-258z" />
    <glyph glyph-name="scircumflex" unicode="&#x15d;" horiz-adv-x="963" 
d="M319 324c6.66699 -34 23.332 -61.6699 49.999 -83.0029s64.667 -32 114 -32c24 0 45.667 2.33301 65 7s35.833 11 49.5 19s24 17.333 31 28s10.5 22 10.5 34c0 22.667 -5.5 39.834 -16.5 51.501s-28 21 -51 28s-52.5 13.333 -88.5 19s-79 13.834 -129 24.501
c-36 8 -70 20 -102 36s-60 35.833 -84 59.5s-43 50.834 -57 81.501s-21 64.334 -21 101.001c0 39.333 8 78.166 24 116.499s40.167 72.5 72.5 102.5s73.5 54.333 123.5 73s109 28 177 28c62.667 0 117.667 -8.66699 165 -26s87.333 -40.666 120 -69.999s58 -63.5 76 -102.5
s29 -80.167 33 -123.5h-256c-5.33301 32 -18.666 57.833 -39.999 77.5s-54 29.5 -98 29.5c-40.667 0 -73 -7.83301 -97 -23.5s-36 -35.834 -36 -60.501c0 -20 5.16699 -35 15.5 -45s27.166 -18.333 50.499 -25s53.833 -13.167 91.5 -19.5s84.167 -15.5 139.5 -27.5
c32 -7.33301 63.167 -18.666 93.5 -33.999s57 -35 80 -59s41.5 -52.333 55.5 -85s21 -70.334 21 -113.001c0 -46.667 -9.66699 -89.667 -29 -129s-47.333 -73.333 -84 -102s-81.667 -51.167 -135 -67.5s-114 -24.5 -182 -24.5c-63.333 0 -119.166 9.16699 -167.499 27.5
s-89.5 43 -123.5 74s-61 66.833 -81 107.5s-33.333 83 -40 127h260zM145.998 1102l213 313h272l213 -313h-260l-90 131l-90 -131h-258z" />
    <glyph glyph-name="Scedilla" unicode="&#x15e;" horiz-adv-x="1239" 
d="M836 981c-4 24 -11.3301 46.6709 -21.9971 68.0039s-25.167 40 -43.5 56s-40.5 28.667 -66.5 38s-56 14 -90 14c-30.667 0 -59.167 -3.5 -85.5 -10.5s-49.333 -17.167 -69 -30.5s-35 -29.666 -46 -48.999s-16.5 -41.333 -16.5 -66c0 -32 10.167 -57 30.5 -75
s49 -33.167 86 -45.5s81.167 -23.666 132.5 -33.999s108.333 -23.5 171 -39.5c58.667 -15.333 109.667 -34.666 153 -57.999s79.333 -51 108 -83s50 -68.833 64 -110.5s21 -88.834 21 -141.501c0 -64.667 -13.5 -123.834 -40.5 -177.501s-64.833 -99.834 -113.5 -138.501
s-107.334 -68.834 -176.001 -90.501s-144.334 -32.5 -227.001 -32.5c-90 0 -168 13.5 -234 40.5s-121 62.167 -165 105.5s-77.833 92.666 -101.5 147.999s-38.5 111 -44.5 167h299c4 -30 12.667 -57.667 26 -83s30.666 -47.333 51.999 -66s46.666 -33.334 75.999 -44.001
s62 -16 98 -16c38.667 0 74 4.16699 106 12.5s59.5 20.333 82.5 36s41 34.667 54 57s19.5 47.5 19.5 75.5c0 34.667 -9 61.834 -27 81.501s-44.833 36 -80.5 49s-80 25 -133 36s-114.5 25.5 -184.5 43.5c-39.333 10 -79.333 24.5 -120 43.5s-77.5 43.667 -110.5 74
s-60 67 -81 110s-31.5 93.5 -31.5 151.5c0 61.333 12.333 117.166 37 167.499s59.334 93.333 104.001 129s98.167 63.167 160.5 82.5s131.166 29 206.499 29c89.333 0 165.333 -12.5 228 -37.5s114.334 -57.667 155.001 -98s71.5 -85.833 92.5 -136.5
s34.5 -101.334 40.5 -152.001h-294zM530.003 -93.9961h211.001v-121c0 -41.333 -4.5 -78.5 -13.5 -111.5s-23.5 -61.333 -43.5 -85s-45.667 -41.834 -77 -54.501s-69.333 -19 -114 -19c-9.33301 0 -17.333 0.166992 -24 0.5s-12.334 0.833008 -17.001 1.5
c-5.33301 0.666992 -10 1.33398 -14 2.00098v153h22c22.667 0 40 6.66699 52 20s18 39 18 77v137z" />
    <glyph glyph-name="scedilla" unicode="&#x15f;" horiz-adv-x="963" 
d="M319 324c6.66699 -34 23.332 -61.6699 49.999 -83.0029s64.667 -32 114 -32c24 0 45.667 2.33301 65 7s35.833 11 49.5 19s24 17.333 31 28s10.5 22 10.5 34c0 22.667 -5.5 39.834 -16.5 51.501s-28 21 -51 28s-52.5 13.333 -88.5 19s-79 13.834 -129 24.501
c-36 8 -70 20 -102 36s-60 35.833 -84 59.5s-43 50.834 -57 81.501s-21 64.334 -21 101.001c0 39.333 8 78.166 24 116.499s40.167 72.5 72.5 102.5s73.5 54.333 123.5 73s109 28 177 28c62.667 0 117.667 -8.66699 165 -26s87.333 -40.666 120 -69.999s58 -63.5 76 -102.5
s29 -80.167 33 -123.5h-256c-5.33301 32 -18.666 57.833 -39.999 77.5s-54 29.5 -98 29.5c-40.667 0 -73 -7.83301 -97 -23.5s-36 -35.834 -36 -60.501c0 -20 5.16699 -35 15.5 -45s27.166 -18.333 50.499 -25s53.833 -13.167 91.5 -19.5s84.167 -15.5 139.5 -27.5
c32 -7.33301 63.167 -18.666 93.5 -33.999s57 -35 80 -59s41.5 -52.333 55.5 -85s21 -70.334 21 -113.001c0 -46.667 -9.66699 -89.667 -29 -129s-47.333 -73.333 -84 -102s-81.667 -51.167 -135 -67.5s-114 -24.5 -182 -24.5c-63.333 0 -119.166 9.16699 -167.499 27.5
s-89.5 43 -123.5 74s-61 66.833 -81 107.5s-33.333 83 -40 127h260zM388.998 -94.0029h211.001v-121c0 -41.333 -4.5 -78.5 -13.5 -111.5s-23.5 -61.333 -43.5 -85s-45.667 -41.834 -77 -54.501s-69.333 -19 -114 -19c-9.33301 0 -17.333 0.166992 -24 0.5
s-12.334 0.833008 -17.001 1.5c-5.33301 0.666992 -10 1.33398 -14 2.00098v153h22c22.667 0 40 6.66699 52 20s18 39 18 77v137z" />
    <glyph glyph-name="Scaron" unicode="&#x160;" horiz-adv-x="1239" 
d="M836 981c-4 24 -11.3301 46.6709 -21.9971 68.0039s-25.167 40 -43.5 56s-40.5 28.667 -66.5 38s-56 14 -90 14c-30.667 0 -59.167 -3.5 -85.5 -10.5s-49.333 -17.167 -69 -30.5s-35 -29.666 -46 -48.999s-16.5 -41.333 -16.5 -66c0 -32 10.167 -57 30.5 -75
s49 -33.167 86 -45.5s81.167 -23.666 132.5 -33.999s108.333 -23.5 171 -39.5c58.667 -15.333 109.667 -34.666 153 -57.999s79.333 -51 108 -83s50 -68.833 64 -110.5s21 -88.834 21 -141.501c0 -64.667 -13.5 -123.834 -40.5 -177.501s-64.833 -99.834 -113.5 -138.501
s-107.334 -68.834 -176.001 -90.501s-144.334 -32.5 -227.001 -32.5c-90 0 -168 13.5 -234 40.5s-121 62.167 -165 105.5s-77.833 92.666 -101.5 147.999s-38.5 111 -44.5 167h299c4 -30 12.667 -57.667 26 -83s30.666 -47.333 51.999 -66s46.666 -33.334 75.999 -44.001
s62 -16 98 -16c38.667 0 74 4.16699 106 12.5s59.5 20.333 82.5 36s41 34.667 54 57s19.5 47.5 19.5 75.5c0 34.667 -9 61.834 -27 81.501s-44.833 36 -80.5 49s-80 25 -133 36s-114.5 25.5 -184.5 43.5c-39.333 10 -79.333 24.5 -120 43.5s-77.5 43.667 -110.5 74
s-60 67 -81 110s-31.5 93.5 -31.5 151.5c0 61.333 12.333 117.166 37 167.499s59.334 93.333 104.001 129s98.167 63.167 160.5 82.5s131.166 29 206.499 29c89.333 0 165.333 -12.5 228 -37.5s114.334 -57.667 155.001 -98s71.5 -85.833 92.5 -136.5
s34.5 -101.334 40.5 -152.001h-294zM518.003 1827l90 -137l40 59l50 78h260l-215 -313h-270l-213 313h258z" />
    <glyph glyph-name="scaron" unicode="&#x161;" horiz-adv-x="963" 
d="M319 324c6.66699 -34 23.332 -61.6699 49.999 -83.0029s64.667 -32 114 -32c24 0 45.667 2.33301 65 7s35.833 11 49.5 19s24 17.333 31 28s10.5 22 10.5 34c0 22.667 -5.5 39.834 -16.5 51.501s-28 21 -51 28s-52.5 13.333 -88.5 19s-79 13.834 -129 24.501
c-36 8 -70 20 -102 36s-60 35.833 -84 59.5s-43 50.834 -57 81.501s-21 64.334 -21 101.001c0 39.333 8 78.166 24 116.499s40.167 72.5 72.5 102.5s73.5 54.333 123.5 73s109 28 177 28c62.667 0 117.667 -8.66699 165 -26s87.333 -40.666 120 -69.999s58 -63.5 76 -102.5
s29 -80.167 33 -123.5h-256c-5.33301 32 -18.666 57.833 -39.999 77.5s-54 29.5 -98 29.5c-40.667 0 -73 -7.83301 -97 -23.5s-36 -35.834 -36 -60.501c0 -20 5.16699 -35 15.5 -45s27.166 -18.333 50.499 -25s53.833 -13.167 91.5 -19.5s84.167 -15.5 139.5 -27.5
c32 -7.33301 63.167 -18.666 93.5 -33.999s57 -35 80 -59s41.5 -52.333 55.5 -85s21 -70.334 21 -113.001c0 -46.667 -9.66699 -89.667 -29 -129s-47.333 -73.333 -84 -102s-81.667 -51.167 -135 -67.5s-114 -24.5 -182 -24.5c-63.333 0 -119.166 9.16699 -167.499 27.5
s-89.5 43 -123.5 74s-61 66.833 -81 107.5s-33.333 83 -40 127h260zM395.998 1427l90 -137l40 59l50 78h260l-215 -313h-270l-213 313h258z" />
    <glyph glyph-name="Tcommaaccent" unicode="&#x162;" horiz-adv-x="1087" 
d="M1077 1112h-387v-1112h-288v1112h-392v268h1067v-268zM438 -94h211.001v-121c0 -41.333 -4.5 -78.5 -13.5 -111.5s-23.5 -61.333 -43.5 -85s-45.667 -41.834 -77 -54.501s-69.333 -19 -114 -19c-9.33301 0 -17.333 0.166992 -24 0.5s-12.334 0.833008 -17.001 1.5
c-5.33301 0.666992 -10 1.33398 -14 2.00098v153h22c22.667 0 40 6.66699 52 20s18 39 18 77v137z" />
    <glyph glyph-name="tcommaaccent" unicode="&#x163;" horiz-adv-x="707" 
d="M517 1004l204.001 -0.000976562v-230h-204v-479c0 -12.667 2.33301 -23.667 7 -33s10.5 -17 17.5 -23s14.833 -10.5 23.5 -13.5s17 -4.5 25 -4.5h103v-203c-14.667 -4.66699 -30.334 -8.66699 -47.001 -12c-14.667 -3.33301 -31.167 -6.16602 -49.5 -8.49902
s-37.5 -3.5 -57.5 -3.5c-36 0 -71.167 4.16699 -105.5 12.5s-65 23.5 -92 45.5s-48.667 52.167 -65 90.5s-24.5 87.833 -24.5 148.5v483h-151v230h151v366h265v-366zM399.001 -94.001h211.001v-121c0 -41.333 -4.5 -78.5 -13.5 -111.5s-23.5 -61.333 -43.5 -85
s-45.667 -41.834 -77 -54.501s-69.333 -19 -114 -19c-9.33301 0 -17.333 0.166992 -24 0.5s-12.334 0.833008 -17.001 1.5c-5.33301 0.666992 -10 1.33398 -14 2.00098v153h22c22.667 0 40 6.66699 52 20s18 39 18 77v137z" />
    <glyph glyph-name="Tcaron" unicode="&#x164;" horiz-adv-x="1087" 
d="M1077 1112h-387v-1112h-288v1112h-392v268h1067v-268zM457 1825l90 -137l40 59l50 78h260l-215 -313h-270l-213 313h258z" />
    <glyph glyph-name="tcaron" unicode="&#x165;" horiz-adv-x="1087" 
d="M517 1004l204.001 -0.000976562v-230h-204v-479c0 -12.667 2.33301 -23.667 7 -33s10.5 -17 17.5 -23s14.833 -10.5 23.5 -13.5s17 -4.5 25 -4.5h103v-203c-14.667 -4.66699 -30.334 -8.66699 -47.001 -12c-14.667 -3.33301 -31.167 -6.16602 -49.5 -8.49902
s-37.5 -3.5 -57.5 -3.5c-36 0 -71.167 4.16699 -105.5 12.5s-65 23.5 -92 45.5s-48.667 52.167 -65 90.5s-24.5 87.833 -24.5 148.5v483h-151v230h151v366h265v-366zM848.001 1003v377h236v-377h-236z" />
    <glyph glyph-name="Tbar" unicode="&#x166;" horiz-adv-x="1087" 
d="M1067 1126h-377v-299h182v-221h-182v-606h-289v606h-196v221h196v299h-381v254h1047v-254z" />
    <glyph glyph-name="tbar" unicode="&#x167;" horiz-adv-x="731" 
d="M449 1004l204.001 -0.000976562v-226h-204v-90h202v-219h-202v-174c0 -12.667 2.33301 -23.667 7 -33s10.5 -17 17.5 -23s14.833 -10.5 23.5 -13.5s17 -4.5 25 -4.5h103v-203c-14.667 -4.66699 -30.334 -8.66699 -47.001 -12
c-14.667 -3.33301 -31.167 -6.16602 -49.5 -8.49902s-37.5 -3.5 -57.5 -3.5c-36 0 -71.167 4.16699 -105.5 12.5s-65 23.5 -92 45.5s-48.667 52.167 -65 90.5s-24.5 87.833 -24.5 148.5v178h-151v219h151v90h-151v226h151v366h265v-366z" />
    <glyph glyph-name="Utilde" unicode="&#x168;" horiz-adv-x="1317" 
d="M1192 528c0 -101.333 -13.502 -187.166 -40.502 -257.499s-64.5 -127.333 -112.5 -171s-105 -75.334 -171 -95.001s-137.667 -29.5 -215 -29.5c-74.667 0 -144.167 9.83301 -208.5 29.5s-120.166 51.334 -167.499 95.001s-84.5 100.667 -111.5 171
s-40.5 156.166 -40.5 257.499v852h289v-837c0 -56 5.33301 -103.667 16 -143s26.334 -71.333 47.001 -96s45.667 -42.667 75 -54s63 -17 101 -17c40.667 0 76.5 5.66699 107.5 17s57 29.333 78 54s37 56.667 48 96s16.5 87 16.5 143v837h289v-852zM999.998 1759
c-3.33301 -38 -10.832 -73.502 -22.499 -106.502s-26.834 -61.667 -45.501 -86s-40.667 -43.666 -66 -57.999s-53.333 -21.5 -84 -21.5c-32 0 -63.167 6 -93.5 18s-57.166 23.667 -80.499 35c-13.333 6.66699 -24.833 12.167 -34.5 16.5s-21.167 6.5 -34.5 6.5
c-14.667 0 -24.834 -6.33301 -30.501 -19s-10.5 -29.667 -14.5 -51h-193c4.66699 37.333 12.834 72.333 24.501 105s27.167 61 46.5 85s42.666 43 69.999 57s59.666 21 96.999 21c22.667 0 44.5 -4 65.5 -12s44.167 -18.333 69.5 -31
c23.333 -11.333 41.333 -19.166 54 -23.499s25.334 -6.5 38.001 -6.5s22.5 7.5 29.5 22.5s12.167 31.167 15.5 48.5h189z" />
    <glyph glyph-name="utilde" unicode="&#x169;" horiz-adv-x="1067" 
d="M952 1004l0.000976562 -1004h-260l-4 70c-35.333 -26 -74 -46.167 -116 -60.5s-83 -21.5 -123 -21.5c-54.667 0 -103.5 9.66699 -146.5 29s-79.333 46.333 -109 81s-52.334 76.334 -68.001 125.001s-23.5 102 -23.5 160v621h265v-603c0 -34 4.66699 -62.5 14 -85.5
s21.166 -41.5 35.499 -55.5s30.166 -24 47.499 -30s34 -9 50 -9c28 0 52.833 4.66699 74.5 14s39.834 24.666 54.501 45.999s25.834 49.333 33.501 84s11.5 77.667 11.5 129v510h264zM900.001 1384c-3.33301 -38 -10.832 -73.502 -22.499 -106.502
s-26.834 -61.667 -45.501 -86s-40.667 -43.666 -66 -57.999s-53.333 -21.5 -84 -21.5c-32 0 -63.167 6 -93.5 18s-57.166 23.667 -80.499 35c-13.333 6.66699 -24.833 12.167 -34.5 16.5s-21.167 6.5 -34.5 6.5c-14.667 0 -24.834 -6.33301 -30.501 -19
s-10.5 -29.667 -14.5 -51h-193c4.66699 37.333 12.834 72.333 24.501 105s27.167 61 46.5 85s42.666 43 69.999 57s59.666 21 96.999 21c22.667 0 44.5 -4 65.5 -12s44.167 -18.333 69.5 -31c23.333 -11.333 41.333 -19.166 54 -23.499s25.334 -6.5 38.001 -6.5
s22.5 7.5 29.5 22.5s12.167 31.167 15.5 48.5h189z" />
    <glyph glyph-name="Umacron" unicode="&#x16a;" horiz-adv-x="1317" 
d="M1192 528c0 -101.333 -13.502 -187.166 -40.502 -257.499s-64.5 -127.333 -112.5 -171s-105 -75.334 -171 -95.001s-137.667 -29.5 -215 -29.5c-74.667 0 -144.167 9.83301 -208.5 29.5s-120.166 51.334 -167.499 95.001s-84.5 100.667 -111.5 171
s-40.5 156.166 -40.5 257.499v852h289v-837c0 -56 5.33301 -103.667 16 -143s26.334 -71.333 47.001 -96s45.667 -42.667 75 -54s63 -17 101 -17c40.667 0 76.5 5.66699 107.5 17s57 29.333 78 54s37 56.667 48 96s16.5 87 16.5 143v837h289v-852zM343.998 1731h635v-193
h-635v193z" />
    <glyph glyph-name="umacron" unicode="&#x16b;" horiz-adv-x="1067" 
d="M952 1004l0.000976562 -1004h-260l-4 70c-35.333 -26 -74 -46.167 -116 -60.5s-83 -21.5 -123 -21.5c-54.667 0 -103.5 9.66699 -146.5 29s-79.333 46.333 -109 81s-52.334 76.334 -68.001 125.001s-23.5 102 -23.5 160v621h265v-603c0 -34 4.66699 -62.5 14 -85.5
s21.166 -41.5 35.499 -55.5s30.166 -24 47.499 -30s34 -9 50 -9c28 0 52.833 4.66699 74.5 14s39.834 24.666 54.501 45.999s25.834 49.333 33.501 84s11.5 77.667 11.5 129v510h264zM225.001 1356h635v-193h-635v193z" />
    <glyph glyph-name="Ubreve" unicode="&#x16c;" horiz-adv-x="1317" 
d="M1192 528c0 -101.333 -13.502 -187.166 -40.502 -257.499s-64.5 -127.333 -112.5 -171s-105 -75.334 -171 -95.001s-137.667 -29.5 -215 -29.5c-74.667 0 -144.167 9.83301 -208.5 29.5s-120.166 51.334 -167.499 95.001s-84.5 100.667 -111.5 171
s-40.5 156.166 -40.5 257.499v852h289v-837c0 -56 5.33301 -103.667 16 -143s26.334 -71.333 47.001 -96s45.667 -42.667 75 -54s63 -17 101 -17c40.667 0 76.5 5.66699 107.5 17s57 29.333 78 54s37 56.667 48 96s16.5 87 16.5 143v837h289v-852zM935.998 1759
c-0.666992 -45.333 -8.83301 -86.166 -24.5 -122.499s-36.667 -67.166 -63 -92.499s-56.833 -44.833 -91.5 -58.5s-71.334 -20.5 -110.001 -20.5c-40 0 -77.5 6.83301 -112.5 20.5s-65.5 33.167 -91.5 58.5s-46.5 56.166 -61.5 92.499s-22.833 77.166 -23.5 122.499h188
c0.666992 -16.667 3.83398 -31.667 9.50098 -45s13.167 -24.5 22.5 -33.5s20 -15.833 32 -20.5s24.333 -7 37 -7c24.667 0 46.5 9 65.5 27s28.5 44.333 28.5 79h195z" />
    <glyph glyph-name="ubreve" unicode="&#x16d;" horiz-adv-x="1067" 
d="M952 1004l0.000976562 -1004h-260l-4 70c-35.333 -26 -74 -46.167 -116 -60.5s-83 -21.5 -123 -21.5c-54.667 0 -103.5 9.66699 -146.5 29s-79.333 46.333 -109 81s-52.334 76.334 -68.001 125.001s-23.5 102 -23.5 160v621h265v-603c0 -34 4.66699 -62.5 14 -85.5
s21.166 -41.5 35.499 -55.5s30.166 -24 47.499 -30s34 -9 50 -9c28 0 52.833 4.66699 74.5 14s39.834 24.666 54.501 45.999s25.834 49.333 33.501 84s11.5 77.667 11.5 129v510h264zM836.001 1384c-0.666992 -45.333 -8.83301 -86.166 -24.5 -122.499
s-36.667 -67.166 -63 -92.499s-56.833 -44.833 -91.5 -58.5s-71.334 -20.5 -110.001 -20.5c-40 0 -77.5 6.83301 -112.5 20.5s-65.5 33.167 -91.5 58.5s-46.5 56.166 -61.5 92.499s-22.833 77.166 -23.5 122.499h188c0.666992 -16.667 3.83398 -31.667 9.50098 -45
s13.167 -24.5 22.5 -33.5s20 -15.833 32 -20.5s24.333 -7 37 -7c24.667 0 46.5 9 65.5 27s28.5 44.333 28.5 79h195z" />
    <glyph glyph-name="Uring" unicode="&#x16e;" horiz-adv-x="1317" 
d="M1192 528c0 -101.333 -13.502 -187.166 -40.502 -257.499s-64.5 -127.333 -112.5 -171s-105 -75.334 -171 -95.001s-137.667 -29.5 -215 -29.5c-74.667 0 -144.167 9.83301 -208.5 29.5s-120.166 51.334 -167.499 95.001s-84.5 100.667 -111.5 171
s-40.5 156.166 -40.5 257.499v852h289v-837c0 -56 5.33301 -103.667 16 -143s26.334 -71.333 47.001 -96s45.667 -42.667 75 -54s63 -17 101 -17c40.667 0 76.5 5.66699 107.5 17s57 29.333 78 54s37 56.667 48 96s16.5 87 16.5 143v837h289v-852zM569.998 1759
c0 -25.333 8.66504 -45.666 25.998 -60.999s37.333 -23 60 -23s42.667 7.66699 60 23s26 35.666 26 60.999c0 11.333 -2.33301 22 -7 32s-11 18.667 -19 26s-17.167 13.166 -27.5 17.499s-21.166 6.5 -32.499 6.5s-22.166 -2.16699 -32.499 -6.5
s-19.5 -10.166 -27.5 -17.499s-14.333 -16 -19 -26s-7 -20.667 -7 -32zM436.996 1759c0 29.333 5.66699 56.833 17 82.5s26.833 48.167 46.5 67.5s42.834 34.666 69.501 45.999s55.334 17 86.001 17c31.333 0 60.5 -5.66699 87.5 -17s50.333 -26.666 70 -45.999
s35.167 -41.833 46.5 -67.5s17 -53.167 17 -82.5c0 -30 -5.66699 -58.167 -17 -84.5s-26.833 -49.333 -46.5 -69s-43 -35.167 -70 -46.5s-56.167 -17 -87.5 -17c-30.667 0 -59.334 5.66699 -86.001 17s-49.834 26.833 -69.501 46.5s-35.167 42.667 -46.5 69
s-17 54.5 -17 84.5z" />
    <glyph glyph-name="uring" unicode="&#x16f;" horiz-adv-x="1067" 
d="M952 1004l0.000976562 -1004h-260l-4 70c-35.333 -26 -74 -46.167 -116 -60.5s-83 -21.5 -123 -21.5c-54.667 0 -103.5 9.66699 -146.5 29s-79.333 46.333 -109 81s-52.334 76.334 -68.001 125.001s-23.5 102 -23.5 160v621h265v-603c0 -34 4.66699 -62.5 14 -85.5
s21.166 -41.5 35.499 -55.5s30.166 -24 47.499 -30s34 -9 50 -9c28 0 52.833 4.66699 74.5 14s39.834 24.666 54.501 45.999s25.834 49.333 33.501 84s11.5 77.667 11.5 129v510h264zM457.001 1354c0 -25.333 8.66504 -45.666 25.998 -60.999s37.333 -23 60 -23
s42.667 7.66699 60 23s26 35.666 26 60.999c0 11.333 -2.33301 22 -7 32s-11 18.667 -19 26s-17.167 13.166 -27.5 17.499s-21.166 6.5 -32.499 6.5s-22.166 -2.16699 -32.499 -6.5s-19.5 -10.166 -27.5 -17.499s-14.333 -16 -19 -26s-7 -20.667 -7 -32zM323.999 1354
c0 29.333 5.66699 56.833 17 82.5s26.833 48.167 46.5 67.5s42.834 34.666 69.501 45.999s55.334 17 86.001 17c31.333 0 60.5 -5.66699 87.5 -17s50.333 -26.666 70 -45.999s35.167 -41.833 46.5 -67.5s17 -53.167 17 -82.5c0 -30 -5.66699 -58.167 -17 -84.5
s-26.833 -49.333 -46.5 -69s-43 -35.167 -70 -46.5s-56.167 -17 -87.5 -17c-30.667 0 -59.334 5.66699 -86.001 17s-49.834 26.833 -69.501 46.5s-35.167 42.667 -46.5 69s-17 54.5 -17 84.5z" />
    <glyph glyph-name="Uhungarumlaut" unicode="&#x170;" horiz-adv-x="1317" 
d="M1192 528c0 -101.333 -13.502 -187.166 -40.502 -257.499s-64.5 -127.333 -112.5 -171s-105 -75.334 -171 -95.001s-137.667 -29.5 -215 -29.5c-74.667 0 -144.167 9.83301 -208.5 29.5s-120.166 51.334 -167.499 95.001s-84.5 100.667 -111.5 171
s-40.5 156.166 -40.5 257.499v852h289v-837c0 -56 5.33301 -103.667 16 -143s26.334 -71.333 47.001 -96s45.667 -42.667 75 -54s63 -17 101 -17c40.667 0 76.5 5.66699 107.5 17s57 29.333 78 54s37 56.667 48 96s16.5 87 16.5 143v837h289v-852zM601.998 1526l215 313h236
l-131 -188l-88 -125h-232zM271.998 1526l215 313h236l-88 -125l-131 -188h-232z" />
    <glyph glyph-name="uhungarumlaut" unicode="&#x171;" horiz-adv-x="1067" 
d="M952 1004l0.000976562 -1004h-260l-4 70c-35.333 -26 -74 -46.167 -116 -60.5s-83 -21.5 -123 -21.5c-54.667 0 -103.5 9.66699 -146.5 29s-79.333 46.333 -109 81s-52.334 76.334 -68.001 125.001s-23.5 102 -23.5 160v621h265v-603c0 -34 4.66699 -62.5 14 -85.5
s21.166 -41.5 35.499 -55.5s30.166 -24 47.499 -30s34 -9 50 -9c28 0 52.833 4.66699 74.5 14s39.834 24.666 54.501 45.999s25.834 49.333 33.501 84s11.5 77.667 11.5 129v510h264zM553.001 1124l215 313h236l-131 -188l-88 -125h-232zM223.001 1124l215 313h236l-88 -125
l-131 -188h-232z" />
    <glyph glyph-name="Uogonek" unicode="&#x172;" horiz-adv-x="1317" 
d="M1192 528c0 -101.333 -13.502 -187.166 -40.502 -257.499s-64.5 -127.333 -112.5 -171s-105 -75.334 -171 -95.001s-137.667 -29.5 -215 -29.5c-74.667 0 -144.167 9.83301 -208.5 29.5s-120.166 51.334 -167.499 95.001s-84.5 100.667 -111.5 171
s-40.5 156.166 -40.5 257.499v852h289v-837c0 -56 5.33301 -103.667 16 -143s26.334 -71.333 47.001 -96s45.667 -42.667 75 -54s63 -17 101 -17c40.667 0 76.5 5.66699 107.5 17s57 29.333 78 54s37 56.667 48 96s16.5 87 16.5 143v837h289v-852zM749.998 -233
c0 -38 6 -63.667 18 -77s29.333 -20 52 -20h22v-153c-4 -0.666992 -8.66699 -1.33398 -14 -2.00098c-4.66699 -0.666992 -10.5 -1.16699 -17.5 -1.5s-14.833 -0.5 -23.5 -0.5c-44.667 0 -82.667 6.33301 -114 19s-57 30.834 -77 54.501s-34.5 52 -43.5 85
s-13.5 70.167 -13.5 111.5v121h211v-137z" />
    <glyph glyph-name="uogonek" unicode="&#x173;" horiz-adv-x="1067" 
d="M952 1004l0.000976562 -1004h-260l-4 70c-35.333 -26 -74 -46.167 -116 -60.5s-83 -21.5 -123 -21.5c-54.667 0 -103.5 9.66699 -146.5 29s-79.333 46.333 -109 81s-52.334 76.334 -68.001 125.001s-23.5 102 -23.5 160v621h265v-603c0 -34 4.66699 -62.5 14 -85.5
s21.166 -41.5 35.499 -55.5s30.166 -24 47.499 -30s34 -9 50 -9c28 0 52.833 4.66699 74.5 14s39.834 24.666 54.501 45.999s25.834 49.333 33.501 84s11.5 77.667 11.5 129v510h264zM913.001 -235c0 -38 6 -63.667 18 -77s29.333 -20 52 -20h22v-153
c-4 -0.666992 -8.66699 -1.33398 -14 -2.00098c-4.66699 -0.666992 -10.5 -1.16699 -17.5 -1.5s-14.833 -0.5 -23.5 -0.5c-44.667 0 -82.667 6.33301 -114 19s-57 30.834 -77 54.501s-34.5 52 -43.5 85s-13.5 70.167 -13.5 111.5v121h211v-137z" />
    <glyph glyph-name="Wcircumflex" unicode="&#x174;" horiz-adv-x="1665" 
d="M1313 0h-260l-219 877l-232 -877h-252l-350 1380h295l205 -876l209 876h243l215 -876l207 876h291zM488 1477l213 313h272l213 -313h-260l-90 131l-90 -131h-258z" />
    <glyph glyph-name="wcircumflex" unicode="&#x175;" horiz-adv-x="1378" 
d="M1083 0h-219l-178 602l-176 -602h-217l-291 1004h272l146 -590l160 590h219l157 -592l150 592h270zM336 1102l213 313h272l213 -313h-260l-90 131l-90 -131h-258z" />
    <glyph glyph-name="Ycircumflex" unicode="&#x176;" horiz-adv-x="1174" 
d="M733 561v-561h-291v563l-465 817h316l297 -534l293 534h315zM229 1477l213 313h272l213 -313h-260l-90 131l-90 -131h-258z" />
    <glyph glyph-name="ycircumflex" unicode="&#x177;" horiz-adv-x="954" 
d="M537 -180c-11.333 -32 -26.8311 -61 -46.498 -87s-42.5 -48 -68.5 -66s-55 -31.833 -87 -41.5s-66 -14.5 -102 -14.5c-14 0 -32.167 0.5 -54.5 1.5s-44.833 3.16699 -67.5 6.5v223h106c28 0 48.833 5.33301 62.5 16s23.5 22.667 29.5 36
c7.33301 14 14.666 29.5 21.999 46.5s13.666 32.833 18.999 47.5l-176.5 508l-177.5 508h276l205 -650l209 650h272zM129.002 1102l213 313h272l213 -313h-260l-90 131l-90 -131h-258z" />
    <glyph glyph-name="Ydieresis" unicode="&#x178;" horiz-adv-x="1174" 
d="M733 561v-561h-291v563l-465 817h316l297 -534l293 534h315zM542 1528h-249v264h249v-264zM897 1528h-250v264h250v-264z" />
    <glyph glyph-name="Zacute" unicode="&#x179;" horiz-adv-x="1112" 
d="M1055 1176l-641 -910h657v-266h-1022v205l647 911h-604v264h963v-204zM358 1511l215 313h295l-248 -313h-262z" />
    <glyph glyph-name="zacute" unicode="&#x17a;" horiz-adv-x="907" 
d="M844 811l-447 -578h453v-233h-801v197l461 573h-457v234h791v-193zM254 1112l215 313h295l-248 -313h-262z" />
    <glyph glyph-name="Zdotaccent" unicode="&#x17b;" horiz-adv-x="1112" 
d="M1055 1176l-641 -910h657v-266h-1022v205l647 911h-604v264h963v-204zM703 1585h-268v282h268v-282z" />
    <glyph glyph-name="zdotaccent" unicode="&#x17c;" horiz-adv-x="911" 
d="M844 811l-447 -578h453v-233h-801v197l461 573h-457v234h791v-193zM621 1190h-268v282h268v-282z" />
    <glyph glyph-name="Zcaron" unicode="&#x17d;" horiz-adv-x="1112" 
d="M1055 1176l-641 -910h657v-266h-1022v205l647 911h-604v264h963v-204zM500 1827l90 -137l40 59l50 78h260l-215 -313h-270l-213 313h258z" />
    <glyph glyph-name="zcaron" unicode="&#x17e;" horiz-adv-x="911" 
d="M844 811l-447 -578h453v-233h-801v197l461 573h-457v234h791v-193zM387 1427l90 -137l40 59l50 78h260l-215 -313h-270l-213 313h258z" />
    <glyph glyph-name="longs" unicode="&#x17f;" horiz-adv-x="606" 
d="M655 1159h-133.001c-21.333 0 -37.5 -5.83301 -48.5 -17.5s-16.5 -32.5 -16.5 -62.5v-1079h-283v774h-154v230h154v57c0 62 6.83301 114.333 20.5 157s34.167 77 61.5 103s61.333 44.833 102 56.5s88 17.5 142 17.5c16.667 0 33.167 -1 49.5 -3s31.333 -4.33301 45 -7
s25.834 -5.5 36.501 -8.5s18.667 -5.16699 24 -6.5v-211z" />
    <glyph glyph-name="uni018F" unicode="&#x18f;" horiz-adv-x="1337" 
d="M96 942c8.66699 64 27.6641 124.17 56.9971 180.503s67.833 105.333 115.5 147s104 74.667 169 99s137.5 36.5 217.5 36.5c98.667 0 186 -16.667 262 -50s139.833 -81 191.5 -143s90.834 -137 117.501 -225s40 -186.333 40 -295c0 -109.333 -13 -208 -39 -296
s-64.5 -163.333 -115.5 -226s-114.333 -110.834 -190 -144.501s-163.167 -50.5 -262.5 -50.5c-100 0 -186.167 14.667 -258.5 44s-131.833 69 -178.5 119s-81 108 -103 174s-33 136 -33 210v266h885c-11.333 118 -43.333 207.667 -96 269s-126 92 -220 92
c-34.667 0 -67 -4.66699 -97 -14s-56.667 -22.833 -80 -40.5s-42.666 -39.334 -57.999 -65.001s-25.666 -54.834 -30.999 -87.501h-293zM658.997 231.003c84.667 0 152.332 25.166 202.999 75.499s84.334 124.833 101.001 223.5h-588v-63
c0 -29.333 5.66699 -58.166 17 -86.499s28.5 -53.5 51.5 -75.5s52.333 -39.833 88 -53.5s78.167 -20.5 127.5 -20.5z" />
    <glyph glyph-name="florin" unicode="&#x192;" horiz-adv-x="711" 
d="M664 1147l-126.999 -0.000976562c-25.333 0 -42.666 -6 -51.999 -18s-14 -31.333 -14 -58v-70h186v-233h-186v-815c0 -62 -6.83301 -113.833 -20.5 -155.5s-33.667 -75.167 -60 -100.5s-59.333 -43.333 -99 -54s-85.5 -16 -137.5 -16c-17.333 0 -38.333 0.666992 -63 2
s-53 4.33301 -85 9v221h125c23.333 0 40.5 5.33301 51.5 16s16.5 30.334 16.5 59.001v834h-150v233h150v52c0 61.333 6.66699 113 20 155s33.166 75.833 59.499 101.5s59.166 44.167 98.499 55.5s85 17 137 17c34 0 84 -6 150 -18v-217z" />
    <glyph glyph-name="uni01DD" unicode="&#x1dd;" horiz-adv-x="1038" 
d="M86 684c15.333 51.333 35.499 97.667 60.499 139s55.333 76.666 91 105.999s76.667 51.833 123 67.5s98.166 23.5 155.499 23.5c70.667 0 134.334 -11.667 191.001 -35s105 -57.166 145 -101.499s70.833 -98.666 92.5 -162.999s32.5 -137.166 32.5 -218.499
c0 -79.333 -10.667 -150.833 -32 -214.5s-52 -117.834 -92 -162.501s-88.667 -79 -146 -103s-121.666 -36 -192.999 -36c-72.667 0 -137.167 13.167 -193.5 39.5s-103.666 62.166 -141.999 107.499s-67.5 98.333 -87.5 159s-30 125.334 -30 194.001
c0 26.667 1.33301 51 4 73s4.66699 35.667 6 41h635c-4 36.667 -12 67 -24 91s-26.5 43.167 -43.5 57.5s-36.333 24.333 -58 30s-43.834 8.5 -66.501 8.5c-16 0 -31.833 -1.5 -47.5 -4.5s-30.5 -8.5 -44.5 -16.5s-26.833 -18.833 -38.5 -32.5s-21.5 -30.834 -29.5 -51.501z
M515.999 215.001c54 0 96.333 16.332 127 48.999s51 79.334 61 140.001h-371c2 -27.333 7.5 -52.5 16.5 -75.5s21 -43 36 -60s33.5 -30.167 55.5 -39.5s47 -14 75 -14z" />
    <glyph glyph-name="AEacute" unicode="&#x1fc;" horiz-adv-x="1671" 
d="M1581 1116h-600v-282h492v-265h-492v-305h600v-264h-889v346h-301l-129 -346h-301l526 1380h1094v-264zM692 1133l-211 -539h211v539zM788 1489l215 313h295l-248 -313h-262z" />
    <glyph glyph-name="aeacute" unicode="&#x1fd;" horiz-adv-x="1626" 
d="M784 111c-38.667 -39.333 -86.167 -70.0039 -142.5 -92.0039s-122.166 -33 -197.499 -33c-49.333 0 -96.333 5.16699 -141 15.5s-84.167 27.833 -118.5 52.5s-61.666 57.334 -81.999 98.001s-30.5 91.667 -30.5 153c0 52.667 11.5 98.167 34.5 136.5
s54.167 69.833 93.5 94.5s85 42.834 137 54.501s107 17.5 165 17.5c25.333 0 48.166 -0.166992 68.499 -0.5s38.166 -0.5 53.499 -0.5c17.333 -0.666992 33.333 -1 48 -1c0 26.667 -2.5 51.834 -7.5 75.501s-13.5 44.334 -25.5 62.001s-28 31.667 -48 42s-45 15.5 -75 15.5
c-28.667 0 -52.334 -3.33301 -71.001 -10s-33.5 -15.167 -44.5 -25.5s-19.167 -21.666 -24.5 -33.999s-9 -24.166 -11 -35.499h-265c7.33301 60 23.833 110.667 49.5 152s57.334 74.666 95.001 99.999s79.667 43.666 126 54.999s93.5 17 141.5 17
c68 0 128.167 -9.5 180.5 -28.5s94.5 -45.167 126.5 -78.5c38 32 82 57.833 132 77.5s104.333 29.5 163 29.5c72.667 0 137 -13.333 193 -40s103.167 -62.667 141.5 -108s67.333 -98.5 87 -159.5s29.5 -125.833 29.5 -194.5c0 -26.667 -1.5 -50 -4.5 -70
s-5.16699 -32.667 -6.5 -38h-630c2.66699 -34.667 10 -64.167 22 -88.5s26.833 -44.333 44.5 -60s37.167 -27 58.5 -34s43 -10.5 65 -10.5c16 0 31.833 1.66699 47.5 5s30.5 9 44.5 17s26.833 18.833 38.5 32.5s21.5 31.167 29.5 52.5h268
c-15.333 -51.333 -35.833 -97.833 -61.5 -139.5s-56.5 -77.167 -92.5 -106.5s-77 -52 -123 -68s-97 -24 -153 -24c-66 0 -127.167 11 -183.5 33s-104.5 52.667 -144.5 92zM1112 787.996c-26 0 -49.834 -4.50098 -71.501 -13.501s-40.667 -21.667 -57 -38
s-29.666 -36.166 -39.999 -59.499s-16.833 -49 -19.5 -77h368c-2 27.333 -7.16699 52.5 -15.5 75.5s-20 42.833 -35 59.5s-33.333 29.667 -55 39s-46.5 14 -74.5 14zM460.999 202.995c41.333 0 75.668 6.5 103.001 19.5s49 29.667 65 50s27.167 43.333 33.5 69
s9.5 51.167 9.5 76.5c-14 0 -29 0.333008 -45 1c-14 0 -30 0.166992 -48 0.5s-37 0.5 -57 0.5c-62.667 0 -109 -8.5 -139 -25.5s-45 -43.5 -45 -79.5c0 -32.667 10.167 -59.5 30.5 -80.5s51.166 -31.5 92.499 -31.5zM561.001 1112l215 313h295l-248 -313h-262z" />
    </font>
</defs>
</svg>
